#TITLE:Super Shooter;
#SUBTITLE:;
#ARTIST:RIP SLYME;
#TITLETRANSLIT:;
#SUBTITLETRANSLIT:;
#ARTISTTRANSLIT:;
#CREDIT:DigiMindAxel;
#BANNER:Super Shooter.png;
#BACKGROUND:Super Shooter-bg.png;
#LYRICSPATH:Super Shooter.lrc;
#CDTITLE:DMAxel original simfile.png;
#MUSIC:Super Shooter.mp3;
#OFFSET:-5.640;
#SAMPLESTART:64.260;
#SAMPLELENGTH:10.580;
#SELECTABLE:YES;
#BPMS:0.000=180.000;
#STOPS:6.000=0.333
,13.000=0.333
;
#BGCHANGES:-16.000=Super Shooter.avi=1.000=1=1=0,
99999=-nosongbg-=1.000=0=0=0 // don't automatically add -songbackground-
;

//---------------dance-single - ----------------
#NOTES:
     dance-single:
     :
     Challenge:
     9:
     0.732,0.683,0.417,0.135,0.147: // measure 1
2000
0001
0100
3001
,  // measure 2
0100
0010
0100
0002
,  // measure 3
1000
0100
1003
0010
,  // measure 4
0100
0000
0010
0000
1000
0001
0100
0000
,  // measure 5
0001
0100
0001
0000
0010
0000
0100
0000
1000
0000
0010
0000
0100
0000
0001
0000
,  // measure 6
1000
0000
0100
1000
0010
0000
0100
0001
,  // measure 7
1000
0100
1000
0000
0001
0000
0010
0000
0100
0000
1000
0000
0010
0000
0000
0000
,  // measure 8
0100
0001
1000
0100
1100
0000
1100
0000
,  // measure 9
0011
0011
0110
0110
,  // measure 10
1001
0000
1001
0000
0001
0010
0100
1000
,  // measure 11
0001
0000
0100
0000
0010
0000
1000
0000
0001
1000
0001
1000
0001
1000
0001
1000
,  // measure 12
0001
0000
1001
0000
1000
0100
0010
0100
,  // measure 13
1000
0000
0000
0100
0000
0000
0001
0000
0100
0000
1000
0000
0010
0000
0100
0000
,  // measure 14
0101
0000
0101
0000
0001
0010
0100
0010
,  // measure 15
0001
1000
0100
0001
0100
1000
0010
0100
,  // measure 16
0101
0000
0101
0000
0001
1000
0100
0001
,  // measure 17
0100
1000
0010
0200
0000
0310
0200
0000
,  // measure 18
0301
0000
1001
0000
1000
0001
0010
1000
,  // measure 19
0010
0001
1000
0010
0100
0100
0001
0010
,  // measure 20
0100
1000
0001
0000
1000
0001
0100
1000
,  // measure 21
0100
0001
1000
0000
0001
1000
0100
0001
,  // measure 22
0100
0000
1000
0000
0001
0000
0000
0000
0010
0000
0100
0000
1000
0000
0001
0100
,  // measure 23
0001
0000
0010
0000
0100
0000
1000
0000
0001
0000
1000
0010
1000
0000
0010
0000
,  // measure 24
0100
0000
0000
0000
0110
0000
0000
0000
0001
0000
0100
0010
0100
0000
0010
0100
,  // measure 25
0010
0000
1000
0001
1000
0000
0001
0000
0010
0000
1000
0000
0010
0000
0001
0000
,  // measure 26
2000
0000
3001
0100
1000
0000
1000
0100
,  // measure 27
0001
0000
0010
0100
1000
0010
0100
0001
,  // measure 28
1000
0000
1001
0000
0001
1000
1000
0100
,  // measure 29
0010
0000
0001
1000
0001
0000
0000
0000
1000
0000
0001
0000
0001
0000
0100
0000
,  // measure 30
0010
0000
1000
0001
1000
0000
0000
0000
0001
0000
0100
0010
0100
0000
0001
0000
,  // measure 31
1000
0100
0100
1000
0001
0010
1000
0010
,  // measure 32
0002
0000
0000
0000
1003
0000
0000
0000
0001
0000
0010
0100
0010
0000
0001
0000
,  // measure 33
1000
0010
0010
1000
0001
0010
0100
1000
,  // measure 34
0002
0000
0000
0000
1003
0000
0000
0000
0001
0000
0010
0000
0100
0000
1000
0010
,  // measure 35
0000
1000
0010
0000
0100
0000
0001
0000
0010
0000
0100
0000
1000
0000
0000
0000
,  // measure 36
1001
0110
1001
0200
,  // measure 37
0001
0301
1000
0100
0001
0100
1000
0001
,  // measure 38
0010
0100
0010
0000
0002
0000
0100
0203
,  // measure 39
0000
0010
0320
0000
1000
2030
0000
0001
,  // measure 40
3001
0000
0000
0000
1000
0001
1000
0001
1000
0000
0000
0000
0010
0000
0010
0000
,  // measure 41
1000
0100
0001
0100
1000
0001
0010
0100
,  // measure 42
0010
0001
0100
0000
1001
0000
1000
0000
,  // measure 43
0001
0000
1000
0000
0001
1000
0001
1000
,  // measure 44
0001
1000
0001
1000
0001
1000
0001
1000
0001
0000
0000
0000
0101
0000
0000
0000
,  // measure 45
1100
0000
1000
0100
0001
1000
0010
0001
,  // measure 46
1000
1001
0100
1100
,  // measure 47
0101
0000
0001
0100
1000
0001
0010
1000
,  // measure 48
0001
1001
0101
0110
,  // measure 49
1100
0000
1000
0100
0001
1000
0010
0001
,  // measure 50
1000
1001
1010
0110
,  // measure 51
0011
0000
0001
0100
1000
0001
0010
1000
,  // measure 52
0001
0000
1001
0000
1000
0100
0001
0100
,  // measure 53
1000
0000
0001
0100
1000
0001
0010
1000
,  // measure 54
0001
0000
1001
0000
0001
0010
1000
0010
,  // measure 55
0001
0000
1000
0100
0001
1000
0010
0001
,  // measure 56
1000
0000
1001
0000
1000
0010
0001
0010
,  // measure 57
1000
0000
0001
0100
1000
0001
0010
1000
,  // measure 58
0001
0000
1001
0000
0001
0100
1000
0100
,  // measure 59
0001
0010
1000
0010
0001
1000
0100
0010
,  // measure 60
0001
0000
1000
0000
0010
0000
0000
0000
1000
0000
0000
0001
0000
0000
0010
0000
,  // measure 61
0000
0100
0000
0000
1000
0000
0001
0000
0001
0000
0000
0000
0000
0000
0000
0000
;

//---------------dance-single - ----------------
#NOTES:
     dance-single:
     :
     Hard:
     8:
     0.637,0.614,0.451,0.248,0.113:
2000
0000
0000
0000
,
3200
0000
0300
0020
,
0000
0000
0000
0032
,
0000
0003
0001
1001
,
0100
1001
0001
0101
,
0100
1100
0100
0101
,
0100
1100
0010
0110
,
0100
0110
0110
0110
,
1001
1001
0011
0011
,
1100
0000
1100
0000
1000
0100
0010
0001
,
1000
0010
0100
0001
2000
0000
0000
0000
,
0000
0000
3001
0000
1000
0100
0001
0100
,
1000
0000
0000
0001
0000
0000
0010
0000
0000
0000
0100
0000
0010
0000
0001
0000
,
1000
0000
1001
0000
0001
0010
0100
0000
,
0100
0010
0001
0000
1000
0010
0001
0010
,
1000
0000
1001
0000
0001
0010
1000
0010
,
0001
0000
0000
1000
0000
0000
0100
0000
0000
0000
0010
0000
0100
0000
1000
0000
,
0001
0000
1001
0000
1000
0100
0010
0000
,
0010
0100
1000
0000
0010
0010
0000
0100
,
0001
1000
0100
0000
1000
1000
0001
0001
,
1000
0010
0100
0001
0010
0100
1000
0000
,
0001
0000
1000
0000
0001
0001
1000
1000
,
0001
0010
0100
1000
0001
0100
0010
1000
,
0001
0000
0000
0000
1000
0000
0000
0000
0001
0000
0000
0001
0100
0000
0000
0100
,
0010
0000
1000
1000
1000
0100
0010
0001
,
1000
0000
0020
0000
0130
0000
0001
0010
,
0100
0000
0100
0010
0001
1000
0010
0100
,
0001
0000
0000
0000
1001
0000
0000
0000
0000
0000
1000
0000
0010
0000
0100
0010
,
0000
0100
0010
0000
1000
0000
0000
0000
0001
0000
0100
0010
0000
0100
0010
0000
,
0100
0000
0001
0000
0010
0000
0000
0000
0000
0000
0001
1000
0000
0001
1000
0000
,
0100
0010
0100
0000
1000
0010
0100
0001
,
0010
0000
0000
0000
0010
0000
0000
0000
0001
0000
0000
0000
1000
0000
0100
0010
,
0000
0100
0010
0000
0001
0000
0000
0000
1000
0000
0010
0100
0000
0010
0100
0000
,
0001
0000
0010
0000
0100
0000
1000
0000
0001
0000
0010
0001
0000
0010
0001
0000
,
0100
0010
0000
0100
0010
0000
0000
0000
1000
0000
0100
1000
0000
0100
1000
0000
,
0010
0000
0010
0000
0010
1000
0100
0010
,
0001
1000
0000
0010
0000
0100
0000
0001
,
0010
0100
1000
0000
0001
0100
0010
1000
,
0000
1000
0001
0000
1000
0100
0010
0001
,
1000
0000
0002
0000
1003
0000
0001
0010
,
1000
0010
0001
0100
0000
0010
0000
1000
,
0002
1003
1001
0001
,
1000
0000
0001
0000
1000
0001
1000
0001
,
2000
0000
3002
0023
,
0230
0000
0301
0100
0000
1000
0100
0010
,
0001
1001
2000
3200
,
0320
0000
1030
0010
0001
0010
0100
1000
,
0001
1001
0002
0203
,
0320
0000
0031
0010
1000
0100
0010
0001
,
1000
1001
2000
3020
,
0230
0000
1300
0100
0001
0010
0100
1000
,
0001
1001
1100
1100
,
1100
0000
0001
0010
0100
1000
0100
0010
,
0001
1001
0011
0011
,
0011
0000
1000
0100
0010
0001
0010
0100
,
1000
1001
0110
0110
,
0110
0000
0001
0010
1000
0010
0001
0100
,
0010
1001
0110
0110
,
0110
0000
1000
0100
0001
0100
1000
0010
,
0100
0001
2000
0000
,
0000
3001
0000
1000
0001
0000
0000
0000
;

//---------------dance-single - ----------------
#NOTES:
     dance-single:
     :
     Easy:
     4:
     0.308,0.307,0.000,0.034,0.000:
1000
0000
0000
0000
,
1000
0000
0000
0100
,
0000
0000
0000
0100
,
0000
0000
0010
0000
,
0001
0000
0010
0000
,
0001
0000
1000
0000
,
0001
0000
1000
0000
,
0001
0000
0100
0000
,
0100
0000
0100
0000
,
0100
0000
0010
0100
,
0010
0100
0020
0000
,
0000
0130
0001
1000
,
0001
0000
0010
0001
,
0100
0100
0000
0010
,
0100
0010
1000
0100
,
0010
0010
0000
0001
,
1000
0001
0100
0010
,
0010
0000
1000
0100
,
1000
1000
0001
0010
,
0100
0000
1000
0100
,
0010
0001
1000
1000
,
0001
0001
0010
0100
,
1000
0010
0100
0001
,
1000
0000
0010
0010
,
0010
0100
0100
0100
,
0010
0100
0001
0010
,
0100
1000
0100
0010
,
0001
0000
0000
0100
,
0001
0010
0000
0100
,
1000
0010
0000
0100
,
0001
0010
0100
1000
,
0001
0001
1000
0100
,
0010
0000
0001
0010
,
0100
0000
1000
0010
,
0100
0001
0010
0100
,
1000
1000
1000
0000
,
0001
0000
1000
0000
,
0010
0000
0100
0000
,
0001
0000
0010
0000
,
0100
0000
1000
0001
,
1000
0000
0010
0100
,
0010
0000
1000
0001
,
1000
0001
1000
0001
,
2000
0000
3001
0010
,
0100
1000
0001
0001
,
1000
0000
1000
0100
,
0010
0001
1000
0001
,
1000
0000
0001
0010
,
0100
1000
0001
1000
,
0010
0010
0100
0001
,
0010
0100
1000
0010
,
0100
0000
0001
1000
,
0001
0010
0100
1000
,
0100
0100
1000
0001
,
1000
0100
0010
0001
,
1000
0000
0010
0100
,
0010
1000
0100
0010
,
0001
0001
1000
0100
,
1000
0010
0100
0001
,
0010
0000
0002
0000
,
0000
0000
1003
0000
;

//---------------dance-single - ----------------
#NOTES:
     dance-single:
     :
     Medium:
     6:
     0.487,0.478,0.259,0.102,0.000:
2000
0000
0000
0000
,
3002
0000
0003
0020
,
0000
0000
0000
0230
,
0000
0300
1000
1000
,
0001
0001
1000
1000
,
0001
0001
0100
0100
,
0010
0010
1000
1000
,
0100
0100
0010
0010
,
0010
0010
0001
0001
,
0001
0000
0001
0000
1000
0001
1000
0001
,
1000
0001
1000
0001
2000
0000
0000
0000
,
0000
0000
3001
0000
1000
0100
1000
0010
,
0100
0000
0001
0010
0001
0100
0010
0000
,
1000
0000
1001
0000
1000
0000
0010
1000
,
0010
0000
1000
0000
0001
0100
0010
0100
,
0001
1001
0001
0100
,
1000
0100
0001
0010
,
1000
0000
0010
0000
0001
0000
1000
0100
,
1000
0000
0001
0000
1000
0010
0100
0010
,
1000
0000
0001
0000
1000
0001
1000
0000
,
0100
0010
0001
0000
0100
0010
0100
0000
,
0001
0000
1001
0000
0001
1000
0001
0000
,
0010
0100
1000
0000
0010
0100
0010
0000
,
1000
1001
1000
0100
,
0001
0100
1000
0010
,
0001
0000
0010
0000
1000
0000
0100
1000
,
0010
0000
0100
0001
0010
0000
0100
0000
,
0010
0000
1001
0000
0000
0001
0100
0001
,
1000
0000
1000
0000
0000
1000
0010
1000
,
0001
0000
0001
0000
0000
0001
0010
0001
,
1000
0000
1000
0000
0000
1000
0100
1000
,
0001
0000
0001
0000
0000
0010
0100
1000
,
0001
0000
0001
0000
1000
0100
0010
0001
,
1000
0000
1000
0000
0000
0010
0100
0001
,
1000
0000
1000
0000
0001
0100
0010
1000
,
0001
0001
1001
0001
,
1000
0001
0000
0100
0000
0010
0000
1000
,
0002
0000
0000
0000
1003
0000
0001
0100
,
0000
0100
0010
0000
1000
0010
0000
0010
,
0100
0001
1000
0001
,
0100
0001
0000
0010
0000
0100
0000
1000
,
0002
0000
1003
0001
,
1000
0000
0001
0000
1000
0001
1000
0001
,
2000
0000
3001
1001
,
1001
0000
0000
0000
0010
0100
0001
0010
,
0100
1000
0001
1001
,
1001
0000
0000
0000
0100
0010
1000
0100
,
0010
0001
1000
1001
,
1001
0000
0000
0000
0001
0010
0100
1000
,
0001
1001
0001
1001
,
1001
0000
0000
0000
1000
0100
0010
0001
,
1000
0000
1000
0010
,
0110
0000
0000
0000
0001
1000
0100
0010
,
0001
1001
0001
0100
,
0110
0000
0000
0000
1000
0001
0010
0100
,
1000
1001
1000
0010
,
0110
0000
0000
0000
0001
1000
0010
0100
,
0001
1001
1000
0010
,
0110
0000
0000
0000
0001
1000
0010
0100
,
0001
1000
0002
0000
,
0000
0003
0000
0000
1001
0000
0000
0000
;

//---------------dance-single - ----------------
#NOTES:
     dance-single:
     :
     Beginner:
     2:
     0.143,0.171,0.113,0.000,0.000:
1000
0000
0000
0000
,
1000
0000
0000
0001
,
0000
0000
0000
0001
,
0000
0000
1000
0000
,
0000
0000
1000
0000
,
0000
0000
0001
0000
,
0000
0000
0001
0000
,
0000
0000
0100
0000
,
0100
0000
0100
0000
,
0000
0000
0010
0000
,
0010
0000
0010
0000
,
0000
0000
1000
0000
,
0001
0000
1000
0000
,
0000
0000
0001
0000
,
1000
0000
0001
0000
,
0000
0000
0100
0000
,
0010
0000
0100
0000
,
0000
0000
0010
0000
,
0100
0000
0010
0000
,
0000
0000
1000
0000
,
0001
0000
1000
0000
,
0000
0000
0001
0000
,
1000
0000
0001
0000
,
0000
0000
0010
0000
,
0100
0000
0010
0000
,
0100
0000
0010
0000
,
0010
0000
0010
0000
,
0000
0000
0000
0001
,
0000
0000
1000
0000
,
0000
0000
0001
0000
,
0000
0000
0001
0000
,
0000
0000
1000
0000
,
0000
0000
0001
0000
,
0000
0000
1000
0000
,
0000
0000
1000
0000
,
0000
0000
1001
0000
,
0000
0000
0000
0000
,
0000
0000
0010
0000
,
0000
0000
0000
0000
,
0000
0000
1001
0000
,
0000
0000
0000
0000
,
0000
0000
0100
0000
,
0100
0000
0100
0000
,
0000
0000
1001
0000
,
0000
0000
0001
0000
,
1000
0000
1001
0000
,
0000
0000
1000
0000
,
0001
0000
1001
0000
,
0000
0000
0010
0000
,
0100
0000
0110
0000
,
0000
0000
0100
0000
,
0010
0000
0110
0000
,
0000
0000
0010
0000
,
0100
0000
0110
0000
,
0000
0000
0100
0000
,
0010
0000
0110
0000
,
0000
0000
1000
0000
,
0001
0000
1001
0000
,
0000
0000
0001
0000
,
1000
0000
0001
0000
,
0000
0000
0001
0000
;
