#TITLE:Super Mario;
#SUBTITLE:(Euro Mix);
#ARTIST:Zino M'J;
#TITLETRANSLIT:;
#SUBTITLETRANSLIT:;
#ARTISTTRANSLIT:;
#CREDIT:DigiMindAxel;
#BANNER:Super Mario (Euro Mix).png;
#BACKGROUND:Super Mario (Euro Mix)-bg.png;
#LYRICSPATH:;
#CDTITLE:DMAxel original simfile.png;
#MUSIC:Super Mario (Euro Mix).mp3;
#OFFSET:-6.600;
#SAMPLESTART:40.867;
#SAMPLELENGTH:12.000;
#SELECTABLE:YES;
#BPMS:0.000=182.000;
#STOPS:;
#BGCHANGES:;

//---------------dance-single - ----------------
#NOTES:
     dance-single:
     :
     Easy:
     4:
     0.327,0.306,0.080,0.174,0.000: // measure 1
1000
0100
0010
0001
,  // measure 2
1000
0010
1000
0010
,  // measure 3
1000
0001
0010
0100
,  // measure 4
1000
0010
0100
0000
,  // measure 5
0001
0010
0100
1000
,  // measure 6
0001
0100
0001
0100
,  // measure 7
0001
0010
0100
1000
,  // measure 8
0020
0000
0000
0000
,  // measure 9
1030
0001
1000
0100
,  // measure 10
0010
0001
0000
0000
,  // measure 11
0100
0010
0100
0001
,  // measure 12
0010
0100
0000
0000
,  // measure 13
1000
0010
0100
0010
,  // measure 14
1000
0100
0000
0000
,  // measure 15
0020
0000
0032
0000
,  // measure 16
0203
0000
0320
0000
,  // measure 17
2030
0000
3200
0000
,  // measure 18
0310
0001
0010
0000
,  // measure 19
1001
0000
0010
0000
,  // measure 20
0110
0000
0000
0000
,  // measure 21
0010
0000
0000
0000
,  // measure 22
0010
0010
0010
0010
,  // measure 23
0100
0100
0100
0100
,  // measure 24
0010
0010
0010
0010
,  // measure 25
1000
0001
1000
0001
,  // measure 26
2000
0000
0000
0000
,  // measure 27
3010
0000
0000
0110
0000
0000
0000
0000
,  // measure 28
0100
0000
0000
0110
0000
0000
0000
0000
,  // measure 29
0001
0000
0000
1000
0000
0002
0000
0000
,  // measure 30
1003
0000
0000
0000
,  // measure 31
0010
0000
0000
0110
0000
0000
0000
0000
,  // measure 32
0100
0000
0000
0110
0000
0000
0000
0000
,  // measure 33
0001
0000
0000
1000
0000
0002
0000
0000
,  // measure 34
2003
0000
0000
0000
,  // measure 35
3001
0100
0001
0100
,  // measure 36
0010
0100
0010
0100
,  // measure 37
0010
1000
0010
1000
,  // measure 38
0001
1000
0001
1000
,  // measure 39
0010
1000
0010
1000
,  // measure 40
0010
0100
0010
0100
,  // measure 41
0001
0100
0001
0100
,  // measure 42
0002
0000
0000
0000
,  // measure 43
1003
0000
0000
0000
,  // measure 44
1000
0100
0010
0001
,  // measure 45
0100
0010
0100
0010
,  // measure 46
0100
0001
0010
0100
,  // measure 47
1000
0010
0100
0001
,  // measure 48
0010
0001
0010
0001
,  // measure 49
1000
0100
1000
0100
,  // measure 50
0010
0001
0100
0010
,  // measure 51
0200
0000
0000
0310
;

//---------------dance-single - ----------------
#NOTES:
     dance-single:
     :
     Medium:
     7:
     0.541,0.578,0.536,0.214,0.000: // measure 1
0001
0010
0001
0000
1000
0100
1000
0000
,  // measure 2
0001
0100
0001
0000
1000
0010
1000
0000
,  // measure 3
0001
0010
0100
1000
0001
0000
0001
0000
,  // measure 4
0100
0010
0100
0001
2000
0000
0000
0000
,  // measure 5
3001
0100
0001
0000
1000
0010
1000
0000
,  // measure 6
0001
0010
0001
0000
1000
0100
1000
0000
,  // measure 7
0001
0010
0100
1000
0001
0000
0001
0000
,  // measure 8
0200
0000
0000
0000
,  // measure 9
0301
1000
0001
1000
0001
1000
0001
1000
,  // measure 10
0001
0010
0100
1000
0000
0000
0000
0000
,  // measure 11
0010
0100
0010
0100
0010
0100
0010
0100
,  // measure 12
0001
0010
0100
1000
0000
0010
0100
0000
,  // measure 13
0001
1000
0001
1000
0001
1000
0001
1000
,  // measure 14
0001
0010
0100
1000
0000
0010
0100
0000
,  // measure 15
0002
0010
0023
0100
,  // measure 16
0230
1000
2300
0001
,  // measure 17
3002
0100
0203
0010
,  // measure 18
0310
1000
0100
0000
,  // measure 19
1001
0000
0100
0000
,  // measure 20
0100
0010
0100
0000
0000
0000
0000
0000
,  // measure 21
0100
0010
0100
0000
0000
0000
0000
0000
,  // measure 22
0110
0110
0110
0110
,  // measure 23
1001
1001
1001
1001
,  // measure 24
0100
0010
0100
0010
0100
0010
0100
0010
,  // measure 25
0100
0001
1000
0000
0100
1000
0001
0000
,  // measure 26
2000
0001
0001
3001
,  // measure 27
0101
0000
0000
0101
0000
0000
1000
0000
,  // measure 28
1010
0000
0000
1010
0000
0000
0001
0000
,  // measure 29
0101
0000
0000
0100
0000
0001
0000
1000
,  // measure 30
0001
0000
0000
0000
,  // measure 31
0011
0000
0000
0011
0000
0000
1000
0000
,  // measure 32
1100
0000
0000
1100
0000
0000
0001
0000
,  // measure 33
0011
0000
0000
0010
0000
0001
0000
1000
,  // measure 34
0002
0000
0000
0000
,  // measure 35
1003
1010
1000
1010
,  // measure 36
0110
0110
0110
0110
,  // measure 37
0001
0101
0001
0101
,  // measure 38
0110
0110
0110
0110
,  // measure 39
1000
1100
1000
1100
,  // measure 40
0110
0110
0110
0110
,  // measure 41
0001
0011
0001
0011
,  // measure 42
0200
0000
0000
0000
,  // measure 43
0020
0000
0000
0330
,  // measure 44
0001
0100
0010
0000
0100
0010
0100
0010
,  // measure 45
1000
0010
0100
0000
0010
0100
0010
0100
,  // measure 46
0002
0100
1000
0103
,  // measure 47
2000
0001
3002
1000
,  // measure 48
1003
0100
0010
0000
0100
0010
0100
0010
,  // measure 49
0001
0010
0100
0000
0010
0100
0010
0100
,  // measure 50
2000
0100
0001
3100
,  // measure 51
0001
0010
0100
1001
;

//---------------dance-single - ----------------
#NOTES:
     dance-single:
     :
     Hard:
     8:
     0.669,0.679,0.576,0.402,0.000: // measure 1
1000
0010
0100
0010
1000
0100
0010
0001
,  // measure 2
1000
0010
0100
0010
1000
0100
0001
0100
,  // measure 3
1000
0100
0010
0001
1000
0100
0010
0001
,  // measure 4
0100
0000
0110
0000
1010
0000
0100
0010
,  // measure 5
0001
0100
0010
0100
0001
0010
0100
1000
,  // measure 6
0001
0100
0010
0100
0001
0100
1000
0100
,  // measure 7
0001
0010
0100
1000
0001
0010
0100
1000
,  // measure 8
0002
0000
0000
0003
,  // measure 9
1000
0100
1000
0100
0010
0001
0010
0001
,  // measure 10
0100
1000
0100
0001
0000
0010
0100
1000
,  // measure 11
0001
0010
0001
0010
0100
1000
0100
1000
,  // measure 12
0010
0001
0010
1000
0000
0010
0200
0000
,  // measure 13
0301
0100
0001
0100
0010
1000
0010
1000
,  // measure 14
0100
0001
0100
1000
0000
0010
0100
0010
,  // measure 15
1000
0100
0010
0000
0001
0000
0101
0000
,  // measure 16
1000
0100
0010
0000
0001
0000
0101
0000
,  // measure 17
0001
0010
0100
0000
1000
0000
1010
0000
,  // measure 18
0200
0302
2003
3000
,  // measure 19
1100
0000
0011
0000
,  // measure 20
0100
1000
0001
0000
0000
0000
0000
0000
,  // measure 21
0010
0100
1000
0000
0000
0000
0000
0000
,  // measure 22
1100
1100
1100
1100
,  // measure 23
0101
0101
0101
0101
,  // measure 24
0010
1000
0010
1000
0001
0100
0001
0100
,  // measure 25
0010
1000
0100
0000
0010
0001
1000
0000
,  // measure 26
0002
1000
1000
1003
,  // measure 27
2200
0000
3300
2002
0000
3003
0100
0000
,  // measure 28
0202
0000
0303
2002
0000
3003
0010
0000
,  // measure 29
0120
0000
0000
1000
0000
1030
0000
0001
,  // measure 30
2000
0001
0001
3001
,  // measure 31
0022
0000
0033
2002
0000
3003
0010
0000
,  // measure 32
2020
0000
3030
2002
0000
3003
0100
0000
,  // measure 33
0210
0000
0000
0001
0000
0301
0000
1000
,  // measure 34
0002
1000
1000
1003
,  // measure 35
1100
1100
0101
0101
,  // measure 36
0010
1000
0001
0010
0001
1000
0010
0000
,  // measure 37
0101
0101
1100
1100
,  // measure 38
0010
0001
1000
0010
1000
0001
0010
0000
,  // measure 39
1100
0101
1100
0101
,  // measure 40
0010
1000
0001
0010
0001
1000
0010
0000
,  // measure 41
0101
1100
0101
1100
,  // measure 42
2002
0000
0000
3003
,  // measure 43
0200
0000
0310
0000
,  // measure 44
1000
0010
0100
0001
0100
1000
0100
0001
,  // measure 45
1000
0100
0010
0001
0010
1000
0010
0001
,  // measure 46
1000
0100
0001
0100
0010
0001
0100
1000
,  // measure 47
0100
0010
1000
0001
1000
0000
0100
0010
,  // measure 48
0001
0100
0010
1000
0100
0001
0100
1000
,  // measure 49
0001
0010
0100
1000
0010
0001
0010
1000
,  // measure 50
0001
0100
1000
0100
0010
1000
0010
0100
,  // measure 51
0002
0100
1003
1001
;

//---------------dance-single - ----------------
#NOTES:
     dance-single:
     :
     Challenge:
     9:
     0.761,0.713,0.094,0.161,0.382: // measure 1
0001
1000
0100
1000
0001
0100
1000
0100
,  // measure 2
0001
1000
0100
1000
0001
0010
1000
0010
,  // measure 3
0001
0100
0010
1000
0100
0010
0100
1000
,  // measure 4
0001
0100
0000
0010
0000
1000
0000
0001
2000
0000
0000
0000
3100
0000
0010
0000
,  // measure 5
0001
0000
1000
0010
1000
0000
0001
0000
0010
0000
1000
0000
0010
0000
0001
0000
,  // measure 6
1000
0000
0001
0100
0001
0000
1000
0000
0100
0000
0001
0000
0100
0000
1000
0000
,  // measure 7
0010
0100
0001
0010
0100
0010
0001
1000
,  // measure 8
0001
0100
0000
0010
0000
1000
0001
0000
0100
0000
0010
0000
0100
0000
0000
0000
,  // measure 9
0001
0100
0100
0001
0100
0100
0001
1000
,  // measure 10
1000
0100
0001
0100
0000
1000
0100
0010
,  // measure 11
0001
0100
0100
0001
0100
0100
0001
1000
,  // measure 12
1000
0100
0001
0100
0000
1000
0002
0000
,  // measure 13
1003
0010
0010
1000
0010
0010
1000
0001
,  // measure 14
0001
0010
1000
0010
0000
0001
0010
0100
,  // measure 15
2000
0010
3010
0100
0001
0010
1000
0010
,  // measure 16
0002
0100
0103
0010
1000
0100
0001
0100
,  // measure 17
2000
0010
3010
0100
0001
0010
1000
0010
,  // measure 18
0002
0203
0320
0030
,  // measure 19
1000
0001
0000
0000
0000
0000
0000
0000
1001
0000
0000
0000
0000
0000
0000
0000
,  // measure 20
0010
0100
1000
0000
1000
0000
1000
0000
,  // measure 21
0100
0010
0001
0000
0001
0000
0001
0000
,  // measure 22
0001
0100
0000
0000
0001
0100
0000
0000
0001
0100
0000
0000
0001
0100
0000
0000
,  // measure 23
1100
1001
1100
1001
,  // measure 24
1000
0010
0100
0001
1000
0010
0100
0001
,  // measure 25
0010
1000
0010
0001
1000
0100
0001
0100
,  // measure 26
1000
0010
1000
0010
0100
0001
0010
0000
0000
0010
0000
0000
,  // measure 27
0010
0001
0010
0100
0000
1000
0001
1000
,  // measure 28
0100
1000
0100
0010
0000
0001
1000
0001
,  // measure 29
0010
0100
0010
0001
0000
0101
0000
1000
,  // measure 30
0200
0010
0001
0310
,  // measure 31
0100
1000
0100
0010
0000
0001
1000
0001
,  // measure 32
0010
0001
0010
0100
0000
1000
0001
1000
,  // measure 33
0100
0010
0001
1000
0000
1010
0000
0001
,  // measure 34
0010
0000
0100
0000
0010
0000
0100
0000
1000
0000
0001
1000
0001
1000
0001
0000
,  // measure 35
1000
0100
0000
0000
1000
0100
0000
0000
0010
0001
0000
0000
0010
0001
0000
0000
,  // measure 36
0100
0010
0100
0001
0100
1000
0100
0001
,  // measure 37
0100
0001
0000
0000
0100
0001
0000
0000
1000
0010
0000
0000
1000
0010
0000
0000
,  // measure 38
0100
0010
0100
0001
0010
1000
0010
0001
,  // measure 39
0100
0010
0000
0000
0100
0010
0000
0000
1000
0001
0000
0000
1000
0001
0000
0000
,  // measure 40
0010
0100
1000
0100
0001
0100
1000
0010
,  // measure 41
0100
0010
0000
0000
0100
0010
0000
0000
1000
0001
0000
0000
1000
0001
0000
0000
,  // measure 42
2000
0000
0000
0000
,  // measure 43
3001
0100
0000
0010
0000
0100
0001
0000
1000
0000
0000
0000
0001
1000
0001
1000
,  // measure 44
0001
0000
1000
0100
1000
0000
0001
0100
0001
0000
0010
0000
0100
0000
1000
0000
,  // measure 45
0001
0000
1000
0010
1000
0000
0001
0010
0001
0000
0100
0000
0010
0000
1000
0000
,  // measure 46
0100
0001
0100
0010
0001
0100
1000
0100
,  // measure 47
0010
1000
0000
0001
0000
1000
0000
0010
0200
0000
0000
0000
0301
0000
1000
0000
,  // measure 48
0001
0000
1000
0010
1000
0000
0001
0010
0001
0000
0100
0000
0010
0000
1000
0000
,  // measure 49
0001
0000
1000
0100
1000
0000
0001
0100
0001
0000
0010
0000
0100
0000
1000
0000
,  // measure 50
0100
0001
0100
0010
0001
0100
1000
0100
,  // measure 51
0010
1000
0100
0010
0001
1000
0002
0000
0000
1003
0000
0000
;

//---------------dance-single - ----------------
#NOTES:
     dance-single:
     :
     Beginner:
     2:
     0.105,0.167,0.134,0.000,0.000: // measure 1
1000
0000
0000
0000
,  // measure 2
0001
0000
0000
0000
,  // measure 3
1000
0000
0000
0000
,  // measure 4
1000
0000
0000
0000
,  // measure 5
0001
0000
0000
0000
,  // measure 6
0001
0000
0000
0000
,  // measure 7
1000
0000
0000
0000
,  // measure 8
1000
0000
0000
0000
,  // measure 9
1001
0000
0000
0000
,  // measure 10
0000
0000
0000
0000
,  // measure 11
0010
0000
0000
0000
,  // measure 12
0000
0000
0000
0000
,  // measure 13
0100
0000
0000
0000
,  // measure 14
0000
0000
0000
0000
,  // measure 15
1000
0000
0000
0000
,  // measure 16
1000
0000
0000
0000
,  // measure 17
0001
0000
0000
0000
,  // measure 18
0001
0000
0000
0000
,  // measure 19
1001
0000
0000
0000
,  // measure 20
0000
0000
0000
0000
,  // measure 21
1000
0000
0000
0000
,  // measure 22
1000
0000
0000
0000
,  // measure 23
1001
0000
0000
0000
,  // measure 24
0001
0000
0000
0000
,  // measure 25
0001
0000
0000
0000
,  // measure 26
1001
0000
0000
0000
,  // measure 27
1001
0000
0000
0000
,  // measure 28
1000
0000
0000
0000
,  // measure 29
0001
0000
0000
0000
,  // measure 30
1000
0000
0000
0000
,  // measure 31
0010
0000
0000
0000
,  // measure 32
0100
0000
0000
0000
,  // measure 33
0010
0000
0000
0000
,  // measure 34
0000
0000
0000
0000
,  // measure 35
1001
0000
0000
0000
,  // measure 36
1000
0000
0000
0000
,  // measure 37
1001
0000
0000
0000
,  // measure 38
0001
0000
0000
0000
,  // measure 39
0110
0000
0000
0000
,  // measure 40
0100
0000
0000
0000
,  // measure 41
0110
0000
0000
0000
,  // measure 42
0010
0000
0000
0000
,  // measure 43
0000
0000
0000
0000
,  // measure 44
1001
0000
0000
0000
,  // measure 45
0001
0000
0000
0000
,  // measure 46
1000
0000
0000
0000
,  // measure 47
0001
0000
0000
0000
,  // measure 48
0010
0000
0000
0000
,  // measure 49
0100
0000
0000
0000
,  // measure 50
0010
0000
0000
0000
,  // measure 51
0100
0000
0000
0000
;
