#TITLE:Sparkle Love;
#SUBTITLE:;
#ARTIST:YUMMY feat. Luciana;
#TITLETRANSLIT:;
#SUBTITLETRANSLIT:;
#ARTISTTRANSLIT:;
#CREDIT:DigiMindAxel, DJ Tomoe (graphics);
#BANNER:Sparkle Love.png;
#BACKGROUND:Sparkle Love-bg.png;
#LYRICSPATH:;
#CDTITLE:house nation.png;
#MUSIC:Sparkle Love.mp3;
#OFFSET:-4.340;
#SAMPLESTART:81.776;
#SAMPLELENGTH:12.000;
#SELECTABLE:YES;
#DISPLAYBPM:129.000;
#BPMS:0.000=129.000,96.000=64.500,100.000=129.000;
#STOPS:;
#BGCHANGES:;

//---------------dance-single - ----------------
#NOTES:
     dance-single:
     :
     Easy:
     3:
     0.206,0.274,0.112,0.138,0.000: // measure 1
1000
0000
0000
0000
,  // measure 2
0001
0000
0000
0000
,  // measure 3
1000
0000
0000
0000
,  // measure 4
0001
0000
0000
0000
,  // measure 5
0100
0000
0000
0000
,  // measure 6
0010
0000
0000
0000
,  // measure 7
0100
0000
0000
0000
,  // measure 8
0010
0000
0000
0000
,  // measure 9
1001
0001
0000
0100
,  // measure 10
0010
0110
0000
0001
,  // measure 11
1000
1001
0000
1000
,  // measure 12
1000
0001
0001
0010
,  // measure 13
0100
1001
0000
0100
,  // measure 14
0010
0110
0000
0001
,  // measure 15
1000
1001
0000
0001
,  // measure 16
0001
1000
1000
0100
,  // measure 17
0010
0001
0000
0010
,  // measure 18
0001
0100
0000
0010
,  // measure 19
1000
0100
0000
1000
,  // measure 20
1000
0001
0001
1000
,  // measure 21
0100
0010
0001
0000
,  // measure 22
1000
1000
0010
0000
,  // measure 23
0100
0100
0001
0000
,  // measure 24
0010
0100
1000
0001
,  // measure 25
2002
0000
3003
0000
,  // measure 26
0020
0000
0000
0000
,  // measure 27
0032
0000
0000
0000
,  // measure 28
0023
0000
0000
0000
,  // measure 29
0230
0000
0000
0000
,  // measure 30
2300
0000
0000
0000
,  // measure 31
3200
0000
0000
0000
,  // measure 32
0320
0000
0000
0000
,  // measure 33
0032
0000
0000
0000
,  // measure 34
1003
0000
0000
0000
,  // measure 35
0010
0000
0000
0000
,  // measure 36
0010
0000
0000
0000
,  // measure 37
0100
0000
0000
0000
,  // measure 38
0200
0000
0000
0000
,  // measure 39
0302
0000
0000
0000
,  // measure 40
0023
0000
0000
0000
,  // measure 41
0230
0000
0000
0300
,  // measure 42
1001
0100
1001
0100
,  // measure 43
1000
0100
0010
0001
,  // measure 44
1001
0100
1001
0010
,  // measure 45
0001
0010
0100
1000
,  // measure 46
1001
0001
1000
0000
,  // measure 47
0010
0100
0010
0000
,  // measure 48
1000
0001
1000
0000
,  // measure 49
0010
0100
0010
0000
,  // measure 50
1000
0010
1000
0001
,  // measure 51
0100
0001
0010
0100
,  // measure 52
1000
0010
0100
0010
,  // measure 53
1000
1000
0001
0010
,  // measure 54
0100
1000
0010
0100
,  // measure 55
0001
0001
0010
0100
,  // measure 56
1000
1000
0010
0010
,  // measure 57
0100
0100
0001
0001
,  // measure 58
2002
0000
0000
3003
;

//---------------dance-single - ----------------
#NOTES:
     dance-single:
     :
     Hard:
     7:
     0.421,0.424,0.086,0.121,0.035: // measure 1
0001
0100
0001
0100
,  // measure 2
1000
0100
1000
0100
,  // measure 3
0001
1000
0001
1000
,  // measure 4
0010
1000
0010
0001
,  // measure 5
0010
0001
0010
1000
,  // measure 6
0010
0100
0010
0100
,  // measure 7
0001
0010
0001
0010
,  // measure 8
0100
0000
1000
0100
0000
0000
1000
1000
,  // measure 9
1000
0100
0010
0001
0000
0000
0010
0001
,  // measure 10
0100
0001
0010
0001
0000
0000
0010
0100
,  // measure 11
1000
0010
1000
0100
0000
0000
1000
0100
,  // measure 12
0001
0000
0100
1000
0001
0000
0100
0001
,  // measure 13
1000
0100
0010
0001
0100
0000
0100
0100
,  // measure 14
0001
0010
0100
1000
0010
0000
0010
0010
,  // measure 15
1000
0100
0010
0001
0100
0000
0100
0100
,  // measure 16
0001
0010
0100
1000
0010
0010
0100
0000
,  // measure 17
0001
0000
0010
0000
0100
0000
0000
0100
0000
0000
0100
0000
0010
0000
0100
0000
,  // measure 18
1000
0000
0100
0000
0010
0000
0000
0010
0000
0000
0010
0000
0100
0000
0010
0000
,  // measure 19
0001
0000
0010
0000
0100
0000
0000
0100
0000
0000
0100
0000
0010
0000
0100
0000
,  // measure 20
1000
0000
0100
0000
0010
0000
0000
0010
0000
0000
0010
0000
0100
0000
0010
0000
,  // measure 21
0001
0000
0010
0000
0100
0000
0000
0100
0000
0000
0100
0000
0010
0000
0100
0000
,  // measure 22
1000
0000
0100
0000
0010
0000
0000
0010
0000
0000
0010
0000
0100
0000
0010
0000
,  // measure 23
0001
0001
1000
1000
0001
0001
0100
0100
,  // measure 24
0010
0010
1000
1000
0100
0010
0100
0000
,  // measure 25
2002
0000
3003
0000
,  // measure 26
0100
1000
0200
0000
0000
0000
0000
0000
,  // measure 27
1300
0001
2000
0000
0000
0000
0000
0000
,  // measure 28
3001
0100
0002
0000
0000
0000
0000
0000
,  // measure 29
0103
0010
0200
0000
0000
0000
0000
0000
,  // measure 30
0310
1000
0020
0000
0000
0000
0000
0000
,  // measure 31
1030
0100
2000
0000
0000
0000
0000
0000
,  // measure 32
3001
1000
0002
0000
0000
0000
0000
0000
,  // measure 33
0103
0010
0200
0000
0000
0000
0300
0000
,  // measure 34
1001
1000
1000
0001
,  // measure 35
0002
0000
0013
0100
,  // measure 36
1000
1000
2000
0000
,  // measure 37
3001
0001
0100
0010
,  // measure 38
0100
0100
0100
0000
0000
0001
0010
0000
,  // measure 39
0000
0001
0001
0000
0000
1000
0100
1000
,  // measure 40
1000
1000
1000
0100
0100
0010
0010
0001
,  // measure 41
0001
0010
0100
1000
0001
0010
0100
0000
,  // measure 42
1001
0000
1100
0000
0100
1000
0100
0001
,  // measure 43
0100
1000
0100
0010
0100
0000
1000
0000
,  // measure 44
1001
0000
0011
0000
0010
0001
0010
1000
,  // measure 45
0010
0001
0010
0100
0010
0000
0001
1000
,  // measure 46
0001
0010
0100
1000
0010
1000
1000
1000
,  // measure 47
0100
0000
0010
0000
0001
0000
0000
0100
0000
0000
0001
0000
0010
0000
0100
0000
,  // measure 48
1000
0001
0010
0100
0010
0001
0001
0001
,  // measure 49
0010
0000
0100
0000
1000
0000
0000
0010
0000
0000
1000
0000
0100
0000
0010
0000
,  // measure 50
0001
0000
0010
0001
0010
1000
0010
0001
,  // measure 51
0100
0000
0110
0000
1000
0001
0010
0100
,  // measure 52
1000
0000
0100
1000
0100
0001
0100
1000
,  // measure 53
0010
0000
0110
0000
0001
1000
0100
0010
,  // measure 54
0001
0000
0010
0001
0010
1000
0010
0001
,  // measure 55
0100
0000
0110
0000
1000
0001
0010
0100
,  // measure 56
1000
1000
0100
0100
0010
0010
0001
0001
,  // measure 57
0010
0100
1000
0010
1000
1000
0001
0001
,  // measure 58
2002
0000
0000
3003
;

//---------------dance-single - ----------------
#NOTES:
     dance-single:
     :
     Beginner:
     1:
     0.056,0.098,0.043,0.000,0.000: // measure 1
0000
0000
0000
0000
,  // measure 2
0000
0000
0000
0000
,  // measure 3
0000
0000
0000
0000
,  // measure 4
0000
0000
0000
0000
,  // measure 5
0000
0000
0000
0000
,  // measure 6
0000
0000
0000
0000
,  // measure 7
0000
0000
0000
0000
,  // measure 8
0000
0000
0000
0000
,  // measure 9
1000
0000
0000
0000
,  // measure 10
0001
0000
0000
0000
,  // measure 11
1000
0000
0000
0000
,  // measure 12
0000
0000
0000
0000
,  // measure 13
0010
0000
0000
0000
,  // measure 14
0100
0000
0000
0000
,  // measure 15
0010
0000
0000
0000
,  // measure 16
0000
0000
0000
0000
,  // measure 17
1000
0000
0000
0000
,  // measure 18
0010
0000
0000
0000
,  // measure 19
1000
0000
0000
0000
,  // measure 20
0001
0000
0000
0000
,  // measure 21
0100
0000
0000
0000
,  // measure 22
0100
0000
0000
0000
,  // measure 23
0010
0000
0000
0000
,  // measure 24
0010
0000
0000
0000
,  // measure 25
1001
0000
0000
0000
,  // measure 26
1000
0000
0000
0000
,  // measure 27
0000
0000
0000
0000
,  // measure 28
0100
0000
0000
0000
,  // measure 29
0000
0000
0000
0000
,  // measure 30
0010
0000
0000
0000
,  // measure 31
0000
0000
0000
0000
,  // measure 32
0001
0000
0000
0000
,  // measure 33
0000
0000
0000
0000
,  // measure 34
1001
0000
0000
0000
,  // measure 35
0000
0000
0000
0000
,  // measure 36
0010
0000
0000
0000
,  // measure 37
0000
0000
0000
0000
,  // measure 38
0110
0000
0000
0000
,  // measure 39
0000
0000
0000
0000
,  // measure 40
1000
0000
0000
0000
,  // measure 41
0000
0000
0000
0000
,  // measure 42
1001
0000
0000
0000
,  // measure 43
0010
0000
0000
0000
,  // measure 44
0010
0000
0000
0000
,  // measure 45
0100
0000
0000
0000
,  // measure 46
0100
0000
0000
0000
,  // measure 47
1000
0000
0000
0000
,  // measure 48
1000
0000
0000
0000
,  // measure 49
0001
0000
0000
0000
,  // measure 50
0001
0000
0000
0000
,  // measure 51
1000
0000
0000
0000
,  // measure 52
0001
0000
0000
0000
,  // measure 53
1000
0000
0000
0000
,  // measure 54
0010
0000
0000
0000
,  // measure 55
0100
0000
0000
0000
,  // measure 56
0010
0000
0000
0000
,  // measure 57
1000
0000
0000
0000
,  // measure 58
1001
0000
0000
0000
;

//---------------dance-single - ----------------
#NOTES:
     dance-single:
     :
     Challenge:
     8:
     0.512,0.474,0.078,0.052,0.199: // measure 1
1000
0000
0100
0000
1000
0000
0000
1000
0000
0000
1000
0000
0001
0000
0000
0000
,  // measure 2
0001
0000
0010
0000
0001
0000
0000
0001
0000
0000
0001
0000
1000
0000
0000
0000
,  // measure 3
1000
0000
0010
0000
1000
0000
0000
1000
0000
0000
1000
0000
0001
0000
0000
0000
,  // measure 4
0001
0000
0100
0000
0001
0000
0000
0001
0000
0000
0001
0000
1000
0000
0000
0000
,  // measure 5
0010
0000
0100
0000
0010
0000
0000
0010
0000
0000
0100
0000
0001
0000
0000
0000
,  // measure 6
0100
0000
0010
0000
0100
0000
0000
0100
0000
0000
0010
0000
1000
0000
0000
0000
,  // measure 7
0100
0000
1000
0000
0100
0000
0000
0010
0000
0000
0001
0000
0100
0000
0000
0000
,  // measure 8
0010
0000
0100
0000
0010
0000
0010
0000
0000
0000
0000
0000
1000
0000
0001
1000
,  // measure 9
0001
0010
0100
1000
0010
1000
0100
1000
,  // measure 10
0010
1000
0100
0010
0001
0000
1000
0100
,  // measure 11
0010
0001
0100
0001
0010
0001
0100
1000
,  // measure 12
0100
0000
0001
0010
0100
0010
0001
0010
,  // measure 13
0100
0000
1000
0000
0100
0000
1000
0010
0000
0000
0100
0000
0100
0000
0001
0000
,  // measure 14
1000
0000
0100
0000
0010
0000
0001
0100
0000
0000
0010
0000
0010
0000
1000
0000
,  // measure 15
0001
0000
0010
0000
0100
0000
1000
0010
0000
0000
0100
0000
0100
0000
0001
0000
,  // measure 16
1000
0000
0100
0000
0010
0000
0001
0000
0100
0001
0000
1000
0100
0000
1000
0000
,  // measure 17
1000
0000
0100
0000
0010
0000
0000
0010
0000
0000
0010
0000
0100
0000
0010
0000
,  // measure 18
0001
0000
0010
0000
0100
0000
0000
0100
0000
0000
0100
0000
0010
0000
0100
0000
,  // measure 19
1000
0000
0100
0000
0010
0000
0000
0010
0000
0000
0010
0000
0100
0000
0010
0000
,  // measure 20
0001
0000
0010
0000
0100
0000
0000
0100
0000
0000
0100
0000
0010
0000
0100
0000
,  // measure 21
1000
0000
0100
0000
0010
0000
0000
0010
0000
0000
0010
0000
0100
0000
0010
0000
,  // measure 22
0001
0000
0010
0000
0100
0000
0000
0100
0000
0000
0100
0000
0010
0000
0100
0000
,  // measure 23
1000
1000
0010
0010
0100
0001
0100
0100
,  // measure 24
0010
0000
0010
0000
0100
0000
0100
0000
0010
1000
0000
0100
0010
0000
0001
0000
,  // measure 25
2002
0000
3003
0000
,  // measure 26
1000
0000
0100
0000
1000
0000
0000
1000
0000
0000
0001
0000
0010
0000
0000
0000
,  // measure 27
0001
0000
0010
0000
0001
0000
0000
0001
0000
0000
1000
0000
0100
0000
0000
0000
,  // measure 28
1000
0000
0001
0000
0100
0000
0000
0100
0000
0000
0001
0000
1000
0000
0000
0000
,  // measure 29
0001
0000
1000
0000
0100
0000
0000
0100
0000
0000
1000
0000
0001
0000
0000
0000
,  // measure 30
0100
0000
0001
0000
1000
0000
0000
1000
0000
0000
1000
0000
0001
0000
0010
0000
,  // measure 31
0100
0000
1000
0000
0001
0000
0000
0001
0000
0000
0001
0000
0100
0000
0010
0000
,  // measure 32
0100
0000
0001
0000
1000
0000
0000
0010
0000
0000
1000
0000
0100
0000
0010
0000
,  // measure 33
0001
0000
1000
0000
0001
0000
0000
0100
0000
0000
0001
0000
0010
0000
0100
0000
,  // measure 34
1000
0010
0100
0000
0002
0000
0103
0000
,  // measure 35
1000
0100
0001
0010
0000
0100
0010
0001
,  // measure 36
2000
0000
3100
0000
0010
0001
0010
0001
,  // measure 37
1000
0100
0001
0100
0000
1000
0010
0100
,  // measure 38
0001
0000
0001
0000
0001
1000
0000
0000
0000
0010
0000
1000
0100
0000
0000
0000
,  // measure 39
0000
0000
1000
0000
1000
0010
0000
0000
0000
0100
0000
0001
0010
0000
0001
1000
,  // measure 40
0001
0000
0000
0001
0010
0000
0000
0010
0100
0000
0000
0100
1000
0000
0000
1000
,  // measure 41
0001
0010
0100
1000
0001
0100
0010
0010
,  // measure 42
1001
0000
0011
0000
0010
0001
0010
1000
,  // measure 43
0010
0001
0010
0100
0010
0001
1000
0001
,  // measure 44
1001
0000
1100
0000
0100
1000
0100
0001
,  // measure 45
0100
1000
0100
0010
0100
1000
0010
1000
,  // measure 46
1000
0000
0100
0000
0010
0000
0001
0100
0000
0000
0001
0000
0001
0000
1000
0000
,  // measure 47
0100
0000
0010
0000
0001
0000
0100
0001
0000
0000
1000
0000
1000
0000
0001
0000
,  // measure 48
0010
0000
0100
0000
1000
0000
0001
0100
0000
0000
0001
0000
0001
0000
1000
0000
,  // measure 49
0100
0000
0010
0000
0001
0000
1000
0010
0000
0000
1000
0000
0100
0000
0010
0000
,  // measure 50
0001
1000
0100
0001
0100
1000
0100
0010
,  // measure 51
0100
0000
0110
0000
0001
1000
0100
0010
,  // measure 52
0001
1000
0010
0001
0010
1000
0010
0100
,  // measure 53
0010
0000
0110
0000
1000
0001
0010
0100
,  // measure 54
1000
0001
0100
1000
0100
0001
0100
0010
,  // measure 55
0100
0000
0110
0000
0001
1000
0100
0010
,  // measure 56
0001
0001
0010
0010
0100
0100
1000
1000
,  // measure 57
0100
0000
0010
0000
0001
0000
0100
0000
0010
1000
0000
0001
0010
0000
0001
0000
,  // measure 58
2002
0000
0000
3003
;

//---------------dance-double - ----------------
#NOTES:
     dance-double:
     :
     Easy:
     3:
     0.220,0.299,0.173,0.130,0.000:
10000000
00000000
00000000
00000000
,
00010000
00000000
00000000
00000000
,
10000000
00000000
00000000
00000000
,
00010000
00000000
00000000
00000000
,
00001000
00000000
00000000
00000000
,
00000001
00000000
00000000
00000000
,
00001000
00000000
00000000
00000000
,
00000001
00000000
00000000
00000000
,
00011000
01000000
00000000
10000000
,
00100000
10010000
00000000
00010000
,
01000000
10010000
00000000
00100000
,
00100000
00010000
00010000
01000000
,
00010000
00011000
00000000
00000001
,
00000010
00001001
00000000
00001000
,
00000100
00001001
00000000
00000010
,
00000010
00000001
00000001
00000010
,
00000100
00001000
00000000
00000100
,
00001000
00000010
00000000
00000100
,
00000001
00000010
00000000
00000001
,
00000001
00001000
00001000
00010000
,
10010000
00010000
00100000
00000000
,
00010000
00010000
00100000
00000000
,
01000000
10000000
10000000
01000000
,
00100000
00010000
00001000
00000100
,
00002002
00000000
00000000
00003003
00000000
00000000
00000000
00000000
,
00000200
00000000
00000000
00000000
,
00020300
00000000
00000000
00000000
,
00032000
00000000
00000000
00000000
,
00203000
00000000
00000000
00000000
,
00320000
00000000
00000000
00000000
,
02030000
00000000
00000000
00000000
,
03200000
00000000
00000000
00000000
,
20300000
00000000
00000000
00000000
,
31000000
00000000
00000000
00000000
,
00100000
00000000
00000000
00000000
,
00010000
00000000
00000000
00000000
,
00001000
00000000
00000000
00000000
,
00000020
00000000
00000000
00000000
,
00002030
00000000
00000000
00000000
,
00003200
00000000
00000000
00000000
,
00000310
00000001
00000010
00000100
,
00011000
00011000
10010000
01000000
,
10000000
01000000
00100000
00010000
,
10010000
11000000
10010000
00100000
,
10000000
00100000
01000000
00010000
,
00011000
00000010
00000100
00000000
,
00000100
00000010
00001000
00000000
,
00000100
00001000
00000010
00000000
,
00000100
00000010
00000100
00000010
,
00010000
01000000
00100000
10000000
,
01000000
01000000
10000000
01000000
,
00100000
00001000
00000010
00000100
,
00000010
00000010
00000001
00000010
,
00000100
00010000
00100000
00010000
,
01000000
01000000
00100000
01000000
,
00010000
00010000
00100000
00100000
,
10010000
00110000
00011000
00001100
,
00002002
00000000
00000000
00003003
;

//---------------dance-single - ----------------
#NOTES:
     dance-single:
     :
     Medium:
     5:
     0.296,0.324,0.138,0.155,0.000: // measure 1
1000
1000
1000
0000
,  // measure 2
0001
0001
0001
0000
,  // measure 3
1000
1000
1000
0000
,  // measure 4
0001
0001
0001
0000
,  // measure 5
0100
0100
0100
0000
,  // measure 6
0010
0010
0010
0000
,  // measure 7
0100
0100
0100
0000
,  // measure 8
0010
0000
0010
0010
0000
0000
0000
0000
,  // measure 9
1001
0100
1000
0100
,  // measure 10
0010
0001
0010
0001
,  // measure 11
1000
0000
0010
0000
1000
0000
0100
0010
,  // measure 12
0100
0000
1000
0001
1000
0000
0001
0000
,  // measure 13
0010
0000
0001
0000
1000
0000
0010
0100
,  // measure 14
0010
0000
1000
0000
0001
0000
0100
0010
,  // measure 15
0100
0000
0001
0000
1000
0000
0010
0100
,  // measure 16
0010
0000
1000
0001
1000
0000
0100
0000
,  // measure 17
0110
0000
0001
0000
0010
0000
0001
1000
,  // measure 18
0001
0000
1000
0000
0100
0000
1000
0001
,  // measure 19
1000
0000
0001
0000
0100
0000
0010
0100
,  // measure 20
0010
0000
1000
0000
0010
0000
0100
0010
,  // measure 21
0100
0000
0001
0000
1000
0000
0010
1000
,  // measure 22
0010
0000
1000
0000
0001
0000
0100
0001
,  // measure 23
0100
0001
0010
0100
,  // measure 24
1000
0000
0100
0000
0001
0100
1000
0000
,  // measure 25
2002
0000
3003
0000
,  // measure 26
0010
0000
0000
0010
,  // measure 27
0010
0000
0000
0100
,  // measure 28
0100
0000
0000
1000
,  // measure 29
1000
0000
0000
0001
,  // measure 30
0001
0000
0000
0010
,  // measure 31
0010
0000
0000
0100
,  // measure 32
0100
0000
0000
1000
,  // measure 33
1000
0000
0000
0001
,  // measure 34
2001
0000
0000
0000
,  // measure 35
3002
0000
0000
0000
,  // measure 36
2003
0000
0000
0000
,  // measure 37
3020
0000
0000
0000
,  // measure 38
0230
0000
0000
0000
,  // measure 39
0302
0000
0000
0000
,  // measure 40
0023
0000
0000
0000
,  // measure 41
0230
0000
0000
1300
,  // measure 42
1001
0000
1001
0000
1000
0100
0010
0100
,  // measure 43
1000
0100
0010
0001
,  // measure 44
1001
0000
1001
0000
0001
0010
0100
0010
,  // measure 45
0001
0010
0100
1000
,  // measure 46
0002
0000
1000
1003
0000
0100
0010
0000
,  // measure 47
0001
0100
0001
0110
,  // measure 48
2000
0000
0001
3001
0000
0010
0100
0000
,  // measure 49
1000
0010
0200
0001
,  // measure 50
0301
0000
0010
0100
1000
0000
0100
1000
,  // measure 51
0100
1001
0020
1000
,  // measure 52
1030
0000
0100
0010
0001
0000
0010
0001
,  // measure 53
0010
1001
0020
0001
,  // measure 54
0031
0000
0010
0100
1000
0000
0010
1000
,  // measure 55
0010
1001
0200
1000
,  // measure 56
1300
0000
0100
0010
0001
0000
0100
0001
,  // measure 57
0100
0011
1001
1100
,  // measure 58
2002
0000
0000
3003
;

//---------------dance-double - ----------------
#NOTES:
     dance-double:
     :
     Medium:
     5:
     0.326,0.349,0.173,0.207,0.000:
10000000
01000000
10000000
00000000
,
00010000
00100000
00010000
00000000
,
10000000
00100000
10000000
00000000
,
00010000
01000000
00010000
00000000
,
00001000
00000010
00001000
00000000
,
00000001
00000100
00000001
00000000
,
00000010
00000001
00000010
00000000
,
00000100
00001000
00000100
00000000
,
00011000
00100000
01000000
10000000
,
01000000
10010000
00100000
00010000
,
01000000
00000000
10010000
00000000
00100000
00000000
01000000
00010000
,
01000000
00000000
00100000
10000000
00100000
00000000
01000000
00000000
,
00010000
00011000
00000100
00000010
,
00000001
00001001
00000010
00001000
,
00000100
00000000
00001001
00000000
00000100
00000000
00000001
00000010
,
00000001
00000000
00001000
00000100
00001000
00000000
00000001
00000000
,
00000010
00000000
00000100
00000000
00001000
00000000
00010000
00100000
,
00010000
00000000
10000000
00000000
00100000
00000000
01000000
00100000
,
01000000
00000000
00010000
00000000
01000000
00000000
00100000
01000000
,
00100000
00000000
10000000
00010000
10000000
00000000
00100000
00000000
,
11000000
00000000
00100000
00000000
00010000
00000000
00001000
00000001
,
00001000
00000000
00000001
00000000
00000010
00000000
00000001
00001000
,
00000001
00000010
00000100
00000000
00001000
00010000
00100000
00000000
,
01000000
10000000
00010000
00000000
10000000
00010000
00100000
00000000
,
00220000
00000000
00000000
00330000
00000000
00000000
00000000
00000000
,
02000000
00000000
10000000
13000000
,
00200000
00000000
00010000
00310000
,
00000200
00000000
00001000
00001300
,
00000020
00000000
00000001
00000031
,
00000200
00000000
00001000
00001300
,
00200000
00000000
00010000
00310000
,
02000000
00000000
10000000
13000000
,
00200000
00000000
00010000
00310000
,
00022000
00000000
00000000
00003000
,
00030200
00000000
00000000
00000000
,
00002300
00000000
00000000
00000000
,
00003002
00000000
00000000
00000000
,
00000023
00000000
00000000
00000000
,
00000230
00000000
00000000
00000000
,
00002300
00000000
00000000
00000000
,
00013000
00001000
00010000
00100000
,
10010000
00000000
10010000
00000000
10000000
01000000
00100000
01000000
,
10000000
01000000
00100000
00010000
,
10010000
00000000
10010000
00000000
00010000
00100000
01000000
00100000
,
00010000
00100000
01000000
10000000
,
01000000
00100000
00010000
00001000
00000000
00000100
00000010
00000000
,
00000001
00000000
00000100
00000000
00000001
00000000
00000010
00000100
,
00001000
00000010
00001000
00001000
00000000
00000100
00000010
00000000
,
00000001
00000010
00000200
00001000
,
00001300
00000000
00000001
00000010
00000100
00000000
00001000
00010000
,
00001000
00110000
02000000
10000000
,
13000000
00000000
10000000
01000000
00100000
00000000
00010000
00001000
,
00010000
00001100
00000020
00000001
,
00000031
00000000
00000010
00000100
00001000
00000000
00000010
00010000
,
00000010
00110000
02000000
10000000
,
13000000
00000000
01000000
00100000
00010000
00000000
00100000
00001000
,
00100000
00001100
00011000
00001010
,
00002002
00000000
00000000
00003003
;
