#TITLE:Sea Side City;
#SUBTITLE:;
#ARTIST:KISS SUMMER SISTERS;
#TITLETRANSLIT:;
#SUBTITLETRANSLIT:;
#ARTISTTRANSLIT:;
#CREDIT:DigiMindAxel;
#BANNER:Sea Side City.png;
#BACKGROUND:Sea Side City-bg.png;
#LYRICSPATH:Sea Side City.lrc;
#CDTITLE:pop'n music.png;
#MUSIC:Sea Side City.mp3;
#OFFSET:-7.680;
#SAMPLESTART:55.480;
#SAMPLELENGTH:12.000;
#SELECTABLE:YES;
#BPMS:0.000=160.000;
#STOPS:29.000=0.750
,83.000=0.750
;
#BGCHANGES:;

//---------------dance-single - ----------------
#NOTES:
     dance-single:
     :
     Easy:
     3:
     0.221,0.261,0.135,0.187,0.000: // measure 1
1001
0000
1000
0000
,  // measure 2
0001
0000
1000
0000
,  // measure 3
0010
0000
0000
0000
0100
0000
0000
0020
,  // measure 4
0000
0000
0000
0030
,  // measure 5
0110
0000
0000
0000
,  // measure 6
2000
0000
0000
0000
,  // measure 7
3002
0000
0000
0000
0000
0000
0000
1003
,  // measure 8
0000
0000
0001
0000
,  // measure 9
1000
0000
0001
0000
,  // measure 10
0100
0000
0010
0000
,  // measure 11
0010
0000
0100
0000
,  // measure 12
0100
0000
0001
0000
,  // measure 13
0001
0000
1000
0000
,  // measure 14
1000
0000
0100
0000
,  // measure 15
0010
0000
0000
0200
0000
0000
0000
0000
,  // measure 16
0000
0000
0310
0000
,  // measure 17
0001
0000
0010
0000
,  // measure 18
0001
0000
1000
0000
,  // measure 19
0001
0000
1000
0000
,  // measure 20
0001
0000
1000
0000
,  // measure 21
0100
0000
0110
0000
,  // measure 22
1001
0000
0001
0000
,  // measure 23
1000
1000
1000
1000
,  // measure 24
1001
0000
0000
0000
,  // measure 25
0110
0000
0000
0000
,  // measure 26
1001
0000
0001
0000
,  // measure 27
1001
0000
0000
0000
,  // measure 28
0001
1000
0001
0000
,  // measure 29
0100
0001
0100
0000
,  // measure 30
0010
1000
0010
0000
,  // measure 31
0100
0000
0010
0000
0100
0000
0000
0020
,  // measure 32
0000
0130
0001
0100
,  // measure 33
0010
0000
1000
0000
0001
0000
0000
0200
,  // measure 34
0000
0310
1000
0001
,  // measure 35
0100
0000
0010
0000
0100
0000
0000
0002
,  // measure 36
0000
0000
1003
0000
0100
0000
0000
2000
,  // measure 37
0000
3001
0010
0001
,  // measure 38
1001
0000
1000
0000
,  // measure 39
1001
0000
0000
0000
0000
0000
0000
0020
,  // measure 40
0000
1030
0100
1000
,  // measure 41
0001
0000
0010
0000
0100
0000
0000
0020
,  // measure 42
0000
0031
0010
0001
,  // measure 43
1000
0000
0100
0000
0010
0000
0000
0002
,  // measure 44
0000
0000
0013
0000
0100
0000
0000
2000
,  // measure 45
0000
3100
0010
0000
,  // measure 46
1001
0000
1000
0000
,  // measure 47
0001
0001
0001
0001
,  // measure 48
0110
0000
0000
0000
,  // measure 49
0200
0000
0320
0000
,  // measure 50
0230
0000
0000
0000
,  // measure 51
0300
0000
0000
0000
,  // measure 52
0110
0000
0000
0000
,  // measure 53
0020
0000
0230
0000
,  // measure 54
0320
0000
0000
0000
,  // measure 55
0000
0000
0000
0000
,  // measure 56
0000
0000
0000
0030
;

//---------------dance-single - ----------------
#NOTES:
     dance-single:
     :
     Medium:
     6:
     0.447,0.435,0.187,0.322,0.000: // measure 1
1001
0000
0001
0000
0010
0001
0000
0200
,  // measure 2
0000
0000
0310
0000
0100
0010
0000
0000
,  // measure 3
0000
0000
1000
0000
0010
1000
0000
0001
,  // measure 4
0000
0100
0010
0100
0010
0100
0010
0100
,  // measure 5
0020
0000
0000
0000
,  // measure 6
2030
0000
3002
0000
,  // measure 7
0203
0000
0000
0000
0000
0000
0000
0310
,  // measure 8
0000
0100
0010
0000
1000
0000
0001
0010
,  // measure 9
0000
0010
0001
0000
1000
0000
0010
0100
,  // measure 10
0000
0100
0010
0000
1000
0000
1000
0100
,  // measure 11
0000
0100
1000
0000
0001
0000
0100
0010
,  // measure 12
0000
0010
0100
0000
0010
0000
0010
1000
,  // measure 13
0000
1000
0010
0000
0100
0000
0100
0001
,  // measure 14
0000
0001
0100
0000
0001
0000
1000
0001
,  // measure 15
0000
0001
1000
0010
0000
0100
0010
0100
,  // measure 16
0010
0100
0010
0100
0010
0000
0100
0001
,  // measure 17
0000
0001
0010
0000
0001
0000
0100
0010
,  // measure 18
0000
0010
1000
0000
0100
0000
1000
0100
,  // measure 19
0000
0100
0010
0000
0001
0000
0010
0100
,  // measure 20
0000
0100
1000
0000
1002
0000
0000
0010
,  // measure 21
0000
0000
1003
0000
0010
0010
0010
0000
,  // measure 22
1001
0000
1000
0001
0000
0001
0010
0000
,  // measure 23
0001
1000
0001
1000
0001
1000
0001
1000
,  // measure 24
0010
0010
0010
0010
,  // measure 25
0110
0100
0100
0100
,  // measure 26
1001
0100
0110
0010
,  // measure 27
0100
0010
0100
0010
0100
0010
0100
0010
,  // measure 28
1000
0010
1000
0000
0001
0000
0010
0000
,  // measure 29
0100
0010
0100
0000
0010
0000
0001
0000
,  // measure 30
0010
0100
1000
0000
0010
1000
0100
0000
,  // measure 31
1000
0001
1000
0001
1000
0001
1000
0020
,  // measure 32
0000
0130
0001
0010
0100
0000
1000
1000
,  // measure 33
0000
0001
0010
0100
1000
0000
0001
0200
,  // measure 34
0000
0310
1000
0100
0010
0000
0001
0001
,  // measure 35
0000
1000
0010
0100
0001
0000
1000
0020
,  // measure 36
0000
1030
0100
0010
0001
1000
0000
0020
,  // measure 37
0000
1030
0100
0010
0001
0000
1000
0000
,  // measure 38
1001
0010
0110
0100
,  // measure 39
1001
0000
0001
0000
1000
0001
1000
0020
,  // measure 40
0000
1030
0100
0010
0001
0100
0010
2000
,  // measure 41
0000
0000
0001
0000
0001
0000
3001
0200
,  // measure 42
0000
0301
0010
0100
1000
0010
0100
0002
,  // measure 43
0000
0000
1000
0000
1000
0000
1003
0020
,  // measure 44
0000
1030
0100
0010
0001
0000
1000
0020
,  // measure 45
0000
1030
0100
0010
0001
0000
1000
0000
,  // measure 46
1001
0100
0110
0010
,  // measure 47
1000
0001
1000
0001
1000
0001
1000
0010
,  // measure 48
0200
0000
0000
0300
,  // measure 49
0202
0303
0220
0330
,  // measure 50
2020
0000
0000
0000
,  // measure 51
3030
0000
0000
0000
0000
0010
0010
0000
,  // measure 52
0220
0000
0000
0330
,  // measure 53
2200
3300
0220
0330
,  // measure 54
0022
0000
0000
0000
,  // measure 55
0000
0000
0000
0000
,  // measure 56
0000
0000
0000
0033
;

//---------------dance-single - ----------------
#NOTES:
     dance-single:
     :
     Hard:
     8:
     0.580,0.522,0.302,0.291,0.094: // measure 1
1001
0000
1000
0100
0010
0001
0000
0201
,  // measure 2
0000
0301
0100
1000
0100
0001
0000
0200
,  // measure 3
0000
0301
1000
0100
0010
0001
0100
0100
,  // measure 4
0000
0001
0001
1000
1000
0001
0001
1000
,  // measure 5
2100
0000
0000
0010
0000
0000
3100
0000
,  // measure 6
0020
0000
0000
0031
0200
0000
0310
0000
,  // measure 7
0102
0000
0000
0010
0000
0000
0103
0010
,  // measure 8
0000
0000
0100
0000
0110
0000
0000
0000
0100
0000
0000
0001
1000
0000
0010
0000
,  // measure 9
0000
0000
0010
0000
0100
0000
0000
0000
0010
0000
0000
1000
0010
0000
0100
0000
,  // measure 10
0000
0100
0001
0000
1000
1000
0001
0001
,  // measure 11
0010
0100
1000
0020
0000
0100
0130
0001
,  // measure 12
0000
0000
0001
0000
1000
0000
0000
0000
1000
0000
0000
0010
0100
0000
0001
0000
,  // measure 13
0000
0000
0001
0000
0010
0000
0000
0000
0001
0000
0000
0100
0010
0000
1000
0000
,  // measure 14
0000
1000
0001
0000
1000
0000
1100
0000
,  // measure 15
0010
0001
1000
0010
0000
0100
0100
0010
,  // measure 16
0010
0000
0100
0000
0100
0000
0010
0000
0010
0000
0000
1000
0001
0000
0200
0000
,  // measure 17
0000
0000
0001
0000
0301
0000
0000
0000
1000
0000
0000
0010
0100
0000
0002
0000
,  // measure 18
0000
0000
0010
0000
0013
0000
0000
0000
0100
0000
0000
0010
0001
0000
0200
0000
,  // measure 19
0000
0000
0010
0000
0310
0000
0000
0000
1000
0000
0000
0010
0100
0000
0002
0000
,  // measure 20
0000
0000
0100
0000
0103
0000
0000
0000
0010
0000
0000
1000
0001
0000
0200
0000
,  // measure 21
0000
0010
0310
0000
1000
1000
1001
0000
,  // measure 22
1001
0000
0000
1000
0001
0000
0020
0000
0000
0000
0100
0000
0130
0000
0000
0000
,  // measure 23
1000
0000
0001
0000
0001
0000
0100
0000
0100
0000
0010
0000
1000
0010
1000
0010
,  // measure 24
1000
0100
0001
0100
,  // measure 25
1100
0100
1000
0001
,  // measure 26
0011
0000
0000
0000
0100
0010
0100
0010
0100
0000
0000
0000
0001
1000
0001
1000
,  // measure 27
0001
0000
0100
0000
0100
0000
0010
0000
0010
0000
1000
0000
0001
1000
0001
1000
,  // measure 28
0001
0010
1000
0010
0001
1000
0100
0010
,  // measure 29
0000
0100
1000
0100
0001
0100
1000
0001
,  // measure 30
0100
0010
1000
0100
0010
0001
0100
0010
,  // measure 31
1000
1000
0001
0001
0100
0100
0010
1010
,  // measure 32
0000
1000
0010
0100
1000
0100
0001
0001
,  // measure 33
0010
0100
1000
0010
0100
1000
0100
0101
,  // measure 34
0000
0001
0100
0010
0001
0010
1000
1000
,  // measure 35
0100
0010
0001
0100
0010
0001
0010
1010
,  // measure 36
0000
1000
0100
0010
0100
1000
0001
0200
,  // measure 37
0000
0310
1000
0100
0010
0001
0010
0100
,  // measure 38
0101
0000
0010
0100
0101
0000
0010
0100
,  // measure 39
0001
0001
1000
1000
0010
0010
0100
0110
,  // measure 40
0000
0010
0100
0001
0010
1000
0010
0001
,  // measure 41
1000
0010
0100
1000
0100
0001
0100
0110
,  // measure 42
0000
0100
0010
1000
0100
0001
0100
1000
,  // measure 43
0001
0100
0010
0001
0010
1000
0010
0110
,  // measure 44
0000
0001
0010
0100
0020
0000
0031
1000
,  // measure 45
0000
1000
0001
0010
0100
1000
0100
0010
,  // measure 46
1010
0000
0100
0010
1010
0000
0100
0010
,  // measure 47
1000
1000
0100
0100
0010
0010
0001
0001
,  // measure 48
0210
0000
0000
0001
0001
0000
0310
0000
,  // measure 49
0202
0303
2020
3030
,  // measure 50
2001
0000
0000
0100
0000
0000
0001
0000
,  // measure 51
3100
0000
0010
1000
0000
0010
0110
0000
,  // measure 52
0120
0000
0000
1000
1000
0000
0130
0000
,  // measure 53
0022
0033
2200
3300
,  // measure 54
0220
0000
0000
0000
,  // measure 55
0000
0000
0000
0300
,  // measure 56
0000
0000
0000
0030
;

//---------------dance-single - ----------------
#NOTES:
     dance-single:
     :
     Beginner:
     2:
     0.120,0.165,0.104,0.000,0.000:
0001
0000
0000
0000
,
0001
0000
0000
0000
,
1000
0000
0000
0000
,
1000
0000
0000
0000
,
1001
0000
0000
0000
,
0100
0000
0000
0000
,
0100
0000
0000
0000
,
0000
0000
0010
0000
,
0000
0000
0100
0000
,
0000
0000
0010
0000
,
0000
0000
0010
0000
,
0000
0000
1000
0000
,
0000
0000
1000
0000
,
0000
0000
0001
0000
,
0000
0000
0001
0000
,
0000
0000
1001
0000
,
0000
0000
0001
0000
,
0000
0000
1000
0000
,
0000
0000
0001
0000
,
0000
0000
0010
0000
,
0000
0000
0100
0000
,
0010
0000
0000
0000
,
0100
0000
0000
0000
,
0110
0000
0000
0000
,
1001
0000
0000
0000
,
1001
0000
1000
0000
,
0001
0000
0000
0000
,
1001
0000
0000
0000
,
1000
0000
0000
0000
,
0001
0000
1000
0000
,
0001
0000
0000
0000
,
0000
0100
0000
0100
,
0000
0010
0000
0010
,
0000
1000
0000
1000
,
0000
0001
0000
0001
,
0000
0010
0000
0010
,
0000
0100
0000
0100
,
1000
0000
0001
0000
,
1000
0000
0000
0000
,
0000
0010
0000
0010
,
0000
0100
0000
0100
,
0000
0001
0000
0001
,
0000
1000
0000
1000
,
0000
0010
0000
0010
,
0000
0100
0000
0100
,
0001
0000
1000
0000
,
0001
0000
0000
0000
,
1001
0000
0000
0000
,
1000
0000
1000
0000
,
1001
0000
0000
0000
,
0000
0000
0000
0000
,
1001
0000
0000
0000
,
0001
0000
0001
0000
,
1001
0000
0000
0000
;
