#TITLE:SURGE LINE;
#SUBTITLE:;
#ARTIST:positive MA;
#TITLETRANSLIT:;
#SUBTITLETRANSLIT:;
#ARTISTTRANSLIT:;
#CREDIT:DigiMindAxel;
#BANNER:SURGE LINE.png;
#BACKGROUND:SURGE LINE-bg.png;
#LYRICSPATH:SURGE LINE.lrc;
#CDTITLE:beatmania.png;
#MUSIC:SURGE LINE.mp3;
#OFFSET:-8.860;
#SAMPLESTART:65.780;
#SAMPLELENGTH:17.000;
#SELECTABLE:YES;
#BPMS:0.000=118.000;
#STOPS:;
#BGCHANGES:;

//---------------dance-single - ----------------
#NOTES:
     dance-single:
     :
     Easy:
     2:
     0.134,0.176,0.049,0.068,0.000:
0001
0000
1000
0000
,
0001
0000
0100
0000
,
0010
0000
0100
0000
,
0010
0000
0100
0000
,
0001
0000
0010
0000
,
0001
0000
1000
0000
,
0001
0000
1000
0000
,
0100
0000
1000
0000
,
0020
0000
0000
0000
,
0230
0000
0000
0000
,
0310
0000
0000
0000
,
1000
0000
0000
0000
,
0010
0000
0000
0000
,
0100
0000
0000
0000
,
0001
0000
0000
0000
,
0010
0000
0000
0000
,
0001
0000
0000
0000
,
1000
0000
0000
0000
,
0200
0000
0000
0000
,
2300
0000
0000
0000
,
3001
0100
0001
0000
,
0000
1000
0010
0000
,
0000
0010
0100
0000
,
0000
0100
0001
0000
,
0000
0001
1000
0000
,
0000
1000
0100
0000
,
0000
0100
0010
0000
,
0010
0001
1000
0000
,
0010
0010
0010
0000
,
0000
1001
0000
0000
,
0100
0100
0100
0000
,
0000
1001
0000
0000
,
0010
0010
0010
0000
,
0000
1001
0000
0000
,
0100
0100
0100
0000
,
0020
0000
0000
0000
,
0130
0001
1000
0001
,
0000
0100
0000
0010
,
0000
0100
0000
0010
,
0000
1000
0000
0010
,
1000
0001
1000
0010
,
0000
0100
0000
0010
,
1000
0001
1000
0100
,
0000
1001
0000
0000
,
2002
0000
0000
0000
,
0000
3003
0000
0000
;

//---------------dance-single - ----------------
#NOTES:
     dance-single:
     :
     Hard:
     7:
     0.428,0.397,0.098,0.341,0.137: // measure 1
1000
0100
0001
0010
,  // measure 2
1000
0000
0000
0000
0001
0000
0000
0100
0010
0000
0000
0000
1000
0000
0100
0000
,  // measure 3
0010
0001
0100
1000
,  // measure 4
0010
0000
0001
0000
1000
0000
0001
0010
,  // measure 5
0100
0000
1000
0100
0000
0002
0000
0000
,  // measure 6
0103
0000
1000
0010
0000
0002
0000
0000
,  // measure 7
0013
0000
1000
0001
0000
0200
0000
0000
,  // measure 8
1300
0000
0100
0001
0000
2000
0000
0000
,  // measure 9
3010
0100
0010
0100
0001
0010
0100
0010
,  // measure 10
0001
0000
1000
0000
0010
0100
0000
0100
0001
0000
0010
0000
0100
0000
1000
0000
,  // measure 11
0020
0000
1000
0030
0110
0000
0100
0000
,  // measure 12
0200
0000
0001
0300
0110
0000
0010
1000
,  // measure 13
0200
0000
0010
0000
1300
0001
0010
0000
,  // measure 14
0200
0000
0000
0010
0310
0000
1000
0010
,  // measure 15
0001
0000
0011
0000
0001
0100
0010
0000
,  // measure 16
1000
0100
0001
0000
0101
0000
0100
0010
,  // measure 17
1000
0000
0000
0000
0100
0010
0000
0000
0100
0000
1000
0000
0001
0000
0000
0000
,  // measure 18
1000
0000
0000
0000
0010
0100
0000
0000
0010
0000
1000
0000
0001
0000
0010
0000
,  // measure 19
0100
0000
0000
0000
1000
0001
0000
0000
0100
0000
0010
0000
0100
0000
0001
0000
,  // measure 20
1000
0010
0001
0010
1000
0100
0001
0100
,  // measure 21
1000
0000
0000
0000
0010
0100
0010
0000
1000
0000
0010
0000
0001
0000
0010
0000
,  // measure 22
1000
0000
0000
0000
0100
0010
0100
0000
1000
0000
0100
0000
0001
0000
0100
0000
,  // measure 23
1000
0000
0000
0000
0001
0100
0001
0000
0010
0000
0100
0000
1000
0000
0100
0000
,  // measure 24
0020
0000
2030
0000
3020
0000
0031
0100
,  // measure 25
0010
0000
0000
0000
1000
0010
1000
0000
0100
0000
0010
0000
0001
0000
0100
0000
,  // measure 26
0020
0000
0032
0000
0023
0000
1030
0010
,  // measure 27
0100
0000
0000
0000
0001
1000
0001
0000
1000
0000
0100
0000
0001
0000
0100
0000
,  // measure 28
1000
0000
0010
0100
0010
0000
1000
0001
0000
0100
0000
0002
0000
0000
0000
0000
,  // measure 29
1003
0000
0000
1000
0010
0000
0000
0000
0011
0000
0000
0000
0010
0000
2000
0000
,  // measure 30
0000
3020
0000
0230
0000
0301
0100
0000
,  // measure 31
0001
0000
0000
0001
0100
0000
0000
0000
0001
0000
0020
0000
0000
0000
2030
0000
,  // measure 32
0000
3020
0000
0031
0010
0100
1000
0000
,  // measure 33
0001
0000
0000
0001
0100
0000
0000
0000
1100
0000
0000
0000
0100
0000
0002
0000
,  // measure 34
0000
0023
0000
0230
0000
1300
0100
0000
,  // measure 35
1000
0000
0000
1000
0010
0000
0000
0000
0100
0000
0000
0000
1000
0000
0100
0000
,  // measure 36
0001
0000
0010
0000
0100
0000
0010
0000
0001
0000
1000
0000
0010
0000
0100
0001
,  // measure 37
1000
0000
0000
1000
0100
0000
0000
0000
0101
0000
0000
0000
0001
0000
0100
0000
,  // measure 38
0000
2000
0000
3020
0000
0130
0001
0010
,  // measure 39
0100
0000
0000
1000
0001
0000
0000
0000
0011
0000
0000
0000
0001
0000
0020
0000
,  // measure 40
0000
0230
0000
2300
0000
3001
0100
0010
,  // measure 41
1000
0000
0000
1000
0100
0000
0000
0000
0101
0000
0000
0000
0001
0000
0200
0000
,  // measure 42
0000
0320
0000
2030
0000
3001
0010
0100
,  // measure 43
1000
0000
0000
0000
0100
0010
0100
0000
1000
0000
0000
0000
0010
0000
0200
0000
,  // measure 44
0000
0000
0301
1000
0001
0000
0010
0100
0000
1000
0000
0001
0000
0000
0000
0000
,  // measure 45
2002
0000
3000
0000
,  // measure 46
0000
0003
0000
0000
;

//---------------dance-single - ----------------
#NOTES:
     dance-single:
     :
     Medium:
     4:
     0.262,0.287,0.107,0.107,0.000:
0001
1000
0000
1000
,
0000
0100
0000
0010
,
0000
0001
0000
0010
,
0000
0100
0000
1000
,
0000
0001
0000
1000
,
0000
0001
0000
0100
,
0000
0010
0000
1000
,
0000
0010
0000
0100
,
0001
0000
0000
1000
1000
0000
0000
0001
,
0001
0010
0100
0000
1000
0000
0001
0000
,
1001
0010
0100
0001
,
2000
0000
0000
3001
0000
0000
0100
0000
,
0020
0000
0000
1030
0000
0001
0000
0000
,
0010
0000
0100
0000
1000
0000
0001
1000
,
0002
0000
0000
1003
0000
0000
0010
0000
,
0200
0000
0000
0301
0000
0000
1000
0000
,
0020
0000
0000
0130
0000
0001
0000
1000
,
0100
0010
1001
0000
,
2000
0001
3001
1000
,
0100
1000
0100
0000
0010
0001
0010
0000
,
1001
0000
0010
0100
0001
0000
1000
0000
,
0100
1100
1001
0000
,
0001
0000
0100
0010
1000
0000
0001
0000
,
0100
0101
1001
0000
,
0020
1000
1030
0001
,
0200
0001
0301
0000
,
0020
0001
0031
1000
,
0200
0000
1000
0000
1300
0001
1000
0001
,
1000
0000
0100
0000
0001
0000
0100
1000
,
0000
0010
0000
0010
0000
0000
0000
0000
,
1000
0000
0010
0000
0001
0010
0000
1000
,
0000
0100
0000
0010
0000
0001
0000
0000
,
0100
0000
0110
0000
0001
0000
0100
1000
,
0000
0100
0000
0001
0000
1000
0000
0000
,
0010
0000
0100
0000
0010
0000
1000
0100
,
0000
0001
0100
0000
1000
0001
1000
0001
,
1000
0000
0010
0000
0001
0000
0010
1000
,
0000
0001
0000
0001
0000
0000
0000
0000
,
1000
0000
0100
0000
0001
0000
0100
1000
,
0000
0010
0000
0100
0000
0010
0000
0000
,
0110
0000
0110
0000
1000
0000
0001
1000
,
0000
0010
0000
0100
0000
0001
0010
0100
,
1000
0000
1001
0000
0001
0000
0100
0010
,
0000
1000
0000
0100
0000
0010
0000
0001
,
2000
0000
0000
0000
,
0000
3000
0000
0000
;

//---------------dance-single - ----------------
#NOTES:
     dance-single:
     :
     Beginner:
     1:
     0.060,0.107,0.039,0.000,0.000:
0001
0000
0000
0000
,
1000
0000
0000
0000
,
0010
0000
0000
0000
,
0100
0000
0000
0000
,
0010
0000
0000
0000
,
1000
0000
0000
0000
,
0001
0000
0000
0000
,
1000
0000
0000
0000
,
1001
0000
0000
0000
,
0000
0000
0000
0000
,
0110
0000
0000
0000
,
0000
0000
0000
0000
,
0001
0000
0000
0000
,
0000
0000
0000
0000
,
0100
0000
0000
0000
,
0000
0000
0000
0000
,
0100
0000
0000
0000
,
0000
0000
0000
0000
,
0010
0000
0000
0000
,
0100
0000
0000
0000
,
0001
0000
0000
0000
,
0000
0000
0000
0000
,
1000
0000
0000
0000
,
0000
0000
0000
0000
,
0100
0000
0000
0000
,
0000
0000
0000
0000
,
0010
0000
0000
0000
,
1001
0000
0000
0000
,
0100
0000
0000
0000
,
0000
0000
0000
0000
,
0100
0000
0000
0000
,
0000
0000
0000
0000
,
0010
0000
0000
0000
,
0000
0000
0000
0000
,
0010
0000
0010
0000
,
0010
0000
0000
0000
,
1000
0000
1000
0000
,
1000
0000
0000
0000
,
0001
0000
0001
0000
,
0001
0000
0000
0000
,
0100
0000
0100
0000
,
0100
0000
0000
0000
,
0010
0000
0010
0000
,
0010
0000
0000
0000
,
1001
0000
0000
0000
;
