#TITLE:スーパーマリオブラザーズBGMメドレー EX;
#SUBTITLE:;
#ARTIST:♪♪♪♪♪;
#TITLETRANSLIT:SUPER MARIO BROTHERS BGM MEDLEY EX;
#SUBTITLETRANSLIT:;
#ARTISTTRANSLIT:(LICENSE);
#CREDIT:DigiMindAxel;
#BANNER:SUPER MARIO BROTHERS BGM MEDLEY EX.png;
#BACKGROUND:SUPER MARIO BROTHERS BGM MEDLEY EX-bg.png;
#LYRICSPATH:;
#CDTITLE:pop'n music.png;
#MUSIC:SUPER MARIO BROTHERS BGM MEDLEY EX.mp3;
#OFFSET:-2.480;
#SAMPLESTART:7.160;
#SAMPLELENGTH:12.000;
#SELECTABLE:YES;
#DISPLAYBPM:*;
#BPMS:0.000=100.000,84.000=150.000,102.500=112.500,152.000=150.000,192.000=150.000,222.875=180.000,273.250=90.000;
#STOPS:64.750=1.180
,84.000=0.720
,102.500=0.600
,152.000=0.500
,179.500=0.880
;
#BGCHANGES:;

//---------------dance-single - ----------------
#NOTES:
     dance-single:
     :
     Easy:
     3:
     0.139,0.223,0.021,0.256,0.007: // measure 1
0000
0100
0000
0010
,  // measure 2
0000
0100
0000
0001
,  // measure 3
0000
1000
0000
0001
,  // measure 4
0000
1000
0000
0010
,  // measure 5
0200
0000
0000
0000
,  // measure 6
0320
0000
0030
0000
,  // measure 7
2000
0000
0000
0000
,  // measure 8
3002
0000
0013
0100
,  // measure 9
2000
0000
0000
3100
,  // measure 10
0020
0000
0031
0000
,  // measure 11
0002
0000
0000
0000
,  // measure 12
2003
0000
0000
3010
,  // measure 13
0100
0020
0000
0130
,  // measure 14
0002
0000
0003
0000
,  // measure 15
0010
0200
0000
1300
,  // measure 16
0020
0000
0130
0110
,  // measure 17
0000
0000
0000
0010
0000
0000
0000
0000
,  // measure 18
0000
0100
0000
0000
0000
0000
0000
0010
,  // measure 19
0000
0000
0000
0000
0000
0100
0000
0000
,  // measure 20
0000
0000
0001
0000
0000
0010
0000
0100
,  // measure 21
0000
2002
0000
0000
0000
0000
0000
0000
,  // measure 22
3003
0000
0000
0100
,  // measure 23
0000
0010
0000
0100
,  // measure 24
0000
0010
0000
1000
,  // measure 25
0000
0100
0000
0010
,  // measure 26
0000
0001
0000
0000
,  // measure 27
0020
0000
0000
0200
,  // measure 28
0000
0330
2000
0000
,  // measure 29
0000
0000
3000
0000
,  // measure 30
0002
0000
0000
0000
,  // measure 31
0003
0000
0200
0000
,  // measure 32
0000
0000
0300
0000
,  // measure 33
0020
0000
0000
0000
,  // measure 34
0030
0000
2000
0000
,  // measure 35
0000
0000
3000
0000
,  // measure 36
0002
0000
0000
0000
,  // measure 37
0003
0000
0200
0000
,  // measure 38
0000
0320
0000
0000
,  // measure 39
0030
0000
0000
0000
0001
0000
0000
0010
,  // measure 40
0000
0000
0000
0000
0100
0000
0000
0000
0000
2000
0000
0000
0000
0000
0000
0000
,  // measure 41
0000
3001
0000
0000
,  // measure 42
0010
0000
0000
0100
,  // measure 43
0000
0000
0010
0000
,  // measure 44
0000
0002
0000
0023
,  // measure 45
0000
0000
0230
0000
0000
0000
0000
0300
,  // measure 46
0000
0000
0000
0000
,  // measure 47
1000
0001
1000
0000
,  // measure 48
0010
0100
0010
0000
,  // measure 49
2002
0000
0000
3003
,  // measure 50
0020
0000
0000
0000
,  // measure 51
0230
0000
0000
0000
,  // measure 52
2300
0000
0000
3002
,  // measure 53
0000
0000
0000
1003
,  // measure 54
0000
0000
0000
0000
,  // measure 55
0000
0000
0000
0000
,  // measure 56
0000
0000
0000
0000
,  // measure 57
0001
0000
0000
0000
,  // measure 58
0000
0010
0000
0000
0000
0000
0000
0000
,  // measure 59
0000
0100
0000
0000
0000
0000
0000
0000
,  // measure 60
0000
0010
0000
0000
0000
0000
0000
0000
,  // measure 61
0000
0001
0000
0000
0000
0000
0000
0000
,  // measure 62
0000
0010
0000
0000
0000
0000
0000
0000
,  // measure 63
0000
0001
0000
0000
0000
1000
0000
0000
,  // measure 64
0000
0001
0000
0000
0000
0100
0000
0000
,  // measure 65
0000
0010
0000
0000
0000
0100
0000
0000
,  // measure 66
0000
0010
0000
0000
0000
0100
0000
0000
,  // measure 67
0000
0000
0000
0002
0000
0000
0000
0000
,  // measure 68
0000
0000
0000
0003
0000
0000
0000
0000
,  // measure 69
0000
0000
0000
0000
0000
0000
0000
0000
0000
0000
0000
0000
2000
0000
0000
0000
0000
0000
0000
0000
0000
0000
0000
3001
,  // measure 70
0000
0000
1000
0000
;

//---------------dance-single - ----------------
#NOTES:
     dance-single:
     :
     Hard:
     8:
     0.464,0.499,0.256,0.085,0.499: // measure 1
0001
0000
0000
1000
0010
0000
1000
0000
0010
0000
0000
1000
0001
0000
0010
0000
,  // measure 2
0100
0000
0000
0000
1000
0000
0000
0000
0100
0000
0000
0000
1000
0000
0000
0000
0000
0000
0010
0000
0000
0100
0000
0000
0000
0000
0000
0001
0000
0000
0000
0000
0000
0000
0000
0000
1001
0000
0000
0000
0000
0000
0000
0000
0000
0000
0000
0000
,  // measure 3
1000
0000
0000
0001
0100
0000
0001
0000
0100
0000
0000
0001
1000
0000
0100
0000
,  // measure 4
0010
0000
0000
0000
0001
0000
0000
0000
0010
0000
0000
0000
0001
0000
0000
0000
0000
0000
0100
0000
0000
0010
0000
0000
0000
0000
0000
1000
0000
0000
0000
0000
0000
0000
0000
0000
1000
0000
0000
0000
0000
0000
0000
0000
0000
0000
0000
0000
,  // measure 5
1001
0000
0100
1000
0100
1000
0000
0001
0000
0001
0100
0000
0000
0001
0100
0000
,  // measure 6
0001
0000
0010
0001
0010
0001
0000
1000
0000
0010
0000
0010
0100
0000
0000
0000
,  // measure 7
0000
0000
0010
1000
0010
1000
0000
0001
0000
0001
0010
0000
0000
0001
0010
0000
,  // measure 8
0000
0000
0101
0000
0000
0101
0000
0000
1001
0000
0000
1000
0010
0000
0100
0000
,  // measure 9
0010
0000
0100
0001
0100
0001
0000
1000
0000
1000
0100
0000
0000
1000
0100
0000
,  // measure 10
1000
0000
0010
1000
0010
1000
0000
0001
0000
0100
0000
0100
0010
0000
0000
0000
,  // measure 11
1000
0000
0010
1000
0010
1000
0000
0001
0000
0001
0010
0000
0000
0001
0010
0000
,  // measure 12
0000
0000
1100
0000
0000
1100
0000
0000
1001
0000
0000
0001
0100
0000
0010
0000
,  // measure 13
0100
0001
0000
0001
0000
0000
0001
0000
0010
0000
0100
0000
1000
0000
0000
0000
,  // measure 14
0010
1000
0000
1000
0000
0010
1000
0000
0001
0000
0001
0000
0001
0000
0000
0000
,  // measure 15
0010
0001
0000
0001
0000
0000
0001
0000
0010
0000
0100
0000
1000
0000
0000
0000
,  // measure 16
0100
1000
0000
1000
0000
0010
0100
0000
0010
0000
0000
0000
1001
0000
0000
0000
,  // measure 17
0000
0000
0000
0000
0000
0000
0001
1000
0001
1000
0001
1000
0000
0000
0000
0000
,  // measure 18
0000
0000
1000
0100
1000
0100
1000
0100
0000
0000
0000
0000
0000
0000
0001
0100
,  // measure 19
0001
0100
0001
0100
0000
0000
0000
0000
0000
0000
1000
0001
1000
0001
1000
0001
,  // measure 20
0000
0000
0000
0000
0001
0100
0001
0000
0010
0000
0100
0000
1000
0000
0100
0000
,  // measure 21
0010
0001
0010
0200
0000
0000
0300
0000
,  // measure 22
0110
0000
0000
0000
0000
0000
0000
0000
0001
0000
1000
0000
0001
0000
0000
1000
,  // measure 23
0000
0100
0000
0000
0000
0000
1000
0000
0010
0000
0100
0000
0010
0000
0000
0100
,  // measure 24
0000
0001
0000
0000
0000
0000
0010
0000
0001
0000
1000
0000
0001
0000
0000
0010
,  // measure 25
0000
0001
0000
0000
0000
0000
1000
0000
0010
0000
0100
0000
0010
0000
0000
1000
,  // measure 26
0000
0001
0000
0000
1000
0000
1000
0000
0000
0000
0000
0000
0000
0000
0000
0000
,  // measure 27
1000
0100
0010
0001
0010
0100
2000
0000
,  // measure 28
0000
0000
3000
0000
1001
0000
0000
0011
,  // measure 29
0000
0000
0011
0000
0000
0100
1000
0001
,  // measure 30
1001
0000
0000
0110
0000
1000
0001
0000
,  // measure 31
0000
0000
0000
0000
0000
0000
0000
0100
0001
0000
0000
0000
0000
0000
0101
0000
,  // measure 32
0000
0000
1001
0000
0000
0100
0001
1000
,  // measure 33
1001
0000
0000
0110
0000
0001
1000
0000
,  // measure 34
0000
0000
0000
0000
0000
0000
0000
0010
1000
0000
0000
0000
1001
0000
0000
0000
,  // measure 35
0000
0000
0110
0000
0000
0000
0100
0000
0010
0000
0000
0100
0001
0000
0000
0000
,  // measure 36
1001
0000
0000
0110
0000
0000
0110
0000
,  // measure 37
0000
0010
0100
0000
1001
0000
0000
0010
,  // measure 38
0100
0000
1000
0000
0200
0000
0000
0000
0300
1000
0001
0000
0000
0000
0000
0000
,  // measure 39
0110
0000
0000
0000
1100
0000
0000
1001
,  // measure 40
0000
0000
0000
0000
0011
0000
0000
0000
0000
0002
0000
2000
0000
0000
0000
0000
,  // measure 41
3003
0000
0000
0000
0000
0100
0000
0001
0000
0010
0000
0000
1001
0000
0000
0000
,  // measure 42
0000
0010
0000
1000
0000
0100
0000
0000
1001
0000
0000
0000
0000
0010
0000
0001
,  // measure 43
0000
0100
0000
0000
1001
0000
0000
0000
0000
0100
0000
1000
0000
0010
0000
0000
,  // measure 44
1000
0000
0001
0000
1000
0010
0000
0100
0000
0001
0000
0010
0000
0100
0000
1000
,  // measure 45
0000
0002
0000
0000
0000
0000
0000
0000
0000
0000
0000
0000
0003
0000
0000
0000
,  // measure 46
1000
0010
0000
0100
0000
0010
1000
0000
0001
0000
0000
0000
1001
0000
0000
0000
,  // measure 47
0010
0000
0000
0010
0000
0000
0010
0000
0000
0001
0000
0010
0000
0100
0010
0000
,  // measure 48
0001
0100
0010
1000
0000
1000
0001
0000
0000
1000
0001
0000
,  // measure 49
2002
0000
0000
3003
,  // measure 50
0001
0100
0001
0100
0010
1000
0010
0000
0000
1001
0000
0000
,  // measure 51
1000
0100
1000
0100
0010
0001
0010
0000
0000
1001
0000
0000
,  // measure 52
0001
0010
0001
0010
0100
1000
0100
0000
0000
1000
0010
0100
,  // measure 53
0002
0000
0003
1000
,  // measure 54
0000
0000
1000
0000
0000
0000
0000
1000
0000
0000
0000
0000
,  // measure 55
1000
0000
0000
0000
0000
1000
0000
0000
0000
0000
1000
0000
,  // measure 56
0000
0000
0000
0000
,  // measure 57
0001
1000
0001
1000
0000
0010
0000
0100
,  // measure 58
0000
0001
1000
0001
0100
0001
0000
0010
,  // measure 59
0000
0100
0000
1000
0000
0010
0100
0010
,  // measure 60
1000
0001
0000
0100
0010
0100
0001
1000
,  // measure 61
0010
1000
0100
1000
0010
1000
0100
1000
,  // measure 62
0000
0001
0100
0001
0010
0001
0100
0001
,  // measure 63
0010
0001
0000
0010
0000
0100
0000
1000
,  // measure 64
0000
0100
1000
0100
1000
0100
0010
0001
,  // measure 65
1000
0001
0000
0100
0000
0010
0000
1000
,  // measure 66
0100
0010
0001
0100
0010
1000
0100
1000
,  // measure 67
0000
0000
0000
0000
0000
0000
0000
0000
0000
0000
0000
0000
0001
0000
0000
0000
1000
0000
0000
0000
0000
0000
0001
0000
0000
0000
0000
0010
0000
0000
0000
0000
,  // measure 68
0100
0000
0000
0000
0000
1000
0000
0000
0000
0000
0001
0000
0000
0000
0100
0000
0000
0000
0000
0000
0001
0000
0000
0000
0100
0000
0000
0000
0000
0000
0000
0000
,  // measure 69
0000
0000
0000
0000
0000
0000
0000
0000
0000
0000
0000
0000
0000
0000
0000
0000
0000
0000
0000
0000
0000
0000
0000
0000
0001
0000
0000
0000
0000
0000
0000
0000
0000
0001
0000
0000
0000
0000
0000
0000
0000
0000
0001
0000
0000
0000
0200
0000
,  // measure 70
0000
0000
0000
0000
0000
0000
0000
0000
0000
0000
0320
0000
0000
0000
0000
0000
0000
0000
0000
0000
0000
0000
0030
0000
1000
0000
0000
0001
0000
0000
2000
0000
0000
0000
0000
0000
0000
0000
0000
0000
0000
0000
0000
0000
0000
0000
0000
0000
,  // measure 71
3000
0000
0000
0000
;

//---------------dance-single - ----------------
#NOTES:
     dance-single:
     :
     Challenge:
     9:
     0.607,0.623,0.192,0.192,0.741: // measure 1
1100
0000
0000
0110
0000
0000
0011
0000
0000
1000
0000
1000
0000
0010
0100
0000
,  // measure 2
0001
0000
0000
0000
0010
0000
0000
0000
0100
0000
0000
0000
1000
0000
0000
0000
0000
0000
0001
0000
0000
0100
0000
0000
0000
0000
0000
0100
0000
0000
0000
0000
0000
0010
0000
0000
1000
0000
0000
0100
0000
0000
0000
0000
0000
0000
0000
0000
,  // measure 3
0011
0000
0000
0110
0000
0000
1100
0000
0000
0001
0000
0001
0000
0100
0010
0000
,  // measure 4
1000
0000
0000
0000
0100
0000
0000
0000
0010
0000
0000
0000
0001
0000
0000
0000
0000
0000
1000
0000
0000
0010
0000
0000
0000
0000
0000
0010
0000
0000
0000
0000
0000
0100
0000
0000
0001
0000
0000
0010
0000
0000
0000
0000
0000
0000
0000
0000
,  // measure 5
0001
0000
0010
0001
0010
0100
0000
1000
0000
1000
0100
0010
0000
0001
0010
0100
,  // measure 6
1000
0000
0100
1000
0100
0010
0000
0001
0000
0100
0000
0100
0010
0000
0000
0000
,  // measure 7
1000
0000
0100
1000
0100
0010
0000
0001
0000
0001
0010
0100
0000
1000
0100
0010
,  // measure 8
0001
0000
1001
0000
0000
0110
0000
0000
1001
0000
0000
1000
0001
0000
0001
0000
,  // measure 9
1001
0000
0100
0010
0100
1000
0000
1000
0000
1000
0100
0010
0000
0001
0010
0100
,  // measure 10
1000
0000
0100
0010
0100
1000
0000
1000
0000
1000
0000
0010
0100
0000
0100
0000
,  // measure 11
1001
0000
0010
0100
0010
0001
0000
0001
0000
0001
0010
0100
0000
1000
0100
0010
,  // measure 12
0001
0000
1001
0000
0000
0110
0000
0000
1001
0000
0000
0001
1000
0000
1000
0000
,  // measure 13
0100
0010
0000
0010
0000
0010
0001
0000
0001
1000
0000
1000
0010
0000
0010
0000
,  // measure 14
0100
0001
0000
0001
0000
0010
0100
1000
0000
0000
0010
0000
0010
0000
0000
0000
,  // measure 15
0100
0010
0000
0010
0000
0010
1000
0000
1000
0001
0000
0001
0100
0000
0100
0000
,  // measure 16
0010
1000
0000
1000
0000
0010
0100
0000
0001
0000
0000
0000
0100
0001
1000
0100
,  // measure 17
0000
0000
0000
0000
0000
0000
1000
0010
0100
0001
0010
0100
0000
0000
0000
0000
,  // measure 18
0000
0000
1000
0010
0100
0001
0010
0100
0000
0000
0000
1000
0000
0001
1000
0100
,  // measure 19
0010
0001
0100
0010
0000
0000
1000
0000
1000
0001
1000
0100
0010
0001
0100
0010
,  // measure 20
0000
0000
1000
0000
1000
0010
0100
0000
0001
0000
0010
0000
0100
0000
1000
0000
,  // measure 21
0001
0000
0000
0000
0000
0000
0100
0000
0000
0010
0000
0000
0100
0000
0000
0010
0000
0000
1000
0000
0000
0000
0100
0000
0000
0000
0010
0000
0000
0000
0001
0000
0000
0000
1000
0000
0000
0000
0001
0000
0000
0000
0000
0000
0000
0000
0000
0000
,  // measure 22
1001
0000
0000
0000
0000
0000
0000
0000
0001
0000
0100
0000
0001
0000
1000
0100
,  // measure 23
0000
1000
0000
0001
0100
0001
0100
0000
0001
0000
0010
0000
0001
0000
1000
0100
,  // measure 24
0000
1000
0000
0010
0100
0010
0100
0000
0010
0000
1000
0000
0001
0000
0010
0100
,  // measure 25
0000
0010
0000
0001
1000
0001
1000
0000
0100
0000
1000
0000
0001
0000
0100
0001
,  // measure 26
0000
1000
0000
0100
1000
0100
1000
0000
0000
0000
1001
0000
0000
0000
0000
0000
,  // measure 27
1000
0000
0100
0000
0010
0000
0001
0000
0010
0000
0100
0000
1000
0001
1000
0000
,  // measure 28
0010
0110
0000
1000
0020
0100
0000
0230
,  // measure 29
0001
0000
0000
0000
0302
0000
1000
0000
1000
0000
1003
0001
0010
0100
1000
0001
,  // measure 30
2000
0000
0100
3200
0000
0010
0320
0000
,  // measure 31
0001
0000
0031
0000
1000
0000
0000
0010
0200
0000
0000
0000
0001
0000
0302
0000
,  // measure 32
0000
0000
1000
0000
2003
0000
0000
0000
0001
0000
3001
0010
0100
1000
0001
0010
,  // measure 33
0002
0000
0010
0023
0000
0130
2000
0000
,  // measure 34
0000
0000
0001
0000
3001
0000
0000
0100
0020
0000
0000
0000
1030
0000
2000
0000
,  // measure 35
0000
0000
0100
0000
3200
0000
0000
0000
0310
0000
0001
0000
0100
0000
0000
0010
,  // measure 36
0200
0000
0301
0002
0000
0013
0020
0000
,  // measure 37
0130
0000
1000
0000
0010
0000
0000
0100
0020
0000
0000
0000
1000
0000
1030
0000
,  // measure 38
0100
0000
0010
0000
0001
0100
0010
0000
0000
2000
0002
0000
0000
0000
0000
0000
,  // measure 39
3003
0000
0000
0000
0000
0000
0000
0000
0001
0000
0001
0010
0000
0000
0100
0000
,  // measure 40
0100
1000
0000
0000
0010
0000
0010
0100
0000
0002
0000
2000
0000
0000
0000
0000
,  // measure 41
3003
0000
0000
0000
0000
0001
0100
0010
1000
0100
0010
0000
0000
1001
0000
0000
,  // measure 42
0000
1000
0100
0010
0001
1000
0010
1000
0000
1000
0000
0000
0000
0001
0010
0100
,  // measure 43
1000
0001
0100
0000
0001
0000
0000
0001
1000
0001
0010
0001
0010
0100
0000
0000
,  // measure 44
0010
0000
0010
0000
0100
0001
0100
0010
0000
1000
0000
0100
0000
0010
0000
0001
,  // measure 45
0000
0000
0000
0000
0000
0000
0000
0000
0000
0000
0000
0000
0010
0000
0000
0000
0000
0000
0000
0000
0000
0000
0000
0000
0000
0000
0000
0000
0000
0000
0100
0000
0000
0000
0000
0000
0000
0000
0000
0000
0000
0000
0000
0000
0000
0000
0000
0000
1000
0000
0000
0000
0000
0000
0000
0000
0000
0000
0000
0000
0000
0000
0000
0000
0010
0000
0000
0000
0000
0000
0000
0000
0000
0000
0000
0000
0000
0000
0000
0000
0100
0000
0000
0000
0000
0000
0000
0000
0000
0000
0000
0000
0000
0000
0000
0000
0001
0000
0000
0000
0000
0000
0000
0000
0000
0000
0000
0000
0000
0000
0000
0000
0100
0000
0000
0000
0000
0000
0000
0000
0000
0000
0000
0000
0000
0000
0000
0000
0010
0000
0000
0000
0000
0000
0000
0000
0000
0000
0000
0000
0000
0000
0000
0000
0100
0000
0000
0000
0000
0000
0000
0000
0000
0000
0000
0000
0000
0000
0000
0000
0000
0000
0000
0000
0000
0000
0000
0000
0000
0000
0000
0000
0000
0000
0000
0000
0000
0000
0000
0000
0000
0000
0000
0000
0000
0000
0000
0000
0000
0000
0000
0000
,  // measure 46
0001
0100
0000
0100
0000
0010
1000
0000
1000
0000
0000
0000
1001
0000
0000
0000
,  // measure 47
0011
0000
0000
1010
0000
0000
1001
0000
0000
0100
0000
0100
0000
0001
0010
0000
,  // measure 48
0001
1000
0001
1000
0000
0100
0010
0001
0000
0010
0100
0000
,  // measure 49
2002
0000
0000
3003
,  // measure 50
0001
0010
0100
1000
0100
0001
0100
0000
0000
1001
0000
0000
,  // measure 51
1000
0100
0010
0001
0100
1000
0100
0000
0000
1001
0000
0000
,  // measure 52
0001
0100
0001
1000
0100
1000
0010
0000
0000
0100
0001
0010
,  // measure 53
0200
0000
0300
1000
,  // measure 54
0000
0000
1000
0000
0000
0000
0000
1000
0000
0000
0000
0000
,  // measure 55
1000
0000
0000
0000
0000
1000
0000
0000
0000
0000
1000
0000
,  // measure 56
0000
0000
0000
0000
,  // measure 57
1000
0001
0010
0001
0100
1000
0100
0001
,  // measure 58
1000
0100
1000
0010
1000
0100
0001
0100
,  // measure 59
1000
0001
0010
0001
0010
0100
1000
0100
,  // measure 60
1000
0001
0010
1000
0010
0001
1000
0100
,  // measure 61
0001
0100
1000
0001
0010
0001
0100
0001
,  // measure 62
0010
1000
0010
0001
1000
0100
1000
0010
,  // measure 63
1000
0100
0001
0100
1000
0001
0100
0001
,  // measure 64
0100
0010
1000
0010
1000
0001
0010
1000
,  // measure 65
0010
0001
1000
0010
0100
0001
0010
0100
,  // measure 66
1000
0100
0010
0100
1000
0001
0010
0100
,  // measure 67
0000
0000
0000
0000
0000
0000
0000
0000
0000
0000
0000
0000
1000
0000
0000
0000
0001
0000
0000
0000
0000
0000
0010
0000
0000
0000
0000
0100
0000
0000
0000
0000
,  // measure 68
1000
0000
0000
0000
0000
0001
0000
0000
0000
0000
0100
0000
0000
0000
0010
0000
0000
0000
0000
0000
1000
0000
0000
0000
0001
0000
0000
0000
0000
0000
0000
0000
,  // measure 69
0000
0000
0000
0000
0000
0000
0000
0000
0000
0000
0000
0000
0000
0000
0000
0000
0000
0000
0000
0000
0000
0000
0000
0000
0000
0000
0000
0000
0000
0000
0000
0000
0000
0000
0000
0000
0000
0000
0000
0000
0000
0000
0000
0000
0000
0000
0000
0000
0000
0000
0000
0000
0000
0000
0000
0000
0000
0000
0000
0000
0000
0000
0000
0000
0000
0000
0000
0000
0000
0000
0000
0000
0000
0000
0000
0000
0000
0000
0000
0000
0000
0000
0000
0000
0000
0000
0000
0000
0000
0000
0000
0000
0000
0000
0000
0000
1100
0000
0000
0000
0000
0000
0000
0000
0000
0000
0000
0000
0000
0000
0000
0000
0000
0000
0000
0000
0000
0000
0000
0000
0000
0000
0000
0000
0000
0000
0000
0000
0000
0000
0000
0000
1100
0000
0000
0000
0000
0000
0000
0000
0000
0000
0000
0000
0000
0000
0000
0000
0000
0000
0000
0000
0000
0000
0000
0000
0000
0000
0000
0000
0000
0000
1000
0000
0000
0000
0000
0000
0000
0000
0000
0000
0000
0000
0000
0000
0000
0000
0000
0000
0000
0000
0000
0000
0001
0000
0000
0000
0000
0000
0000
0000
,  // measure 70
0000
0000
0000
0000
0000
0000
0000
0000
0010
0000
0000
0000
0000
0000
0000
0000
0000
0000
0000
0000
0000
0000
0000
0000
0100
0000
0000
0000
0000
0000
0000
0000
0000
0000
0000
0000
0000
0000
0000
1000
0000
0000
0000
0000
0000
0000
0000
0000
0000
0000
0000
0000
0000
0000
0000
0000
0100
0000
0000
0000
0000
0000
0000
0000
0000
0000
0000
0000
0000
0000
0000
0000
0000
0000
0000
0000
0000
0000
0000
0000
1000
0000
0000
0000
0000
0000
0000
0000
0000
0000
0000
0000
0000
0000
0000
0000
0001
0000
0000
0000
0000
0000
0000
0000
0000
0000
0000
0000
0100
0000
0000
0000
0000
0000
0000
0000
0000
0000
0000
0000
0002
0000
0000
0000
0000
0000
0000
0000
0000
0000
0000
0000
0000
0000
0000
0000
0000
0000
0000
0000
0000
0000
0000
0000
0000
0000
0000
0000
0000
0000
0000
0000
0000
0000
0000
0000
0000
0000
0000
0000
0000
0000
0000
0000
0000
0000
0000
0000
0000
0000
0000
0000
0000
0000
0000
0000
0000
0000
0000
0000
0000
0000
0000
0000
0000
0000
0000
0000
0000
0000
0000
0000
,  // measure 71
0003
0000
0000
0000
;

//---------------dance-single - ----------------
#NOTES:
     dance-single:
     :
     Medium:
     6:
     0.313,0.372,0.278,0.107,0.100: // measure 1
1000
0001
1000
0000
0100
1000
0100
0000
,  // measure 2
0011
1001
1100
0110
,  // measure 3
0001
1000
0001
0000
0010
0001
0010
0000
,  // measure 4
1100
1001
0011
0110
,  // measure 5
1000
0000
0000
1000
0000
0000
1000
0000
0010
0000
0100
0000
0010
0000
0100
0000
,  // measure 6
0001
0000
0000
0001
0000
0000
0001
0000
0200
0000
0000
0000
0000
0000
0300
0000
,  // measure 7
0001
0000
0000
0001
0000
0000
0100
0000
0010
0000
0100
0000
0010
0000
1000
0000
,  // measure 8
0000
0000
0010
0000
0000
0100
0000
0000
0010
0000
0000
0000
0000
0000
0000
0000
,  // measure 9
1000
0000
0000
1000
0000
0000
1000
0000
0010
0000
0100
0000
0010
0000
0100
0000
,  // measure 10
0001
0000
0000
0001
0000
0000
0001
0000
0200
0000
0000
0000
0000
0000
0300
0000
,  // measure 11
0001
0000
0000
0001
0000
0000
0010
0000
0100
0000
0010
0000
0100
0000
1000
0000
,  // measure 12
0000
0000
0110
0000
0000
0010
0000
0000
1001
0000
0000
0000
0000
0000
0000
0000
,  // measure 13
0100
0001
0000
0001
0000
0000
0000
0000
0110
0000
0000
0000
0100
0000
0000
0000
,  // measure 14
0010
1000
0000
1000
0000
0000
0000
0000
0110
0000
0000
0000
0010
0000
0000
0000
,  // measure 15
0100
0001
0000
0001
0000
0000
0000
0000
0110
0000
0000
0000
0100
0000
0000
0000
,  // measure 16
0001
0000
0000
1000
0000
0010
1000
0000
0001
0000
0000
0000
1001
0000
0000
0000
,  // measure 17
0000
0000
0000
1000
0001
1000
0000
0000
,  // measure 18
0000
0001
0010
0001
0000
0000
0000
1000
,  // measure 19
0010
1000
0000
0000
0000
0001
0100
0001
,  // measure 20
0000
0000
0000
1100
0000
1010
0000
0100
,  // measure 21
0001
0010
0002
0000
0000
0000
0003
0000
,  // measure 22
0000
0000
1001
0001
,  // measure 23
1000
0000
0100
0010
0001
0000
0100
0000
,  // measure 24
0001
0000
0010
0100
1000
0000
0100
0000
,  // measure 25
1000
0000
0010
0100
0001
0000
0010
0000
,  // measure 26
0001
0000
0100
0010
0000
0000
0000
0000
,  // measure 27
1000
0000
0000
0100
0000
0000
0001
0000
,  // measure 28
0000
0000
0000
0000
0100
0000
0000
1000
,  // measure 29
0000
0001
0000
0000
,  // measure 30
1001
0000
0000
0010
0000
0000
0100
0000
,  // measure 31
0000
0000
0000
0000
1001
0000
0000
0100
,  // measure 32
0000
0010
0000
0000
,  // measure 33
1001
0000
0000
0110
0000
0100
0010
0000
,  // measure 34
0000
0000
0000
0000
1001
0000
0000
0110
,  // measure 35
0000
1001
0000
0000
,  // measure 36
1001
0000
0000
0110
0000
0000
1001
0000
,  // measure 37
0000
0000
0100
0000
0110
0000
0000
0001
,  // measure 38
0010
0100
2000
0000
0000
3001
0000
0000
,  // measure 39
0000
0000
0000
0000
0011
0000
0000
0110
,  // measure 40
0000
0000
0000
0000
1100
0000
0000
0000
0000
0001
0000
0001
0000
0000
0000
0000
,  // measure 41
0000
0000
0000
1000
0100
1000
0000
0000
,  // measure 42
0000
0001
0100
0001
0000
0000
0000
0100
,  // measure 43
0010
0100
0000
0000
0000
0010
1000
0010
,  // measure 44
0000
0000
0000
1000
0000
0001
0000
0010
,  // measure 45
0000
0100
0000
0000
0000
0000
0000
0000
,  // measure 46
0000
0001
0000
1000
0000
0000
0000
0000
0001
0000
0000
0000
1001
0000
0000
0000
,  // measure 47
0010
0000
0000
0010
0000
0000
0010
0000
0000
0000
0001
0000
1000
0000
0000
0000
,  // measure 48
1100
0100
0010
0011
,  // measure 49
1001
0000
0000
0000
,  // measure 50
0220
0000
0000
0330
,  // measure 51
2002
0000
3003
0000
,  // measure 52
0022
0000
0033
0000
,  // measure 53
2200
0000
3300
0001
,  // measure 54
0000
0000
0001
0000
0000
0000
0000
0001
0000
0000
0000
0000
,  // measure 55
0001
0000
0000
0000
0000
0001
0000
0000
0000
0000
0001
0000
,  // measure 56
0000
0000
0000
0000
,  // measure 57
1000
0001
1000
0001
0000
0010
0000
0100
,  // measure 58
0000
1000
0000
0010
0000
0100
0000
0010
,  // measure 59
0000
1000
0001
1000
0000
0010
0000
0100
,  // measure 60
0000
0010
0000
1000
0001
1000
0000
0100
,  // measure 61
1000
0010
0000
0100
0000
0010
0000
0100
,  // measure 62
0000
0010
0100
0001
0000
0010
0000
0100
,  // measure 63
0000
1000
0001
1000
0000
0100
0000
0010
,  // measure 64
0000
0001
0000
1000
0000
0001
0000
1000
,  // measure 65
0000
0010
0100
0010
0000
1000
0000
0100
,  // measure 66
0000
0010
0000
0001
0000
1000
0000
0001
,  // measure 67
0000
0000
0000
0100
0010
0000
2000
0000
,  // measure 68
0000
0000
0000
0000
0000
3001
0000
0000
0000
0000
1000
0000
0001
0000
0000
0000
,  // measure 69
0000
0000
0000
0000
0000
0000
0000
0000
0000
0000
0000
0000
2000
0000
0000
0000
0000
0000
0000
0000
0000
0000
0000
3002
,  // measure 70
0000
0000
0000
0000
0000
0000
0000
0000
0103
0010
0100
0000
0000
0000
0000
0000
;

//---------------dance-single - ----------------
#NOTES:
     dance-single:
     :
     Beginner:
     2:
     0.074,0.099,0.036,0.000,0.000: // measure 1
0001
0000
0001
0000
,  // measure 2
0001
0000
0000
0000
,  // measure 3
1000
0000
1000
0000
,  // measure 4
1000
0000
0000
0000
,  // measure 5
0010
0000
0000
0000
,  // measure 6
0100
0000
0000
0000
,  // measure 7
0010
0000
0000
0000
,  // measure 8
1000
0000
0000
0000
,  // measure 9
0001
0000
0000
0000
,  // measure 10
1000
0000
0000
0000
,  // measure 11
0010
0000
0000
0000
,  // measure 12
0010
0000
0000
0000
,  // measure 13
0110
0000
0000
0000
,  // measure 14
1000
0000
0000
0000
,  // measure 15
0001
0000
0000
0000
,  // measure 16
1000
0000
0000
0000
,  // measure 17
0000
0000
0000
1000
0000
0000
0000
0000
,  // measure 18
0000
1000
0000
0000
0000
0000
0000
1000
,  // measure 19
0000
0000
0000
0000
0000
0001
0000
0000
,  // measure 20
0000
0000
0000
0001
0000
0000
0000
0000
,  // measure 21
0000
0000
0000
0000
,  // measure 22
0000
0000
0000
1000
,  // measure 23
0000
1000
0000
1000
,  // measure 24
0000
0000
0000
0001
,  // measure 25
0000
0001
0000
0001
,  // measure 26
0000
0000
0000
0000
,  // measure 27
0010
0000
0000
0000
,  // measure 28
0000
0000
0100
0000
,  // measure 29
0000
0000
0000
0000
,  // measure 30
0010
0000
0000
0000
,  // measure 31
0000
0000
0001
0000
,  // measure 32
0000
0000
0000
0000
,  // measure 33
1000
0000
0000
0000
,  // measure 34
0000
0000
0001
0000
,  // measure 35
0000
0000
0000
0000
,  // measure 36
1000
0000
0000
0000
,  // measure 37
0000
0000
0001
0000
,  // measure 38
0000
0001
0000
0000
,  // measure 39
0000
0000
1001
0000
,  // measure 40
0000
0000
0000
0000
,  // measure 41
0000
0001
0000
0000
,  // measure 42
0010
0000
0000
0100
,  // measure 43
0000
0000
1000
0000
,  // measure 44
0000
0100
0000
0000
,  // measure 45
1000
0000
0000
0000
,  // measure 46
0001
0000
0000
0000
,  // measure 47
1000
0000
0000
0000
,  // measure 48
0001
0000
0000
0000
,  // measure 49
1001
0000
0000
0000
,  // measure 50
0000
0000
0000
0000
,  // measure 51
0000
0000
0000
0000
,  // measure 52
0000
0000
0000
0000
,  // measure 53
0000
0000
0000
1000
,  // measure 54
0000
0000
0000
0000
,  // measure 55
0000
0000
0000
0000
,  // measure 56
0000
0000
0000
0000
,  // measure 57
0001
0000
0000
0000
,  // measure 58
1000
0000
0001
0000
,  // measure 59
1000
0000
0000
0000
,  // measure 60
0100
0000
1000
0000
,  // measure 61
0100
0000
0000
0000
,  // measure 62
0010
0000
0001
0000
,  // measure 63
0010
0000
0000
0000
,  // measure 64
0001
0000
1000
0000
,  // measure 65
0001
0000
0000
0000
,  // measure 66
0100
0000
0010
0000
,  // measure 67
0000
0110
0000
0000
,  // measure 68
0000
0000
0000
0000
,  // measure 69
0000
0000
1001
0000
,  // measure 70
0000
0000
1000
0000
;
