#TITLE:SUN/光線;
#SUBTITLE:;
#ARTIST:Des-ROW・組スペシアルz;
#TITLETRANSLIT:SUN/KOUSEN;
#SUBTITLETRANSLIT:;
#ARTISTTRANSLIT:Des-ROW KUMI SPECIAL z;
#CREDIT:DigiMindAxel;
#BANNER:SUN-KOUSEN.png;
#BACKGROUND:SUN-KOUSEN-bg.png;
#LYRICSPATH:SUN-KOUSEN.lrc;
#CDTITLE:pop'n music.png;
#MUSIC:SUN-KOUSEN.mp3;
#OFFSET:-15.200;
#SAMPLESTART:67.890;
#SAMPLELENGTH:12.000;
#SELECTABLE:YES;
#BPMS:0.000=155.000;
#STOPS:;
#BGCHANGES:;

//---------------dance-single - ----------------
#NOTES:
     dance-single:
     :
     Easy:
     3:
     0.246,0.303,0.157,0.055,0.000:
0001
0000
1000
0000
,
0001
0000
0001
0000
,
1000
0000
0001
0000
,
1000
0000
1000
0000
,
0001
0000
0100
0000
,
0001
0000
0001
0000
,
1000
0000
0100
0000
,
1000
0000
1000
0000
,
0010
0100
0010
0100
,
0010
0000
0000
0000
,
1000
0010
1000
0010
,
1000
0000
0000
0000
,
0001
0010
0001
0010
,
0001
0000
0000
0000
,
2000
0000
0000
0000
,
3002
0000
0003
0000
,
1001
0000
1001
0000
,
0001
1000
0001
1000
,
0010
0000
0110
0000
,
1000
0001
1000
0001
,
0100
0000
0110
0000
,
0001
0100
0001
1000
,
0100
0000
0110
0000
,
1000
0010
0100
0000
,
1001
0000
1001
0000
,
1000
0010
1000
0001
,
0010
0000
0110
0000
,
0010
1000
0001
0010
,
0001
0000
1001
0000
,
0100
0001
1000
0100
,
2000
0000
0001
0000
,
3002
0000
1000
0000
,
1003
0000
0000
0000
,
1000
0000
0000
0000
,
1001
0000
0010
0000
,
0100
0000
1000
0000
,
0002
0000
0000
0000
,
0000
1003
0100
0010
,
0001
0000
0010
0000
,
0100
0000
1000
0000
,
0002
0000
0000
0000
,
0000
1003
0100
0010
,
0001
1001
0100
0010
,
0001
1000
0100
0001
,
0100
1001
0100
0010
,
0001
1000
0100
0001
,
0100
1001
0001
1001
,
0100
0010
0001
1000
,
0001
0001
1000
1000
,
0100
0010
0001
0000
,
0010
0100
1000
0001
,
0000
1001
1001
0000
,
0100
0010
0001
1000
,
0000
1001
1001
0001
,
1000
0100
0010
0001
,
0100
1000
0100
0001
,
0010
0100
1000
0001
,
0000
1001
1001
1000
,
0001
0010
0100
1000
,
0100
1000
0100
1000
,
0100
0010
0001
1000
,
0010
0100
0010
0100
,
0001
0010
0100
1000
,
0001
0010
0001
0010
,
0001
1000
0100
0010
,
0001
1000
0020
0000
,
0130
0000
0000
0000
,
0000
0001
0000
0000
1000
0000
0000
0000
,
0001
0000
0000
0000
,
1000
0000
0000
0000
,
0010
0000
0000
0000
;

//---------------dance-single - ----------------
#NOTES:
     dance-single:
     :
     Medium:
     6:
     0.401,0.468,0.307,0.126,0.000:
1000
1000
0001
0001
,
0200
0000
0310
0010
,
1000
1000
0002
0000
,
0103
0000
0001
0001
,
1000
1000
0010
0100
,
0020
0000
1030
1000
,
0001
0001
0100
0010
,
0200
0000
0310
0000
,
1010
0000
0001
0100
0001
0100
0001
0100
,
0001
0000
0000
1000
0000
0000
0000
0000
,
0101
0000
1000
0010
1000
0010
1000
0010
,
1000
0000
0000
0001
0000
0000
0000
0000
,
0011
0000
1000
0100
1000
0100
1000
0100
,
1000
0000
0000
0001
0000
0000
1000
0000
,
0002
0000
0000
0100
0000
0000
1000
0000
,
2000
0000
3003
0000
,
1100
0100
1001
0001
,
1000
0100
0001
0000
0100
1000
0001
0000
,
0101
0100
1001
1000
,
0001
0100
1000
0000
0100
0001
1000
0000
,
1010
0010
1001
0001
,
1000
0010
0001
0000
0010
1000
0001
0000
,
0120
0000
0000
1000
,
1030
0001
0010
0000
,
0011
0010
1001
1000
,
0001
0010
1000
0000
0010
0001
1000
0000
,
1010
0010
1001
0001
,
1000
0010
0001
0000
0010
1000
0001
0000
,
0101
0100
1001
1000
,
0001
0100
1000
0000
0100
0001
1000
0000
,
0210
0000
0000
0001
,
0301
1000
0100
0000
,
1000
1000
1000
1000
,
0001
0001
0001
0000
,
1001
0000
0100
0000
,
0010
0000
0001
0000
,
2000
0000
0001
0000
,
3001
0001
0010
0100
,
1000
0000
0100
0000
,
0010
0000
0001
0000
,
2000
0000
0001
0000
,
3001
0001
0010
0100
,
1100
0000
1100
0000
0010
0001
0010
0001
,
0010
0001
1000
0001
1000
0001
1000
0000
,
0011
0000
0011
0000
0100
1000
0100
1000
,
0100
1000
0001
1000
0001
1000
0001
0000
,
0101
0000
0101
0000
0010
1000
0010
1000
,
0010
1000
0001
0010
0001
0010
0001
0000
,
1010
0000
1010
0000
0100
0001
0100
0001
,
0100
0001
1000
0100
1000
0100
1000
0000
,
0100
1000
0010
0000
0100
0010
0100
0000
,
0100
1001
1001
1001
,
0010
0001
0100
0000
0010
0100
0010
0000
,
0010
1001
1001
1001
,
0100
0001
0010
0000
0100
1000
0100
0000
,
1000
0010
0100
0000
0001
0010
0001
0000
,
0010
0001
0100
0000
0010
0100
0010
0000
,
0010
1001
1001
1001
,
0110
0000
0100
1000
0100
1000
0001
0100
,
0002
1000
1000
1003
,
0110
0000
0100
0001
0100
0001
1000
0100
,
2000
0001
0001
3001
,
0110
0000
0010
1000
0010
1000
0001
0010
,
0002
1000
1000
1003
,
0110
0000
0010
0001
0010
0001
1000
0010
,
2000
0001
0001
3001
,
1000
0010
0000
0000
0000
0000
0000
0000
,
0000
1000
0000
0001
0010
0000
0000
0000
,
0002
0000
1000
0000
,
2003
0000
0000
0000
,
3001
0000
0000
0000
;

//---------------dance-single - ----------------
#NOTES:
     dance-single:
     :
     Hard:
     7:
     0.500,0.468,0.260,0.189,0.024:
0001
0010
1000
0010
,
0002
0000
1003
0001
,
1000
0100
0001
0100
,
2000
0000
3001
1000
,
0001
0100
1000
0100
,
0002
0000
1003
0001
,
1000
0010
0001
0010
,
1000
0110
0100
0110
,
1001
0000
1000
0100
1000
0100
1000
0001
,
0100
0000
0001
0100
0000
0001
1000
0000
,
1001
0000
0001
0100
0001
0100
0001
1000
,
0100
0000
1000
0100
0000
1000
0001
0000
,
1001
0000
0001
0010
0100
1000
0001
0100
,
0001
0000
0100
0001
0000
1000
0001
0000
,
1000
0000
1000
0010
0000
0100
0001
0000
,
2000
0000
0000
0000
3001
0010
0100
1000
,
0001
0001
0100
0000
0010
1000
1010
0000
,
1000
1000
0001
0001
0010
0100
1000
0000
,
0001
0001
0100
0000
0010
1000
1010
0000
,
1000
1000
0001
0001
0010
0100
1000
0000
,
0001
0100
0001
2000
0000
0000
3100
0000
,
1000
0100
1000
0001
0000
0100
0001
1000
,
0020
1000
1030
1001
,
0200
0001
0301
0000
,
1000
1000
0010
0000
0100
0001
0101
0000
,
0001
0001
1000
1000
0100
0010
0001
0000
,
1000
1000
0010
0000
0100
0001
0101
0000
,
0001
0001
1000
1000
0100
0010
0001
0000
,
1000
0010
1000
0002
0000
0000
1003
0000
,
0001
0100
0001
1000
0000
0010
1000
0001
,
0200
0001
0301
1001
,
0020
1000
1030
0001
,
1000
0100
0001
0100
1000
0000
1000
0000
,
0001
0010
1000
0010
0001
0000
0001
0000
,
1002
0000
0203
0000
,
0320
0000
2030
0000
,
3002
0000
0000
0000
1000
0000
0000
1003
,
0000
0001
1000
0010
1000
0010
1000
0000
,
2001
0000
3020
0000
,
0230
0000
0302
0000
,
2003
0000
0000
0000
0001
0000
0000
3001
,
0000
1000
0001
0100
0001
0100
0001
0000
,
1001
0000
1001
0000
1000
0100
0010
0001
,
0100
1000
0100
0001
0010
0100
1000
0010
,
0100
0000
1001
0000
0001
0010
0100
1000
,
0010
0001
0010
1000
0100
0010
0001
0000
,
1001
0000
1001
0000
0001
0010
0100
1000
,
0010
0001
0010
1000
0100
0010
0001
0100
,
0010
0110
0000
1000
0000
1001
0000
0001
,
0000
0000
0110
0000
0000
0000
1000
0000
0001
1000
0001
0000
1000
0000
1000
0000
,
0001
0010
0100
1000
0001
0001
1000
0010
,
0100
0110
1001
0110
,
1000
0100
0010
0001
1000
1000
0001
0100
,
0010
0110
1001
0110
,
0001
0010
0100
1000
0001
0001
1000
0100
,
0001
0100
1000
0001
0010
0100
1000
0000
,
1000
0100
0010
0001
1000
1000
0001
0100
,
0010
0110
1001
0110
,
0002
0000
1000
1000
1003
0100
0010
0100
,
1000
0010
0110
0001
,
2000
0000
0001
0001
3001
0010
0100
0010
,
0001
0100
0110
1000
,
0002
0000
1000
1000
1003
0100
0010
0100
,
1000
0010
0110
0001
,
2000
0000
0001
0001
3001
0010
0100
0010
,
0001
0000
0010
0100
1000
0100
0001
0100
,
1000
0000
0001
0000
0000
0100
0001
0000
0000
1000
0100
0000
1000
0000
1000
0000
,
0001
0000
0100
0000
0001
0000
1000
0000
0100
0000
0000
0010
0100
0000
1000
0000
,
0001
0000
0001
0000
0000
0100
0001
0000
1000
0000
0100
0000
1000
0000
0000
0100
,
1000
0001
0100
0100
0100
0010
0010
0010
,
1000
0000
0000
0000
;

//---------------dance-single - ----------------
#NOTES:
     dance-single:
     :
     Challenge:
     8:
     0.634,0.688,0.417,0.157,0.271: // measure 1
1000
0100
0010
0001
1000
0000
1000
0000
,  // measure 2
1000
0001
0100
0000
0001
0100
0001
0000
,  // measure 3
0001
0010
0100
1000
0001
0100
0001
0000
,  // measure 4
0001
1000
0010
0000
1000
0010
1000
0000
,  // measure 5
1000
0100
0010
0001
1000
0000
1000
0000
,  // measure 6
1000
0010
0100
0000
0010
0100
0001
0000
,  // measure 7
0001
0010
0100
1000
0001
1000
0001
1000
,  // measure 8
0001
0100
0010
0000
0010
0000
0110
0000
,  // measure 9
1000
0100
0010
0001
0010
0100
0010
0001
,  // measure 10
0100
0010
1000
1000
0000
0001
0100
0000
,  // measure 11
0001
0010
0100
1000
0100
0010
0100
1000
,  // measure 12
0010
0100
0001
0001
0000
1000
0010
0000
,  // measure 13
1000
0100
0010
0001
0010
0100
0010
0001
,  // measure 14
0100
0010
1000
1000
0000
0001
0100
0000
,  // measure 15
0001
0100
1000
0200
0000
0000
0301
1000
,  // measure 16
0020
0000
0000
0000
0000
0000
0030
0000
1000
0001
1000
0001
1000
0001
1000
0000
,  // measure 17
0010
1000
1010
0001
0100
0010
0110
0000
,  // measure 18
1000
0000
0001
0000
0100
0000
0010
1000
0000
1000
0010
0000
0110
0000
0000
0000
,  // measure 19
0100
0001
0101
1000
0010
0100
0110
0000
,  // measure 20
0001
0000
1000
0000
0010
0000
0100
0001
0000
0001
0100
0000
0110
0000
0000
0000
,  // measure 21
1100
0000
0000
1000
0000
0000
0001
0000
0000
0001
0000
0000
0010
0000
0001
0000
0010
0000
0001
0000
0100
0000
0010
0000
,  // measure 22
0100
0010
1000
0100
1000
0100
0010
0001
0100
0010
1000
0010
,  // measure 23
0200
0000
0001
0000
0301
1000
1000
1000
,  // measure 24
0020
0000
1000
0000
1030
0001
0001
0000
,  // measure 25
0100
0000
0001
0000
0101
0000
1000
0000
0100
1000
0100
0000
1100
0000
0000
0000
,  // measure 26
0010
0000
0001
0000
1000
0000
0010
1000
0000
1000
0100
0000
0110
0000
0000
0000
,  // measure 27
1000
0000
0010
0000
1010
0000
0001
0000
0010
0001
0010
0000
0011
0000
0000
0000
,  // measure 28
0100
0000
1000
0000
0001
0000
0100
0001
0000
0001
0010
0000
0110
0000
0000
0000
,  // measure 29
0001
0100
0001
0100
0010
1000
0010
1000
0100
0010
0001
0100
,  // measure 30
0010
1000
0010
0100
0001
0010
0100
1000
0001
1000
0001
1000
,  // measure 31
0020
0000
1000
0000
1030
0001
0001
0001
,  // measure 32
0200
0000
0001
0000
0301
1000
1000
1000
,  // measure 33
0001
0000
0000
0100
0001
0100
0001
1000
0100
1000
0000
0000
,  // measure 34
1000
0100
1000
0100
0010
0001
0010
0000
0000
0010
0000
0000
,  // measure 35
0012
0103
1020
1030
,  // measure 36
0210
0301
2100
3001
,  // measure 37
0102
0000
1000
0000
0103
0000
0000
1001
,  // measure 38
0000
1000
0001
0010
0100
1000
0001
0000
,  // measure 39
2100
3010
0201
0301
,  // measure 40
0120
1030
0012
1003
,  // measure 41
2010
0000
0001
0000
3010
0000
0000
1001
,  // measure 42
0000
0001
1000
0100
0010
0001
1000
0000
,  // measure 43
1001
0000
1000
1000
0010
0010
0100
0100
,  // measure 44
0001
0010
1000
0010
0001
0100
0010
1000
,  // measure 45
1001
0000
0001
0001
0010
0010
0100
0100
,  // measure 46
1000
0010
0001
0010
1000
0010
0100
0001
,  // measure 47
1001
0000
1000
1000
0001
0001
1000
0100
,  // measure 48
0001
0100
1000
0010
0010
0100
0100
0001
,  // measure 49
1000
1000
0100
0100
0001
0001
0100
0100
,  // measure 50
1000
0000
1000
0000
0010
0000
0010
0000
0100
0010
0100
0000
0001
0000
0001
0000
,  // measure 51
1000
0100
0010
0001
0100
1000
0100
0010
,  // measure 52
1000
1100
0101
1100
,  // measure 53
0001
0010
0100
1000
0010
0001
0010
0100
,  // measure 54
0001
0101
1100
0101
,  // measure 55
1000
1000
0001
0010
0100
1000
0001
0010
,  // measure 56
1000
0010
0001
0100
0010
1000
1000
0000
,  // measure 57
0001
0001
1000
0100
0010
0001
1000
0100
,  // measure 58
0001
1100
0101
1100
,  // measure 59
0102
0000
1000
1000
1003
0100
0010
0001
,  // measure 60
1000
1010
0011
1001
,  // measure 61
2100
0000
0001
0001
3001
0010
0100
1000
,  // measure 62
0001
0101
1100
1001
,  // measure 63
1002
0000
0100
0100
0103
0001
0010
1000
,  // measure 64
0010
0001
1000
0000
1001
0000
0110
0000
,  // measure 65
2001
0000
0010
0010
3010
1000
0100
0001
,  // measure 66
0100
1000
0001
0000
1001
0000
0110
0000
,  // measure 67
0100
0000
0110
0000
0000
0001
0100
0000
0000
0100
0010
0000
1000
0000
1000
0000
,  // measure 68
0010
0100
0000
0001
1000
0001
1000
0000
0010
0000
0000
1000
0010
0000
0100
0010
,  // measure 69
0100
0010
0100
0000
0000
0001
0000
0100
0001
0100
0001
0000
1000
0000
0100
1000
,  // measure 70
0100
1000
0000
0001
0100
0001
0000
1000
0000
0100
1000
0000
0010
0100
0010
0100
,  // measure 71
0010
0000
0000
0000
;

//---------------dance-single - ----------------
#NOTES:
     dance-single:
     :
     Beginner:
     1:
     0.083,0.130,0.126,0.000,0.000:
1000
0000
0000
0000
,
0000
0000
0000
0000
,
0001
0000
0000
0000
,
0000
0000
0000
0000
,
1000
0000
0000
0000
,
0000
0000
0000
0000
,
1000
0000
0000
0000
,
0000
0000
0000
0000
,
1001
0000
0000
0000
,
0001
0000
0000
0000
,
0001
0000
0000
0000
,
0001
0000
0000
0000
,
1000
0000
0000
0000
,
1000
0000
0000
0000
,
1000
0000
0000
0000
,
1000
0000
0000
0000
,
1001
0000
0000
0000
,
0010
0000
0000
0000
,
0110
0000
0000
0000
,
0100
0000
0000
0000
,
0110
0000
0000
0000
,
0001
0000
0000
0000
,
1001
0000
0000
0000
,
1000
0000
0000
0000
,
1000
0000
0000
0000
,
1001
0000
0000
0000
,
0010
0000
0000
0000
,
0110
0000
0000
0000
,
1000
0000
0000
0000
,
1001
0000
0000
0000
,
0001
0000
0000
0000
,
0001
0000
0000
0000
,
1000
0000
0000
0000
,
0000
0000
0000
0000
,
1001
0000
0000
0000
,
0000
0000
0000
0000
,
1000
0000
0000
0000
,
0000
0000
0000
0000
,
0001
0000
0000
0000
,
0000
0000
0000
0000
,
1000
0000
0000
0000
,
0000
0000
0000
0000
,
0110
0000
0000
0000
,
0001
0000
0000
0000
,
0010
0000
0000
0000
,
0100
0000
0000
0000
,
1001
0000
0000
0000
,
1000
0000
0000
0000
,
0100
0000
0000
0000
,
0010
0000
0000
0000
,
1001
0000
0000
0000
,
0001
0000
0000
0000
,
1001
0000
0000
0000
,
1000
0000
0000
0000
,
0110
0000
0000
0000
,
0001
0000
0000
0000
,
0110
0000
0000
0000
,
1000
0000
0000
0000
,
1001
0000
0000
0000
,
0001
0000
0000
0000
,
1000
0000
0000
0000
,
0100
0000
0000
0000
,
0010
0000
0000
0000
,
0001
0000
0000
0000
,
0100
0000
0000
0000
,
0010
0000
0000
0000
,
1000
0000
0000
0000
;
