#TITLE:スペースカーニバル;
#SUBTITLE:;
#ARTIST:shooting star;
#TITLETRANSLIT:SPACE CARNIVAL;
#SUBTITLETRANSLIT:;
#ARTISTTRANSLIT:;
#CREDIT:DigiMindAxel;
#BANNER:SPACE CARNIVAL.png;
#BACKGROUND:SPACE CARNIVAL-bg.png;
#LYRICSPATH:SPACE CARNIVAL.lrc;
#CDTITLE:jubeat.png;
#MUSIC:SPACE CARNIVAL.mp3;
#OFFSET:-6.160;
#SAMPLESTART:40.100;
#SAMPLELENGTH:12.000;
#SELECTABLE:YES;
#BPMS:0.000=160.000;
#STOPS:;
#BGCHANGES:;

//---------------dance-single - ----------------
#NOTES:
     dance-single:
     :
     Easy:
     4:
     0.316,0.303,0.348,0.098,0.000: // measure 1
1000
0000
0000
0000
,  // measure 2
0001
0000
0000
0000
,  // measure 3
1000
0000
0000
0000
0000
0000
0000
0010
,  // measure 4
0000
0000
0000
0000
0000
0000
0000
0110
,  // measure 5
0000
0000
0000
0000
0000
0000
0000
0100
,  // measure 6
0000
0000
0000
0000
0000
0000
0000
1001
,  // measure 7
0000
0000
0000
0000
,  // measure 8
1000
0001
1000
0001
,  // measure 9
0010
0100
0010
0001
,  // measure 10
1000
0001
1000
0001
,  // measure 11
1000
0100
0010
0100
,  // measure 12
1000
0010
0100
0001
,  // measure 13
0010
0100
0010
0001
,  // measure 14
1000
0010
0100
0001
,  // measure 15
0010
0100
1000
0000
,  // measure 16
1001
0010
0001
0010
,  // measure 17
0001
0010
0100
1000
,  // measure 18
0001
0010
0001
0010
,  // measure 19
0001
1000
0100
1000
,  // measure 20
1001
0100
1000
0100
,  // measure 21
1000
0100
0010
0001
,  // measure 22
2000
0000
0000
0000
,  // measure 23
3001
0000
0000
0000
0000
0000
0000
1001
,  // measure 24
0000
0001
0000
1000
0000
0000
0000
1001
,  // measure 25
0000
1000
0000
0001
0000
0000
0000
1001
,  // measure 26
0000
1000
0001
0200
,  // measure 27
0000
0000
0000
0301
0000
0000
0000
0110
,  // measure 28
0000
1000
0000
0001
0000
0000
0000
0110
,  // measure 29
0000
0001
0000
1000
0000
0000
0000
1001
,  // measure 30
0000
0000
0001
0000
1000
0000
0010
0200
,  // measure 31
0000
0000
0000
0000
0300
0000
0000
0110
,  // measure 32
0000
1000
0000
0001
0000
0000
0000
0110
,  // measure 33
0000
0001
0000
1000
0000
0000
0000
1001
,  // measure 34
0000
0001
1000
0020
,  // measure 35
0000
0000
0000
0130
0000
0000
0000
1001
,  // measure 36
0000
0001
0000
1000
0000
0000
0000
1001
,  // measure 37
0000
1000
0000
0001
0000
0000
0000
1001
,  // measure 38
0000
0000
1000
0000
0001
0000
0100
0020
,  // measure 39
0000
0000
0000
0000
0000
0000
0000
0100
,  // measure 40
0000
0100
0000
0130
0000
0000
0000
1001
,  // measure 41
0000
0000
0010
0000
0010
0000
0000
0110
,  // measure 42
0000
0000
0100
0000
0100
0000
0000
0110
,  // measure 43
0000
0000
0100
0000
0100
0000
0000
1001
,  // measure 44
0000
0000
0010
0000
0010
0000
0000
0110
,  // measure 45
0000
0000
1001
0000
1000
0000
0000
0110
,  // measure 46
0000
0000
1001
0000
0001
0000
0000
1001
,  // measure 47
0000
0000
1001
0000
1000
0000
0000
1001
,  // measure 48
0000
1000
0100
0010
,  // measure 49
0000
0000
0001
0000
1001
0000
0000
0010
,  // measure 50
0000
0001
0000
0010
0000
0001
0000
1000
,  // measure 51
0000
0100
0000
1000
0000
0100
0000
1001
,  // measure 52
0000
0000
1000
0000
0001
0000
0100
0002
,  // measure 53
0000
0000
0000
1003
0000
0000
0000
1001
,  // measure 54
0000
0100
0000
1000
0000
0100
0000
1000
,  // measure 55
0000
0001
0000
0010
0000
0001
0000
1001
,  // measure 56
0000
0000
0001
0000
1000
0000
0010
2000
,  // measure 57
0000
0000
0000
0000
3000
0000
0000
1001
,  // measure 58
0000
0010
0000
0001
0000
0010
0000
0001
,  // measure 59
0000
1000
0000
0010
0000
1000
0000
1001
,  // measure 60
0000
0000
0001
0000
1000
0000
0100
2000
,  // measure 61
0000
0000
0000
3001
0000
0000
0000
1001
,  // measure 62
0000
0100
0000
1000
0000
0100
0000
1000
,  // measure 63
0000
0001
0000
0100
0000
0001
0000
1001
,  // measure 64
0000
0000
1000
0000
0001
0000
0010
0002
,  // measure 65
0000
0000
0000
0000
0000
0000
0000
2003
,  // measure 66
0000
0000
0000
0000
0000
0000
0000
3002
,  // measure 67
0000
0000
0000
0000
0000
0003
0000
0110
,  // measure 68
0000
0110
0000
0110
0000
0000
0000
1001
;

//---------------dance-single - ----------------
#NOTES:
     dance-single:
     :
     Hard:
     8:
     0.638,0.546,0.581,0.304,0.004: // measure 1
2000
0000
0010
0000
,  // measure 2
3020
0000
1000
0000
,  // measure 3
0230
0000
0000
0000
0001
0000
0000
0302
,  // measure 4
0000
1003
0100
0010
0001
1000
0010
2000
,  // measure 5
0000
3001
0010
0100
1000
0001
0100
0002
,  // measure 6
0000
1003
0100
0010
0001
1000
0010
0110
,  // measure 7
0000
0110
0000
0110
0000
1000
1000
0002
,  // measure 8
0000
0103
0001
0010
0100
1000
0000
0102
,  // measure 9
0000
0000
1000
0000
1000
1003
0000
1001
,  // measure 10
0000
0100
1000
0100
0010
0001
0000
2100
,  // measure 11
0000
0000
3001
0100
0001
0010
0100
1001
,  // measure 12
0000
0100
0010
0100
1000
0100
0010
0002
,  // measure 13
0000
0000
1000
0000
1000
1003
0000
1001
,  // measure 14
0000
0010
0100
0001
1000
1000
0000
1001
,  // measure 15
0000
0000
0100
0000
0010
0000
1000
0000
0001
0000
0001
0000
0010
0001
0010
0000
,  // measure 16
1001
0011
0101
0011
,  // measure 17
1002
0010
1000
0013
,  // measure 18
1000
0100
0010
0001
1000
0010
0100
0010
,  // measure 19
1000
0100
0010
0001
1000
0010
0100
0001
,  // measure 20
1001
1100
1010
1100
,  // measure 21
2001
0100
0001
3100
,  // measure 22
0001
0010
0100
1000
0001
0100
0010
0100
,  // measure 23
0101
0000
1000
1100
0000
0001
0001
1000
,  // measure 24
0000
1000
0010
0100
0000
0001
0010
0200
,  // measure 25
0000
0310
0000
1100
0000
0011
0000
0002
,  // measure 26
0000
0013
0001
1000
0100
0010
0001
2000
,  // measure 27
0000
3001
0000
0110
0000
1000
1000
0001
,  // measure 28
0000
0001
0100
0010
0000
1000
0100
0020
,  // measure 29
0000
0130
0000
0011
0000
1100
0000
2000
,  // measure 30
0000
3100
1000
0001
0010
0100
1000
0002
,  // measure 31
0000
1003
0100
0010
0001
1000
1000
0001
,  // measure 32
0000
0001
0010
0100
0000
1000
0010
0200
,  // measure 33
0000
0310
0000
1010
0000
0101
0000
0002
,  // measure 34
0000
0103
0001
0010
0100
1000
0001
0200
,  // measure 35
0000
0310
0000
1001
0000
0001
0001
1000
,  // measure 36
0000
1000
0100
0010
0000
0001
0100
0020
,  // measure 37
0000
0130
0000
0101
0000
1010
0000
2000
,  // measure 38
0000
3010
1000
0100
0010
0001
1000
0002
,  // measure 39
0000
1003
0100
0010
0001
0010
0100
1001
,  // measure 40
0000
0110
0000
1001
0000
0000
0000
1002
,  // measure 41
0000
0000
1003
0010
0100
0010
1000
2001
,  // measure 42
0000
0000
3001
0100
0010
0100
0001
1000
,  // measure 43
0100
0001
0100
1000
0001
0010
0001
2001
,  // measure 44
0000
3001
0010
0001
0100
0010
1000
0001
,  // measure 45
0010
1000
0010
0001
1000
0100
1000
1002
,  // measure 46
0000
1003
0100
1000
0010
0100
0001
0010
,  // measure 47
0001
1000
0100
0001
0100
1000
0001
1001
,  // measure 48
0000
1000
0001
0010
0100
1000
0001
1001
,  // measure 49
0000
0001
1000
0010
0110
0000
0000
1001
,  // measure 50
0000
1000
0100
0001
0100
1000
0001
0200
,  // measure 51
0000
0301
0000
0200
0000
1300
0000
1001
,  // measure 52
0000
0001
0010
1000
0010
0001
1000
0200
,  // measure 53
0000
1300
0000
0010
0001
0010
0100
1001
,  // measure 54
0000
0001
0010
1000
0010
0001
1000
0200
,  // measure 55
0000
1300
0000
0020
0000
0031
0000
1001
,  // measure 56
0000
1000
0100
0001
0100
1000
0001
0020
,  // measure 57
0000
0031
0010
0100
1000
0100
0010
1001
,  // measure 58
0000
1000
0010
0001
0010
0100
0001
1001
,  // measure 59
0000
1100
0000
0011
0000
1001
0000
1001
,  // measure 60
0000
0001
0100
1000
0100
0010
1000
1001
,  // measure 61
0000
0001
0010
0100
1000
0001
1000
1001
,  // measure 62
0000
1000
0100
0001
0100
0010
0001
1001
,  // measure 63
0000
1100
0000
0011
0000
1001
0000
1001
,  // measure 64
0000
0001
0010
1000
0010
0100
1000
1001
,  // measure 65
0000
1000
0100
0010
0001
1000
0100
0110
,  // measure 66
0000
0001
0010
0100
1000
0001
0010
0110
,  // measure 67
0000
1000
0100
0010
0001
0010
0100
1001
,  // measure 68
0000
0110
0000
1001
0000
0100
0100
1001
;

//---------------dance-single - ----------------
#NOTES:
     dance-single:
     :
     Medium:
     6:
     0.499,0.485,0.607,0.268,0.000: // measure 1
0002
0000
0000
0000
,  // measure 2
2003
0000
0000
0000
,  // measure 3
3020
0000
0000
0000
0000
0030
0000
2002
,  // measure 4
0000
0000
0000
0000
0000
3003
0000
2200
,  // measure 5
0000
0000
0000
0000
3300
0000
0000
0022
,  // measure 6
0000
0000
0000
0000
0033
0000
0000
1001
,  // measure 7
0000
1001
0000
1001
0000
0000
0000
1001
,  // measure 8
0000
0001
1000
0000
1000
0010
0000
0200
,  // measure 9
0000
0000
0001
0000
0301
0000
0000
1001
,  // measure 10
0000
1000
0001
0000
0001
0100
0000
0020
,  // measure 11
0000
0000
1000
0000
1030
0000
0000
1001
,  // measure 12
0000
0001
1000
0000
1000
0100
0000
0020
,  // measure 13
0000
0000
0001
0000
0031
0000
0000
1001
,  // measure 14
0000
1000
0001
0000
0001
0010
0000
0200
,  // measure 15
0000
1000
1300
1100
,  // measure 16
1001
0200
0320
0032
,  // measure 17
2003
0002
0000
3003
,  // measure 18
1000
0100
1000
0100
0001
0000
1001
0000
,  // measure 19
0001
0010
0001
0010
1000
0000
1001
0000
,  // measure 20
1001
0020
0230
2300
,  // measure 21
3002
2000
0000
3003
,  // measure 22
0001
0010
0001
0010
0001
1000
0100
1000
,  // measure 23
0001
0000
1000
0001
0000
0000
0000
0011
,  // measure 24
0000
1001
0000
1001
0000
0100
1000
0100
,  // measure 25
0000
1100
0000
1001
0000
1001
0000
1000
,  // measure 26
0000
0001
0100
0001
0100
0001
1000
0100
,  // measure 27
0000
1000
0000
0001
0000
1000
0000
1100
,  // measure 28
0000
1001
0000
1001
0000
0010
0001
0010
,  // measure 29
0000
0011
0000
1001
0000
1001
0000
0001
,  // measure 30
0000
1000
0010
1000
0010
1000
0001
0020
,  // measure 31
0000
0000
0000
0000
0030
0001
1000
0010
,  // measure 32
0000
1001
0000
1001
0000
0100
0001
0100
,  // measure 33
0000
0101
0000
1001
0000
1001
0000
1000
,  // measure 34
0000
0001
0100
0001
0100
0001
1000
0100
,  // measure 35
0000
1000
0000
0001
0000
1000
0100
0001
,  // measure 36
0000
1001
0000
1001
0000
0010
1000
0010
,  // measure 37
1000
0010
0000
1010
0000
1001
0000
1001
,  // measure 38
0000
0001
0010
0001
0010
0001
1000
0020
,  // measure 39
0000
0000
1000
0000
1030
0000
0000
1001
,  // measure 40
0000
1001
0000
1001
0000
0000
0000
0011
,  // measure 41
0000
0000
0001
0000
0001
0000
1000
1100
,  // measure 42
0000
0000
1000
0000
1000
0000
0001
0011
,  // measure 43
0000
0000
0001
0000
0001
0000
1000
1010
,  // measure 44
0000
0000
1000
0000
1000
0000
0001
0101
,  // measure 45
0000
0000
0001
0000
0001
0000
1000
1010
,  // measure 46
0000
0000
1000
0000
1000
0000
0010
0110
,  // measure 47
0000
0000
0001
0000
0001
0000
0100
0110
,  // measure 48
0000
1000
0100
0010
0002
0000
1000
1003
,  // measure 49
0000
0001
0010
0100
1000
0000
0000
1001
,  // measure 50
0000
0011
0000
1001
0000
0001
1000
0010
,  // measure 51
0000
0010
0000
0100
0000
0100
0000
1001
,  // measure 52
0000
1000
0100
0010
0001
1000
0100
1000
,  // measure 53
0000
0001
0000
0010
0000
0100
0000
1001
,  // measure 54
0000
1100
0000
1001
0000
1000
0001
0100
,  // measure 55
0000
0100
0000
0010
0000
0010
0000
1001
,  // measure 56
0000
0001
0010
0100
1000
0001
0010
0002
,  // measure 57
0000
0000
0000
0000
0000
1003
0000
1001
,  // measure 58
0000
0011
0000
1001
0000
0001
1000
0010
,  // measure 59
0000
0010
0000
0100
0000
0100
0000
1001
,  // measure 60
0000
1000
0100
0010
0100
1000
0010
0100
,  // measure 61
0000
0001
0000
0010
0000
0001
0000
1001
,  // measure 62
0000
1100
0000
1001
0000
1000
0001
0100
,  // measure 63
0000
0100
0000
0010
0000
0010
0000
1001
,  // measure 64
0000
0001
0010
0100
0010
0001
0100
0020
,  // measure 65
0000
1000
1000
0000
1030
0000
0010
0200
,  // measure 66
0000
0001
0001
0000
0301
0000
0100
0020
,  // measure 67
0000
1000
1000
0000
1030
0000
0000
0110
,  // measure 68
0000
0110
0000
0110
0000
0001
1000
1001
;

//---------------dance-single - ----------------
#NOTES:
     dance-single:
     :
     Beginner:
     1:
     0.074,0.121,0.027,0.000,0.000: // measure 1
0000
0000
0000
0000
,  // measure 2
0000
0000
0000
0000
,  // measure 3
0000
0000
0000
0000
,  // measure 4
0000
0000
0000
0000
,  // measure 5
0000
0000
0000
0000
,  // measure 6
0000
0000
0000
0000
,  // measure 7
0000
0000
0000
0000
,  // measure 8
1000
0000
0000
0000
,  // measure 9
0001
0000
0000
0000
,  // measure 10
1000
0000
0000
0000
,  // measure 11
0001
0000
0000
0000
,  // measure 12
0001
0000
0000
0000
,  // measure 13
1000
0000
0000
0000
,  // measure 14
0001
0000
0000
0000
,  // measure 15
1000
0000
0000
0000
,  // measure 16
1000
0000
0000
0000
,  // measure 17
0100
0000
0000
0000
,  // measure 18
1000
0000
0000
0000
,  // measure 19
0001
0000
0000
0000
,  // measure 20
0001
0000
0000
0000
,  // measure 21
0010
0000
0000
0000
,  // measure 22
0001
0000
0000
0000
,  // measure 23
1001
0000
0000
0000
0000
0000
0000
1000
,  // measure 24
0000
0000
0000
0000
,  // measure 25
0000
0000
0000
0000
0000
0000
0000
1000
,  // measure 26
0000
0000
0000
0000
,  // measure 27
0000
0000
0000
0000
0000
0000
0000
0001
,  // measure 28
0000
0000
0000
0000
,  // measure 29
0000
0000
0000
0000
0000
0000
0000
0001
,  // measure 30
0000
0000
0000
0000
,  // measure 31
0000
0000
0000
0000
0000
0000
0000
1000
,  // measure 32
0000
0000
0000
0000
0000
0000
0000
1000
,  // measure 33
0000
0000
0000
0000
0000
0000
0000
0001
,  // measure 34
0000
0000
0000
0000
0000
0000
0000
0001
,  // measure 35
0000
0000
0000
0000
0000
0000
0000
0100
,  // measure 36
0000
0000
0000
0000
0000
0000
0000
0010
,  // measure 37
0000
0000
0000
0000
0000
0000
0000
0100
,  // measure 38
0000
0000
0000
0000
0000
0000
0000
1001
,  // measure 39
0000
0000
0000
0000
,  // measure 40
0000
0000
0000
0000
0000
0000
0000
0001
,  // measure 41
0000
0000
0000
0000
0000
0000
0000
1000
,  // measure 42
0000
0000
0000
0000
0000
0000
0000
0001
,  // measure 43
0000
0000
0000
0000
0000
0000
0000
1000
,  // measure 44
0000
0000
0000
0000
0000
0000
0000
0100
,  // measure 45
0000
0000
0000
0000
0000
0000
0000
0010
,  // measure 46
0000
0000
0000
0000
0000
0000
0000
0001
,  // measure 47
0000
0000
0000
0000
0000
0000
0000
0010
,  // measure 48
0000
0000
0000
0000
0000
0000
0000
0100
,  // measure 49
0000
0000
0000
0000
0000
0000
0000
1000
,  // measure 50
0000
0000
0000
0000
0000
0000
0000
1000
,  // measure 51
0000
0000
0000
0000
0000
0000
0000
0001
,  // measure 52
0000
0000
0000
0000
0000
0000
0000
0001
,  // measure 53
0000
0000
0000
0000
0000
0000
0000
1000
,  // measure 54
0000
0000
0000
0000
0000
0000
0000
0100
,  // measure 55
0000
0000
0000
0000
0000
0000
0000
0010
,  // measure 56
0000
0000
0000
0000
0000
0000
0000
0001
,  // measure 57
0000
0000
0000
0000
0000
0000
0000
1000
,  // measure 58
0000
0000
0000
0000
0000
0000
0000
0001
,  // measure 59
0000
0000
0000
0000
0000
0000
0000
1000
,  // measure 60
0000
0000
0000
0000
0000
0000
0000
1000
,  // measure 61
0000
0000
0000
0000
0000
0000
0000
0001
,  // measure 62
0000
0000
0000
0000
0000
0000
0000
0001
,  // measure 63
0000
0000
0000
0000
0000
0000
0000
1000
,  // measure 64
0000
0000
0000
0000
0000
0000
0000
0001
,  // measure 65
0000
0000
0000
0000
,  // measure 66
0000
0000
0000
0000
,  // measure 67
0000
0000
0000
0000
0000
0000
0000
1001
,  // measure 68
0000
0000
0000
0000
0000
0000
0000
1000
;
