#TITLE:そっと。;
#SUBTITLE:;
#ARTIST:鈴木愛;
#TITLETRANSLIT:SOTTO.;
#SUBTITLETRANSLIT:;
#ARTISTTRANSLIT:AI SUZUKI;
#CREDIT:DigiMindAxel;
#BANNER:SOTTO..png;
#BACKGROUND:SOTTO.-bg.png;
#LYRICSPATH:SOTTO..lrc;
#CDTITLE:GUITAR FREAKS & drummania.png;
#MUSIC:SOTTO..mp3;
#OFFSET:-3.640;
#SAMPLESTART:20.155;
#SAMPLELENGTH:12.000;
#SELECTABLE:YES;
#BPMS:0.000=290.000;
#STOPS:148.000=0.414
,162.000=0.414
,176.000=0.414
,198.000=0.207
;
#BGCHANGES:-20.000=SOTTO..AVI=1.000=1=1=0,
99999=-nosongbg-=1.000=0=0=0 // don't automatically add -songbackground-
;

//---------------dance-single - ----------------
#NOTES:
     dance-single:
     :
     Easy:
     4:
     0.337,0.441,0.302,0.114,0.000:
0001
0000
1000
0000
,
0001
0000
1000
0000
,
0010
0000
0100
0000
,
0010
0100
0000
0000
,
0001
1000
0000
0000
,
1000
0001
0000
0000
,
0001
1000
0000
0000
,
1000
0001
0000
0000
,
0001
1000
0000
0000
,
0010
0000
0100
0000
,
0010
0000
0100
0000
,
0110
0000
0000
0000
,
1000
0001
0000
0000
,
0001
1000
0000
0000
,
1000
0001
0000
0000
,
0001
1000
0000
0000
,
0020
0000
0000
0030
,
0110
0000
0000
0000
,
1000
0000
0001
0000
,
0100
0010
0000
0000
,
1000
0001
0000
0000
,
0001
1000
0000
0000
,
1000
0001
0000
0000
,
0001
1000
0000
0000
,
1000
0001
0000
0000
,
0100
0000
0010
0000
,
0100
0000
0010
0000
,
0110
0000
0000
0000
,
0001
1000
0000
0000
,
1000
0001
0000
0000
,
0001
1000
0000
0000
,
1000
0001
0000
0000
,
0200
0000
0000
0300
,
0110
0000
0000
0000
,
0001
0000
1000
0000
,
0010
0100
0000
0000
,
0220
0000
0000
0330
,
0000
0001
0000
1000
,
0000
0010
0000
0100
,
0010
0000
0220
0000
,
0000
0330
0000
1000
,
0000
0001
0000
0100
,
0000
0010
0100
0000
,
0220
0000
0000
0330
,
0000
0001
0000
1000
,
0000
0010
0000
0100
,
0000
0010
0100
0000
,
0000
0000
0001
1000
,
0001
0000
0220
0000
,
0000
0330
0000
1001
,
0000
1001
0000
0001
,
0000
1000
0000
0001
,
0000
0100
0000
0010
,
0000
0100
0000
0001
,
0000
1000
0000
0100
,
0000
0010
0000
0001
,
0000
1001
0000
0000
,
0000
0000
0000
0010
,
0000
0100
0000
0010
,
0000
1000
0000
0001
,
0000
1000
0000
0001
,
0000
0010
0000
0001
,
0000
1000
0000
0100
,
0000
1000
0000
0010
,
0000
0100
0000
0010
,
0000
0100
0010
0000
,
0000
1000
0000
1000
,
0000
0100
0000
0100
,
0000
0001
0000
0001
,
0000
0010
0000
0010
,
0000
1001
0000
1000
,
0000
1001
0000
0001
,
0000
1001
0000
0000
,
0100
0010
0000
0000
,
0000
1010
0000
0000
,
0000
0000
0000
0000
,
0000
0101
0000
0000
,
0000
1001
0000
0000
,
0000
0010
0000
0100
,
0000
0001
0000
1000
,
0000
0010
0000
0100
,
0000
0010
0000
1000
,
0000
1001
0000
1001
,
0000
0110
0000
0110
,
0000
1001
0000
0000
,
0000
0000
0000
0100
,
0000
0100
0000
0010
,
0000
1000
0000
0010
,
0000
0100
0000
0010
,
0000
1000
0000
0001
,
0000
1001
0000
0000
,
0000
0100
0000
0010
,
0000
2000
0000
0000
,
0000
3001
0010
0000
,
0000
0110
0000
1000
,
0000
0001
0000
0100
,
0000
0110
0000
0001
,
0000
1000
0000
0010
,
0000
0110
0000
1000
,
0000
0001
0000
0100
,
0000
0110
0000
0000
,
0000
1001
0000
0000
,
0000
0001
0000
0000
,
0000
0000
0000
0000
,
0000
0001
0010
0100
,
1000
0001
0000
0000
,
1001
0000
0000
0000
;

//---------------dance-single - ----------------
#NOTES:
     dance-single:
     :
     Hard:
     9:
     0.820,0.828,0.312,0.187,0.000: // measure 1
1001
0000
1000
0100
1000
0000
0001
0000
,  // measure 2
0001
0010
0001
0100
0000
0001
1000
0000
,  // measure 3
0001
0000
0001
0010
0001
0000
1000
0000
,  // measure 4
1000
0100
1000
0001
0100
0001
0100
0001
,  // measure 5
1000
0000
0010
2000
0000
0000
3010
0000
,  // measure 6
1000
0000
0001
0200
0000
0000
0301
0000
,  // measure 7
1000
0000
0100
2000
0000
0000
3100
0000
,  // measure 8
1000
0000
0001
0020
0000
0000
0031
0000
,  // measure 9
1000
0100
0010
0001
,  // measure 10
1000
0100
0001
0100
,  // measure 11
1000
0000
0010
0100
0000
0010
0100
0000
,  // measure 12
0000
1001
0000
0000
0000
1001
0000
0000
,  // measure 13
0001
0000
0100
0002
0000
0000
0103
0000
,  // measure 14
0001
0000
1000
0020
0000
0000
1030
0000
,  // measure 15
0001
0000
0010
0002
0000
0000
0013
0000
,  // measure 16
0001
0000
1000
0200
0000
0000
1300
0000
,  // measure 17
0001
0010
0100
1000
,  // measure 18
1010
0000
0000
0011
0000
0000
0011
0000
,  // measure 19
1001
0000
0010
0001
0000
0010
0001
0000
,  // measure 20
1000
0000
0100
1000
0100
1000
0001
0010
,  // measure 21
0001
0000
0100
0001
0000
0100
0001
0000
,  // measure 22
1000
0000
0010
1000
0000
0010
1000
0000
,  // measure 23
0001
0000
0010
0001
0000
0010
0001
0000
,  // measure 24
1000
0000
0100
1000
0000
0100
1000
0000
,  // measure 25
0001
0010
0100
1000
,  // measure 26
0100
0001
0100
1000
,  // measure 27
0001
0000
0100
0010
0000
0100
0010
0000
,  // measure 28
0000
1001
0000
0000
0000
1001
0000
0000
,  // measure 29
0010
0000
0100
0001
0000
0100
0001
0000
,  // measure 30
0100
0000
0010
1000
0000
0010
1000
0000
,  // measure 31
0001
0000
0010
0001
0000
0010
0001
0000
,  // measure 32
1000
0000
0100
1000
0000
0100
1000
0000
,  // measure 33
0001
0010
0100
1000
,  // measure 34
1100
0000
0000
0101
0000
0000
0101
0000
,  // measure 35
1001
0000
0100
1000
0000
0100
1000
0000
,  // measure 36
0001
0000
0001
0010
0001
1000
0100
1000
,  // measure 37
0100
0010
0100
0010
0100
0010
0100
0010
,  // measure 38
0100
0110
0000
0001
,  // measure 39
0010
0100
0010
0001
,  // measure 40
1000
0000
0100
0000
0010
0100
0010
0100
,  // measure 41
0010
0100
0010
0100
0010
0000
0110
0000
,  // measure 42
0000
1000
0100
0010
,  // measure 43
0100
1000
0001
0010
,  // measure 44
0100
0010
0100
0010
0100
0010
0100
0010
,  // measure 45
0100
0110
0001
0010
,  // measure 46
0100
1000
0100
0001
,  // measure 47
0100
0000
1000
0000
0010
0100
0010
0000
,  // measure 48
1000
0010
0001
0010
,  // measure 49
1000
0000
0001
0000
0010
0100
0010
0100
,  // measure 50
0010
0100
0010
0100
0010
0000
0110
0000
,  // measure 51
0110
0000
1001
0000
0010
0001
0000
0100
,  // measure 52
0010
0000
1000
0000
0100
1000
0000
0010
,  // measure 53
0100
0000
0001
0000
0100
0001
0000
0100
,  // measure 54
0010
0000
1000
0000
0010
1000
0000
1000
,  // measure 55
0001
0000
0010
0001
0010
0000
0100
0010
,  // measure 56
0100
0000
1000
0100
1000
0000
0001
1000
,  // measure 57
0001
0010
0100
1000
,  // measure 58
0001
0000
0100
0010
0100
0000
1001
0000
,  // measure 59
0000
0000
1001
0000
0100
1000
0000
0010
,  // measure 60
0100
0000
0001
0000
0010
0001
0000
0100
,  // measure 61
0010
0000
1000
0000
0010
1000
0000
0010
,  // measure 62
0100
0000
0001
0000
0100
0001
0000
0100
,  // measure 63
0010
1000
0100
0001
,  // measure 64
0100
1000
0100
0010
,  // measure 65
0001
0000
0100
0000
0010
1000
0000
0010
,  // measure 66
1000
0000
0001
0000
0100
0001
0100
0001
,  // measure 67
1000
0010
1000
0000
0100
0000
0010
0000
,  // measure 68
0100
1000
0001
0010
,  // measure 69
0100
0010
0100
0000
0010
0000
0001
0000
,  // measure 70
1000
0100
0010
0100
,  // measure 71
1000
0001
1000
0000
0010
0000
0100
0000
,  // measure 72
0001
0000
0010
0100
0010
0000
0001
0000
,  // measure 73
1000
1002
0000
0000
,  // measure 74
1000
0000
1003
0000
0010
1000
0010
1000
,  // measure 75
0001
0000
0100
0001
0100
0001
0100
0001
,  // measure 76
1000
0100
0010
0002
0000
0000
0000
0103
,  // measure 77
0000
0000
0010
1000
0010
1000
0010
1000
,  // measure 78
0001
0010
0100
0010
0000
0000
0000
0000
,  // measure 79
0100
0201
0000
0301
,  // measure 80
1000
1020
0000
1030
,  // measure 81
0001
0201
0000
0301
,  // measure 82
1000
0000
0001
0000
1000
0001
1000
0000
,  // measure 83
0100
1000
0100
0000
0010
0100
0010
0000
,  // measure 84
0001
0010
0001
0000
1000
0001
1000
0000
,  // measure 85
0010
0100
0010
0000
1000
0000
0001
0000
,  // measure 86
0100
0000
0001
0000
0010
0000
0100
0010
,  // measure 87
0000
0000
0001
0000
0001
1000
0001
0000
,  // measure 88
1000
0000
0010
0000
1000
0100
0000
1000
,  // measure 89
0001
0010
0001
0000
0100
0001
0000
1000
,  // measure 90
0100
0000
1000
0000
1000
0001
1000
0000
,  // measure 91
0001
0012
0000
0010
,  // measure 92
0000
0013
0100
1000
,  // measure 93
0100
2100
0000
0001
,  // measure 94
0000
0000
3001
0000
0010
0001
0010
0001
,  // measure 95
1000
0010
1000
0000
0100
1000
0000
0010
,  // measure 96
0100
0000
0001
0000
0010
0001
0000
0010
,  // measure 97
0001
1000
0001
0000
0100
0001
0000
0010
,  // measure 98
0100
0000
1000
0000
0010
1000
0000
0100
,  // measure 99
0010
2001
0000
0001
,  // measure 100
3000
0101
0010
0100
,  // measure 101
1000
1020
0000
0000
,  // measure 102
0000
0000
0130
0000
0010
1000
0010
1000
,  // measure 103
0010
1000
0001
0010
0001
0010
0001
0010
,  // measure 104
0001
1000
0100
0020
0000
0000
0000
0130
,  // measure 105
0000
1000
0100
1000
0100
0010
0001
0100
,  // measure 106
0001
0100
0001
1000
0100
0000
0000
0000
,  // measure 107
0001
0100
0000
0000
0000
0000
0000
0000
;

//---------------dance-single - ----------------
#NOTES:
     dance-single:
     :
     Medium:
     7:
     0.501,0.497,0.323,0.302,0.000:
1001
0000
0001
0000
,
0101
0000
1010
0000
,
1001
0000
1000
0000
,
1010
0000
0000
0000
,
0001
0000
0010
0000
,
0001
0000
1000
0000
,
0100
0000
1000
0000
,
0010
0000
0100
0000
,
0020
0000
1000
0000
,
1030
0100
0010
0001
,
0000
1001
0000
1000
,
0000
0110
0000
0000
0000
0110
0000
0000
,
0001
0000
0010
0000
,
0001
0000
1000
0000
,
0010
0000
0100
0000
,
0001
0000
1000
0000
,
0002
0000
0000
0000
,
1003
0000
0000
0010
0000
0000
1000
0000
,
0001
0010
0001
0000
,
1000
0100
1000
0001
,
0001
0000
0100
0000
,
0001
0000
1000
0000
,
0010
0100
0010
0000
,
1000
0100
1000
0000
,
0001
0100
0010
0000
,
1000
0100
0010
0002
,
0000
1003
0000
0001
,
0000
0110
0000
0000
0000
0110
0000
0000
,
1000
0100
0010
0001
,
0010
0100
1000
0000
,
1001
0000
0010
0000
,
1001
0000
0001
0000
,
2000
0000
0000
0000
,
3001
0000
0000
0100
0000
0000
0001
0000
,
1000
0100
1000
0001
,
0010
0011
0000
0000
,
0001
0100
1000
0100
,
0001
1000
0000
0010
,
0100
0010
0000
1000
,
0010
0100
0001
0010
,
1000
0010
0001
1000
,
0000
0010
0100
0001
,
0100
0010
1000
0001
,
1000
0100
0001
0100
,
1000
0001
0000
0100
,
0010
2000
0000
0000
,
0000
0000
3002
0000
,
0000
0000
1003
0100
,
0010
0001
0100
1000
,
0100
0001
2000
0001
,
0001
3001
0010
0001
,
1000
0100
1000
0001
,
0100
0010
1000
0001
,
0100
0010
1000
1010
,
0000
0110
0000
0101
,
0000
0110
0000
1010
,
0000
2002
0000
0000
,
0000
0000
3003
0001
,
0000
1000
0001
0100
,
0001
0010
0001
1000
,
0001
2000
0000
0001
,
0000
0001
0000
3001
,
0000
1001
0000
0000
,
0000
0001
1000
0010
,
1000
0002
0000
1000
,
0000
1000
1000
1003
,
0000
0001
0010
0100
,
1000
0001
0010
0100
,
1000
0020
0000
0100
,
0000
0230
0000
0310
,
0000
2002
0000
0000
,
3003
0100
0010
0100
,
1000
0002
0000
0000
,
1000
2003
0000
0000
,
0000
3001
0000
0000
,
0000
0000
0100
0020
0000
0000
0000
0130
,
0000
2002
0000
0000
,
3003
0000
0010
0200
0000
0000
0000
0310
,
0000
0001
0100
0001
,
1000
0100
1000
0100
,
0001
0100
1000
0001
,
0010
1000
0010
0001
,
0000
0101
0000
1000
,
0000
1010
0000
0010
,
0000
0110
0000
0001
,
0000
0000
1000
0000
0000
0000
0001
0010
,
0000
1100
0000
0001
,
0000
0110
0000
1000
,
0001
1000
0001
0000
0000
0000
0100
0000
,
0000
0110
0000
0010
,
0000
1001
0000
0001
,
0000
1000
0010
0100
,
0010
2000
0000
0000
,
0001
3002
0000
0000
,
0000
1003
0100
0010
,
0001
1000
0100
0010
,
0001
0010
0100
1000
,
0010
0100
0001
0100
,
0010
2000
0000
0000
,
0000
3001
0010
0100
,
1000
0020
0000
0000
,
1030
0002
0000
0000
,
0000
2003
0000
0000
,
0000
0000
0000
0000
3000
0000
0000
0110
,
0000
0220
0000
0000
0000
0000
0000
0000
,
0000
0330
0000
0010
0100
0000
0000
0000
,
1000
0001
0000
0000
0000
0000
0000
0000
;

//---------------dance-single - ----------------
#NOTES:
     dance-single:
     :
     Beginner:
     3:
     0.184,0.276,0.218,0.000,0.000:
0001
0000
0000
0000
,
1000
0000
0000
0000
,
0001
0000
0000
0000
,
1001
0000
0000
0000
,
0001
0000
0000
0000
,
0100
0000
0000
0000
,
0001
0000
0000
0000
,
1000
0000
0000
0000
,
0010
0000
0000
0000
,
1000
0000
0001
0000
,
1000
0000
0000
0000
,
1001
0000
0000
0000
,
0001
0000
0000
0000
,
1000
0000
0000
0000
,
0001
0000
0000
0000
,
1000
0000
0000
0000
,
0100
0000
0000
0000
,
1001
0000
0000
0000
,
0010
0000
0000
0000
,
1001
0000
0000
0000
,
0001
0000
0000
0000
,
1000
0000
0000
0000
,
0001
0000
0000
0000
,
1000
0000
0000
0000
,
0001
0000
0000
0000
,
0100
0000
0000
0000
,
0001
0000
0000
0000
,
1001
0000
0000
0000
,
1000
0000
0000
0000
,
0001
0000
0000
0000
,
1000
0000
0000
0000
,
0010
0000
0000
0000
,
1000
0000
0000
0000
,
1001
0000
0000
0000
,
0010
0000
0000
0000
,
1001
0000
0000
0000
,
1001
0000
0000
0000
,
0000
0000
0000
0001
,
0000
0000
0000
0010
,
0000
0000
1001
0000
,
0000
0000
0000
0000
,
0000
1000
0000
0000
,
0000
0100
0000
0000
,
1001
0000
0000
0000
,
0000
0000
1000
0000
,
0000
0000
0001
0000
,
0000
0000
0100
0000
,
0000
0000
0010
0000
,
0000
0000
1001
0000
,
0000
0000
0000
0000
,
0000
0001
0000
0000
,
0000
0010
0000
0000
,
0000
0001
0000
0000
,
0000
1000
0000
0000
,
0000
0010
0000
0000
,
0000
0010
0000
0000
,
0000
0010
0000
0000
,
0000
1001
0000
0000
,
0000
1000
0000
0000
,
0000
0100
0000
0000
,
0000
1000
0000
0000
,
0000
0001
0000
0000
,
0000
1000
0000
0000
,
0000
0010
0000
0000
,
0000
0100
0000
0000
,
0000
0010
0000
0000
,
0000
1000
0000
0000
,
0000
0100
0000
0000
,
0000
0010
0000
0000
,
0000
0001
0000
0000
,
0000
1000
0000
0000
,
0000
0010
0000
0000
,
0000
1000
0000
0000
,
0000
1001
0000
0000
,
0000
0100
0000
0000
,
0000
0000
0000
0000
,
0000
0010
0000
0000
,
0000
0000
0000
0000
,
0000
1000
0000
0000
,
0000
0010
0000
0000
,
0000
1000
0000
0000
,
0000
0001
0000
0000
,
0000
1001
0000
0000
,
0000
1001
0000
0000
,
0000
1001
0000
0000
,
0000
0000
0000
0000
,
0000
1001
0000
0000
,
0000
0010
0000
0000
,
0000
0100
0000
0000
,
0000
0001
0000
0000
,
0000
1000
0000
0000
,
0000
0010
0000
0000
,
0000
0100
0000
0000
,
0000
0000
1001
0000
,
0000
0001
0000
0000
,
0000
0010
0000
0000
,
0000
0001
0000
0000
,
0000
1000
0000
0000
,
0000
0100
0000
0000
,
0000
1000
0000
0000
,
0000
0001
0000
0000
,
0000
1001
0000
0000
,
0000
1001
0000
0000
,
0000
0000
0000
0000
,
0000
0001
0000
1000
,
0000
0001
0000
0000
,
1001
0000
0000
0000
;

//---------------dance-double - ----------------
#NOTES:
     dance-double:
     :
     Easy:
     5:
     0.400,0.496,0.323,0.271,0.000:
00010000
00000000
00100000
00000000
,
00010000
00000000
10000000
00000000
,
01000000
00000000
00100000
00000000
,
00010000
00100000
00000000
00000000
,
00010000
00001000
00000000
00000000
,
00000100
00001000
00000000
00000000
,
00010000
00001000
00000000
00000000
,
00010000
01000000
00000000
00000000
,
00010000
00001000
00000000
00000000
,
00000010
00001000
00000010
00000000
,
00000010
00000000
00000010
00000000
,
00000110
00000000
00000000
00000000
,
00000100
00001000
00000000
00000000
,
00010000
00001000
00000000
00000000
,
00010000
00100000
00000000
00000000
,
00010000
00001000
00000000
00000000
,
00022000
00000000
00000000
00033000
,
00011000
00000000
00001000
00000000
,
00011000
00000000
00100000
00000000
,
01000000
00100000
00000000
00000000
,
10000000
00010000
00000000
00000000
,
00010000
01000000
00000000
00000000
,
01000000
00001000
00000000
00000000
,
00001000
00010000
00000000
00000000
,
00010000
00000100
00000000
00000000
,
00001000
00000100
00001000
00000001
,
00000000
00000001
00001000
00000010
,
00000110
00000000
00000000
00000000
,
00000001
00000100
00000000
00000000
,
00000100
00000010
00000000
00000010
,
00010000
00000000
00000000
00000000
,
00010000
00001000
00000000
00000000
,
00022000
00000000
00000000
00033000
,
00011000
00000000
00000000
00000000
,
00010000
00000000
10000000
00000000
,
00100000
01000000
00000000
00000000
,
02200000
00000000
00000000
03300000
,
00000000
00010000
00000000
10000000
,
00000000
00100000
00000000
00001000
,
00000010
00000000
00000220
00000000
,
00000000
00000330
00000000
00001000
,
00000000
00000001
00000000
00000100
,
00000000
00001000
01000000
00000000
,
02200000
00000000
00000000
03300000
,
00000000
00010000
00000000
10000000
,
00000000
00100000
00000000
00010000
,
00000000
00000000
00022000
00000000
,
00000000
00033000
00010000
00001000
,
00010000
00000000
02200000
00000000
,
00000000
03300000
00000000
10010000
,
00000000
10010000
00000000
00010000
,
00000000
10000000
00000000
01000000
,
00000000
00100000
00000000
00010000
,
00000000
00001000
00000000
00010000
,
00000000
00001000
00000000
00000100
,
00000000
00000010
00000000
00000001
,
00000000
00001001
00000000
00000000
,
00000000
00000000
00000000
00001001
,
00000000
00000001
00000000
00000010
,
00000000
00000001
00000000
00001000
,
00000000
00000100
00000000
00010000
,
00000000
00001000
00000000
00010000
,
00000000
00100000
00000000
01000000
,
00000000
10000000
00000000
00100000
,
00000000
01000000
00000000
00100000
,
00000000
01000000
00100000
00000000
,
00000000
10000000
00100000
10000000
,
00000000
00010000
01000000
00010000
,
00000000
00001000
00010000
00001000
,
00000000
00010000
00001000
00010000
,
00000000
00022000
00000000
00000000
,
00033000
00010000
00001000
00010000
,
00000100
00002000
00000000
00000000
,
00000001
00003001
00000000
00000000
,
00000000
00000022
00000000
00000000
,
00000033
00000000
00000000
00000000
,
00000000
00002200
00000000
00000000
,
00003300
00001001
00000000
00000000
,
00000000
00000001
00000010
00000001
,
00000000
00001000
00000100
00001000
,
00000000
00010000
00001000
00010000
,
00000000
00001000
00010000
00001000
,
00000000
00011000
00000000
00011000
,
00000000
01001000
00000000
01001000
,
00000000
10010000
00000000
00000000
,
00000000
00000000
00000000
10010000
,
00000000
10010000
00000000
10000000
,
01000000
10000000
00000000
00010000
,
00100000
00010000
00000000
00001000
,
00010000
00001000
00000000
00010000
,
00001000
00020000
00000000
00000000
,
00000000
00031000
00010000
00001000
,
00000100
00000020
00000000
00000000
,
00000000
00000100
00000130
00000000
,
00000000
00000001
00000100
00000001
,
00000000
00001000
00000100
00001000
,
00000000
00010000
00001000
00010000
,
00000000
00001000
00010000
00001000
,
00000000
00011000
00000000
00010000
,
00000000
00010000
00100000
01000000
,
10000000
00020000
00000000
00000000
,
00030000
10010000
00000000
00000000
,
00000000
00220000
00000000
00000000
,
00000000
00000000
00000000
00330000
,
00000000
00010000
00100000
00010000
,
00001000
00010000
00000000
00000000
,
00011000
00000000
00000000
00000000
;
