#TITLE:十露盤2000;
#SUBTITLE:;
#ARTIST:LindaAI-CUE;
#TITLETRANSLIT:SOROBAN2000;
#SUBTITLETRANSLIT:;
#ARTISTTRANSLIT:;
#CREDIT:DigiMindAxel;
#BANNER:SOROBAN2000.png;
#BACKGROUND:SOROBAN2000-bg.png;
#LYRICSPATH:;
#CDTITLE:TAIKO NO TATSUJIN.png;
#MUSIC:SOROBAN2000.mp3;
#OFFSET:-6.180;
#SAMPLESTART:36.934;
#SAMPLELENGTH:12.000;
#SELECTABLE:YES;
#DISPLAYBPM:*;
#BPMS:0.000=170.000,47.000=192.000,67.000=96.000,69.000=192.000,105.000=96.000,107.000=192.000,109.000=170.000,141.003=208.000,177.000=104.000,179.000=208.000,190.003=220.000,226.000=110.000,228.000=220.000,233.003=240.000,301.000=85.000,303.000=170.000;
#STOPS:13.000=0.529
,13.500=0.529
,14.000=0.706
,47.000=0.156
,48.000=0.469
,49.000=0.156
,49.500=0.156
,50.000=0.156
,50.500=0.156
,69.000=1.250
,70.000=0.625
,71.000=0.156
,71.500=0.156
,72.000=0.156
,72.500=0.156
,107.000=0.625
,141.000=1.407
,142.000=0.577
,143.000=0.144
,143.500=0.144
,144.000=0.072
,144.250=0.072
,144.500=0.072
,144.750=0.072
,190.000=0.288
,191.000=0.545
,192.000=0.136
,192.250=0.068
,192.500=0.068
,193.000=0.136
,193.500=0.136
,233.000=4.102
,234.000=0.500
,235.000=0.125
,235.500=0.125
,236.000=0.188
,236.250=0.063
,303.000=2.471
;
#BGCHANGES:;

//---------------dance-single - ----------------
#NOTES:
     dance-single:
     :
     Easy:
     4:
     0.291,0.285,0.015,0.080,0.000:
0002
0000
0000
0000
,
2003
0000
0000
0000
,
3001
0010
0100
1000
,
0001
0000
0000
0100
,
0100
0000
0010
0000
,
0100
0001
0010
0100
,
0100
0000
1000
0000
,
0001
0100
0010
0100
,
0100
0000
0001
0000
,
1000
0100
0010
0001
,
0001
0000
0010
0000
,
0001
0010
0100
0000
,
0000
0000
0000
1000
,
0001
1000
0000
0001
,
1000
0001
0000
0010
,
0001
0010
0100
1000
,
0100
0010
0000
0001
,
0000
0001
0000
0002
,
0000
0103
0001
0100
,
0010
0100
0010
1000
,
1000
0010
1000
0010
,
0100
0010
0100
0001
,
0001
0000
1000
0100
,
1000
0100
1000
0001
,
1000
0010
0100
0010
,
0100
0001
1000
0001
,
0010
0000
0000
0000
,
0000
0001
0100
0001
,
0000
1000
0010
0100
,
0100
0001
1000
0000
,
0010
0010
0100
0001
,
0010
0100
0100
0000
,
1000
0000
0001
0010
,
0001
0100
0100
0000
,
0010
0000
0100
0001
,
0010
0100
0000
0000
,
0000
1000
0010
0100
,
0001
0100
0010
0100
,
0001
0010
0100
1000
,
0001
1000
0010
0100
,
0010
0000
1000
0001
,
1000
0001
0100
0010
,
1000
0001
0010
0001
,
1000
0100
1000
0010
,
0100
0000
0000
2002
,
0000
0000
0000
0000
,
0000
0000
0000
0000
,
0000
3003
0000
1000
,
0000
0000
0001
1000
,
0001
1000
0001
0100
,
0001
0100
0010
1000
,
0010
1000
0001
1000
,
0001
0010
0000
0001
,
1000
0001
1000
0100
,
1000
0100
0010
0001
,
0010
0001
1000
0010
,
0100
0001
0000
0000
,
0000
0000
0000
0000
,
0000
0000
2000
0000
,
0000
3001
1000
0100
,
0010
0001
1000
0001
,
1000
0010
0100
0010
,
1000
0010
1000
0001
,
0100
0000
0001
1000
,
0001
0010
0001
0010
,
0001
1000
0100
1000
,
0100
0010
0001
1000
,
0010
0100
0000
0000
,
0000
2002
0000
0000
,
3003
1000
0001
1000
,
0100
1000
0100
0010
,
0001
0010
0001
1000
,
0001
1000
0010
0100
,
0010
0100
0001
0100
,
0001
1000
0100
0010
,
0001
1000
0000
0000
,
0001
0010
0100
1000
,
0100
0010
0001
0100
,
0001
0010
0100
1000
,
0010
1000
0100
0010
,
0001
0001
1000
1000
,
0020
0000
0000
0030
,
0100
0100
0001
0001
,
2000
0000
0000
3000
,
0100
0010
0001
1000
,
0001
0010
0100
1000
,
0010
0100
0010
1000
,
0200
0300
0000
0000
;

//---------------dance-single - ----------------
#NOTES:
     dance-single:
     :
     Medium:
     7:
     0.459,0.475,0.080,0.145,0.000:
2200
0000
0000
3300
,
0022
0000
0000
0033
,
0100
0010
0100
0000
0010
0100
0010
1000
,
0100
0000
0000
2000
3000
0000
0001
0100
,
0001
0100
0000
0001
1000
0000
0100
0000
,
1000
0000
0010
0100
0010
0000
1000
0010
,
1000
0010
0000
1000
0001
0000
0010
0000
,
0100
0000
1000
0001
0010
0000
0001
1000
,
0001
1000
0000
0010
0100
0010
0000
1000
,
0001
0000
1000
0001
1000
0001
0100
0000
,
0010
0100
0000
0001
1000
0001
0000
1000
,
0100
0000
1000
0000
1001
0000
0000
1000
,
0000
2000
0000
3001
,
1000
0001
1000
0100
,
0010
0001
0010
0100
,
1000
0010
0100
0001
,
0010
0000
0100
1000
0100
1000
0100
0000
,
0000
0000
0000
0000
0000
0000
0000
0000
0000
0000
0000
0000
2000
3000
0000
0000
0000
0000
0000
0000
0000
0000
0000
0000
0001
0000
0000
0000
0000
0000
0000
0000
0000
0000
0000
0000
0002
0000
0000
0000
0000
0000
0000
0000
0000
0000
0000
0000
,
0000
1003
0100
0010
,
0001
0100
0010
0000
1000
0000
0100
1000
,
0100
1000
0100
0000
1000
0001
0010
0000
,
0100
1000
0010
0100
,
0101
0001
0010
0100
,
1000
0010
0100
0000
0001
0000
0100
0001
,
0100
0001
0100
0000
0001
1000
0100
0000
,
0010
0000
0001
0000
0100
0000
0010
0100
,
0010
0100
0010
0000
0000
0000
0110
0000
,
0000
0000
0010
0100
0010
0100
0000
0001
,
1000
0100
0000
1000
0001
0000
0010
0000
,
0100
1000
0010
0100
0010
0100
0000
0001
,
1000
0010
0000
1000
0001
0000
0100
0010
,
0100
0010
0100
0001
1000
0100
0000
1000
,
0001
1000
0000
0010
0100
0000
0001
1000
,
0001
0010
0100
1000
0100
1000
0000
0010
,
0100
0001
0000
0100
0001
0000
1000
0000
,
1001
0000
1000
2000
,
0000
0000
3001
0000
1000
0000
0100
1000
,
0100
0000
1000
0000
0001
0000
0100
0001
,
0100
0000
0010
0000
0100
0010
0100
0001
,
0100
0000
0001
0000
1000
0000
0010
1000
,
0010
0100
0000
0000
0001
0000
1000
0100
,
1000
0000
0100
0000
1000
0000
0001
0100
,
0001
0000
0010
0100
0010
0001
1000
0000
,
0010
0000
0100
0010
0100
0000
0001
1000
,
0010
0000
0000
0000
0000
1000
2002
0000
,
0000
0000
0000
0000
,
0000
0000
0000
0000
,
0000
3003
0000
1000
,
0002
0000
1003
0001
,
0100
0001
0100
0000
0001
0000
1000
0000
,
0100
1000
0100
1000
0001
0000
0100
0010
,
0100
0000
0001
0000
0100
0010
0100
0000
,
0001
0000
1000
0000
0010
0100
0010
0000
,
1000
0001
1000
0000
0100
0000
0010
0000
,
0001
1000
0001
1000
0100
0000
1000
0100
,
1000
0000
0001
0000
0100
0010
0100
0000
,
0001
0100
0001
1000
0100
0000
0000
0000
,
0000
0000
0000
0000
,
0000
0000
1000
0002
,
0000
0000
1003
0000
0100
0000
0010
0100
,
0010
0000
0100
0000
1000
0000
0001
0010
,
0001
0000
0010
0000
0100
0000
0010
0001
,
0010
0000
0100
0000
0010
0000
0001
1000
,
0001
0100
0000
0000
0010
0000
1000
0100
,
1000
0000
0010
0000
0100
0000
0001
0100
,
0001
0000
0100
0010
0100
0010
0100
0010
,
0100
0000
0001
0000
0010
0000
0100
0010
,
0100
0010
0100
0000
0000
0000
0000
0000
,
0000
2002
0000
0000
,
3003
0000
0001
0100
0001
0000
0010
0000
,
0100
0000
1000
0010
0100
0000
0001
0000
,
0001
0000
1000
0010
1000
0100
0010
0001
,
0100
0010
1000
1000
,
0010
0100
0010
0100
0010
0000
1000
0000
,
0001
0000
0010
0000
0100
1000
0100
1000
,
0001
0000
0000
1001
,
1000
0100
1000
0000
0010
0100
0010
0000
,
1000
0100
1000
0000
0010
0100
0010
0000
,
1000
0001
1000
0000
0001
0010
0001
0000
,
1000
0010
0100
0000
0001
0100
0020
0000
,
0130
0000
0100
0001
0010
0100
1000
0000
,
2002
0000
0000
3003
,
0010
0000
0010
1000
0100
0010
0001
0000
,
2002
0000
0000
3003
,
0010
0001
0100
0010
0100
0001
0010
0000
,
0100
1000
0010
0100
0010
1000
0100
0000
,
1000
0001
1000
0001
0100
1000
0100
0001
,
1000
0010
0000
0000
0000
0000
0000
0000
;

//---------------dance-single - ----------------
#NOTES:
     dance-single:
     :
     Hard:
     9:
     0.659,0.728,0.051,0.189,0.272:
1002
0100
1000
0103
,
2001
0010
0001
3010
,
0001
0000
1000
0000
0100
0000
0001
0000
0100
0000
1000
0000
0001
0100
0001
0100
,
0010
0000
0000
1000
1000
0000
0001
1000
,
0100
0000
0010
0000
0000
0000
0001
0000
0100
0001
0000
1000
0000
0000
0010
0000
,
0100
0000
0001
0000
0100
0000
0010
0000
1000
0000
0100
0000
0010
0001
0010
0000
,
0100
0000
0010
0000
0000
0000
0001
0000
1000
0000
0010
0100
0000
0000
0001
0000
,
1000
0000
0100
0000
0001
0000
0100
0000
1000
0010
1000
0010
0100
0000
0001
0000
,
0010
0000
0100
0000
0000
0000
0010
0000
0001
0000
1000
0100
0000
0000
1000
0000
,
0001
0000
0010
0000
1000
0000
0010
0000
0001
0100
0001
0100
0010
0000
1000
0001
,
1000
0000
0100
0000
0000
0000
0010
0000
0100
0000
1000
0001
0000
0000
0010
0001
,
0000
0100
0000
0010
1000
0000
1000
0000
0001
0000
0001
0000
0000
0000
0100
0000
,
0000
0000
0200
0000
0000
0000
0310
0100
,
0010
1000
0100
1000
0001
0100
0010
0100
,
0001
0010
0100
1000
0001
0100
0001
1000
,
0001
0010
0100
0010
0001
0100
0010
0100
,
0001
1000
0020
0000
1030
0100
0010
0010
,
0000
0000
0000
0000
0000
0000
0000
0000
0000
0000
0000
0000
0220
0330
0000
0000
0000
0000
0000
0000
0000
0000
0000
0000
0100
0000
0000
0000
0000
0000
0000
0000
0000
0000
0000
0000
0200
0000
0000
0000
0000
0000
0000
0000
0000
0000
0000
0000
,
0000
0000
0310
0100
0010
1000
0100
0010
,
0001
0100
1000
0000
0100
0001
1000
1000
,
0100
0010
0001
0100
1000
0000
0100
0001
,
0010
0100
0010
0001
0100
0010
2000
0000
,
0001
3001
0000
0000
1000
0100
0010
0100
,
1000
0001
0100
0000
1000
0100
0001
0010
,
0100
1000
0010
0100
0001
0010
0100
0000
,
0010
0000
0001
0000
1000
0000
0100
0000
0001
0000
0100
0000
1000
0001
0000
0000
,
0100
0010
0100
0010
0100
0000
0000
0000
0100
0000
0000
0000
0220
0000
0000
0000
,
0330
0000
0010
0100
1000
0001
0000
0001
,
0100
0010
0000
1000
0000
0000
0100
0000
0001
0000
0100
0000
1000
0000
0001
0000
,
0100
0001
0010
0000
0100
1000
0100
1000
0100
0000
0010
0000
0000
0000
0010
0000
,
0100
0000
1000
0001
0000
0000
0010
0000
0001
0000
1000
0000
0010
0000
0100
0000
,
0001
1000
0010
0000
0100
0001
0100
0001
0100
0000
0010
0000
0000
0000
1000
0000
,
0001
0000
0010
0100
0000
0000
0010
0000
0001
1000
0000
0000
0100
0000
1000
0000
,
0001
0010
0100
0000
0010
0100
0010
0100
0010
0000
0001
0000
0000
0000
0100
0000
,
0010
0000
1000
0001
0000
0000
0010
0000
0100
0000
1000
0000
0002
0000
0000
0000
,
2003
3000
0010
0020
,
0000
0000
1030
0100
0010
0001
0100
0001
,
0010
1000
0010
0000
0001
0010
0100
0100
,
0010
0001
0100
0010
1000
0100
0001
0100
,
1000
0000
0010
0000
0100
0000
0010
0000
1000
0000
0100
0000
0010
0001
0000
0000
,
0100
0010
0100
0000
0000
0000
0001
0000
1000
0000
0100
0000
0001
0000
0100
0000
,
1000
0001
0010
0100
1000
0001
0010
1000
,
0010
0000
0001
0000
0100
0010
0000
0000
0100
0010
0000
0000
1000
0000
0100
0000
,
0010
0000
0001
0000
0010
0000
1000
0000
0010
0000
0001
0000
1000
0010
0000
0000
,
0100
0010
0100
0000
0000
0000
0000
0000
0000
0000
0000
0000
2002
0000
0000
0000
,
0000
0000
0000
0000
,
0000
0000
0000
0000
,
0000
3003
0000
0010
,
0020
0000
0000
0000
0130
0010
0100
0001
,
0010
0001
1000
0100
1000
0001
0010
0100
,
1000
0001
0010
0000
0001
0010
0001
0100
,
0010
0100
0001
0010
0001
1000
0100
0010
,
0001
1000
0010
0000
0100
0010
0100
0001
,
1000
0001
0010
0001
0010
0100
1000
0100
,
0010
0001
1000
0100
0010
0001
0100
0010
,
0100
0001
0010
0100
1000
0010
0100
0010
,
1000
0001
0010
0100
1000
0000
0000
0000
,
2002
0000
0000
0000
,
3003
0000
0000
0000
0100
0000
0010
0010
,
0020
0000
0130
0001
0010
0001
1000
0100
,
0010
0001
0100
1000
,
0100
0000
0001
0100
0010
1000
0100
1000
,
0001
0000
0010
0000
0100
0000
0010
0001
,
1000
0010
0000
0000
0100
0010
0100
0001
,
0010
0001
1000
0000
0100
0000
0010
0100
,
1000
0001
0100
0010
0100
0001
1000
0100
,
1000
0000
0100
0000
0010
0000
0100
1000
,
0010
0100
0002
0000
0000
0000
0000
0000
,
0003
0000
1000
0001
1000
0001
1000
0001
,
1000
0001
1000
0100
1000
0010
0100
0010
,
1000
0000
0100
0010
0001
0000
0010
0000
,
0100
0000
0010
0001
0100
0010
0100
0001
,
0010
0100
1000
0000
0001
0000
0100
0000
,
0010
0000
0100
0001
0010
0100
1000
0000
,
0001
0000
0100
0001
0010
0100
1000
0001
,
0010
0000
0000
0000
0000
0000
0001
0000
0000
0000
0000
0000
2000
0000
0000
0000
0000
0000
0000
0000
0000
0000
0000
0000
3000
0000
0000
0000
0000
0000
0000
0000
0000
0000
0000
0000
2002
3003
0000
0000
0000
0000
0000
0000
0000
0000
0000
0000
,
0001
0000
1000
0010
1000
0000
0100
0000
0010
0000
0001
0000
0100
0000
0100
0000
,
0001
0000
0010
0100
0010
0000
0001
0000
0100
0000
1000
0000
0100
0001
0100
0001
,
1000
0000
0010
0100
0010
0000
1000
0000
0001
0000
0010
0000
0100
0000
0010
0000
,
0001
0100
0001
0100
0010
1000
0010
1000
0001
0000
0100
0010
0200
0000
0000
0000
,
0310
0000
1000
0100
1000
0000
0001
0000
0010
0000
0100
0000
0010
0001
0010
0001
,
2000
0000
0000
0000
0000
0000
0000
0000
0000
0000
0000
0000
3010
0100
0010
0100
,
0010
0000
0100
0001
0100
0000
0001
0000
1000
0000
0100
0000
0010
0001
0010
0001
,
2000
0000
0000
0000
0000
0000
0000
0000
3010
0100
0010
0000
0100
0010
0100
0010
,
0100
0000
0001
0010
0000
0100
0000
0010
0001
0000
1000
0000
0010
0100
0010
0000
,
1000
0000
0100
0010
0000
0100
0000
1000
0010
0000
0100
0010
0100
0010
0100
0000
,
0001
0000
1000
0100
1000
0000
0100
0010
0100
0000
0010
0001
0010
0000
0100
1000
,
0001
0010
0100
0000
0000
0000
0000
0000
0000
0000
0000
0000
0000
0000
0000
0000
;

//---------------dance-single - ----------------
#NOTES:
     dance-single:
     :
     Challenge:
     10:
     0.823,0.950,0.036,0.109,0.676: // measure 1
1000
0000
0001
0100
0000
0001
0000
0001
1000
0000
0100
0000
0010
0001
0010
0001
,  // measure 2
1000
0000
0001
0100
0000
0001
0000
0001
1000
0000
0010
0000
0100
0001
0100
0001
,  // measure 3
1000
0000
0001
0010
0001
0000
0010
0100
0010
0000
0100
1000
0100
0010
0001
0100
,  // measure 4
0010
0100
0001
0000
0000
0000
1000
0000
1000
0000
0000
0000
0001
0000
1000
0000
,  // measure 5
0100
0000
0010
0000
0000
0000
0001
0000
1000
0001
0000
0100
0000
0000
1000
0000
,  // measure 6
0100
0000
0001
0000
1000
0000
1000
0000
0001
0100
0001
0000
1000
0100
1000
0100
,  // measure 7
0010
0000
0001
0000
0000
0000
0010
0000
0100
0000
1000
0010
0000
0000
0100
0000
,  // measure 8
0001
0000
0010
0000
1000
0000
0010
0000
0001
0100
0001
0100
0010
1000
0010
1000
,  // measure 9
0100
0000
0010
0000
0000
0000
0001
0000
1000
0000
0010
0100
0000
0000
0001
0000
,  // measure 10
0001
0000
0100
0001
1000
0000
0100
0000
1000
0100
0010
0001
1000
0010
1000
0010
,  // measure 11
0100
0000
0001
0000
0000
0000
0010
0000
0100
0000
1000
0001
1000
0000
0100
1000
,  // measure 12
0010
0000
0100
0001
0100
0001
0010
0000
0100
1000
0010
0000
0000
0000
0200
0000
,  // measure 13
0300
0000
0100
0100
0100
0100
0100
0001
,  // measure 14
0010
0000
1000
0000
0010
0000
0001
0000
0100
0000
0010
1000
0010
0000
1000
0000
,  // measure 15
0100
0001
0100
1000
1000
0001
0001
1000
,  // measure 16
0010
1000
0000
1000
0001
0000
0010
0000
0100
0000
1000
0000
0010
0000
0001
0000
,  // measure 17
0010
0000
1000
0000
0001
0100
0001
0100
0010
1000
0010
1000
0100
0000
0100
0000
,  // measure 18
0000
0000
0000
0000
0000
0000
0000
0000
0000
0000
0000
0000
0220
0330
0000
0000
0000
0000
0000
0000
0000
0000
0000
0000
0010
0000
0000
0000
0000
0000
0000
0000
0000
0000
0000
0000
0010
0000
0000
0000
0000
0000
0010
0000
0000
0000
0000
0000
,  // measure 19
0010
0010
1000
0100
0001
0100
1000
0001
,  // measure 20
0100
0000
0001
1000
0001
0000
0010
0000
1000
0000
0010
0000
0001
0000
0001
0000
,  // measure 21
1000
0000
1000
0000
0100
0000
0010
0000
0001
1000
0000
1000
0010
0000
1000
0000
,  // measure 22
0010
0000
0001
0000
0010
0000
1000
0000
0100
0000
0010
0000
0001
0100
0001
0000
,  // measure 23
0010
0100
1000
0001
0000
0000
0000
0000
1000
0000
0100
0000
0001
0000
0100
0000
,  // measure 24
1000
0000
0010
0100
0010
0000
1000
0000
0010
0000
0001
0000
0010
0000
1000
0000
,  // measure 25
0100
0000
0010
0000
0001
0000
1000
0000
0100
1000
0000
1000
0001
0000
0010
0000
,  // measure 26
0100
0000
0010
0000
0001
0000
1000
0000
0100
0000
0010
0000
0100
1000
0100
1000
,  // measure 27
0001
0010
0001
0010
0100
0000
0000
0000
0100
0000
0000
0000
0220
0000
0000
0000
,  // measure 28
0330
0000
0010
0100
0001
0001
0000
0001
,  // measure 29
1000
0010
0000
0010
0100
0000
0001
0000
1000
0000
0100
0000
0001
0000
0100
0000
,  // measure 30
1000
0010
0100
0000
0001
0010
0001
0010
0100
0000
1000
0000
0000
0000
1000
0000
,  // measure 31
0010
0000
0100
0001
0000
0000
0010
0000
0100
0000
1000
0000
1000
0000
0001
0000
,  // measure 32
0010
0001
0010
0001
1000
0100
1000
0100
0010
0000
0001
0000
0000
0000
0001
0000
,  // measure 33
1000
0000
0100
0010
0000
0000
0001
0000
1000
0010
0000
0010
0100
0000
0001
0000
,  // measure 34
1000
0100
0010
0000
0001
0100
0001
1000
0100
0000
1000
0000
0000
0000
1000
0000
,  // measure 35
0001
0000
0010
0100
0000
0100
0010
0000
0001
0000
1000
0000
0100
1000
0010
0000
,  // measure 36
0100
0001
0010
0000
0000
0000
0000
0000
0100
0000
0000
0000
0100
0000
0100
0000
,  // measure 37
0100
0100
0100
0100
0001
0000
0010
0000
0001
0000
0010
0000
0100
0000
1000
0000
,  // measure 38
0100
1000
0001
0010
0100
0010
0001
1000
,  // measure 39
0100
0000
0001
0000
0100
0000
1000
0000
0001
0100
0000
0100
0001
0000
1000
0000
,  // measure 40
0010
0000
1000
0000
0010
0000
0100
0000
0001
0000
0100
0000
0001
1000
0001
0000
,  // measure 41
0010
0100
1000
0010
0000
0000
0000
0000
1000
0000
0100
0000
1000
0000
0100
0000
,  // measure 42
0010
0001
0010
0001
1000
0100
0001
0100
,  // measure 43
1000
0000
0001
0000
0100
0010
0100
0000
0001
1000
0001
0000
0010
0000
0100
0000
,  // measure 44
0010
0000
0001
0000
0100
0000
1000
0000
0100
0000
0001
0000
1000
0010
1000
0000
,  // measure 45
0010
0100
0010
0100
0001
0000
0000
0000
0001
0000
0100
0000
0220
0000
0000
0000
,  // measure 46
0000
0000
0000
0000
,  // measure 47
0000
0000
0000
0000
,  // measure 48
0000
0000
0000
0000
0000
0000
0000
0000
0000
0000
0000
0000
0000
0000
0000
0330
0000
0000
0000
0000
0000
0000
0000
0000
0000
0000
0000
0000
0000
0000
0000
0000
0000
0000
0000
0000
0000
0000
0000
0000
0000
0000
0000
0000
0000
0000
0000
0000
0100
0000
0000
0000
0000
0000
0000
0000
0000
0000
0000
0000
0000
0000
0000
0000
,  // measure 49
0100
0100
0100
0000
0100
0000
0100
0000
0001
0000
1000
0000
0001
0000
1000
0000
,  // measure 50
0100
0000
1000
0000
0001
0000
0010
0001
0010
0000
0001
0000
1000
0000
0100
0000
,  // measure 51
0010
0000
0001
0000
1000
0000
0100
0000
0010
0000
0100
0000
1000
0000
0001
0100
,  // measure 52
0001
0100
0001
1000
0100
1000
0001
1000
,  // measure 53
0010
0100
0010
0000
0100
0010
0100
0000
0000
0000
0000
0000
0001
0000
1000
0000
,  // measure 54
0100
0010
0001
1000
0100
0010
0100
1000
,  // measure 55
0001
0000
0010
0000
0100
0000
1000
0001
1000
0001
1000
0001
1000
0000
0010
0000
,  // measure 56
0100
0001
0010
0100
0010
0001
1000
0010
,  // measure 57
0100
0010
0100
0000
0001
1000
0001
1000
0001
0100
0100
0000
0000
0000
0010
0000
,  // measure 58
0220
0000
0000
0000
,  // measure 59
0000
0000
0330
0000
0010
0000
0100
0100
,  // measure 60
0100
0100
0100
0000
0001
0000
0100
0000
0001
0000
1000
0000
0100
0000
1000
0000
,  // measure 61
0001
0010
0100
1000
0001
0100
0010
0100
,  // measure 62
0001
1000
0100
1000
0001
0100
0001
0010
,  // measure 63
0100
0000
1000
0000
0100
0000
0010
0000
0001
0000
1000
0000
0100
1000
0100
0000
,  // measure 64
0010
0001
0010
0000
0000
0000
0000
0000
0001
0000
0010
0000
0001
0000
1000
0000
,  // measure 65
0010
1000
0001
0010
0100
1000
0100
0010
,  // measure 66
0001
0000
1000
0000
0010
0100
0010
0100
0010
0000
1000
0000
0100
0000
0010
0000
,  // measure 67
0001
0000
1000
0000
0100
0000
1000
0000
0010
0000
0100
0000
0001
0100
0001
0100
,  // measure 68
0001
0000
1000
0010
2000
0000
0000
0000
0000
0000
0000
0000
0000
0000
0000
0000
,  // measure 69
3000
0000
0000
0000
0001
1000
0001
1000
0001
1000
0001
1000
0001
1000
0001
1000
,  // measure 70
0001
1000
0001
0000
1000
0000
0100
0000
0010
0000
0100
0000
1000
0000
0001
0000
,  // measure 71
0100
0000
0001
0000
0010
0000
0100
0000
0010
0000
0001
0000
1000
0000
0010
0100
,  // measure 72
0010
0000
0100
0010
0100
0000
0001
0000
0100
0000
0010
0000
0100
0000
0001
0000
,  // measure 73
0010
0100
1000
0010
0100
0010
1000
0100
,  // measure 74
0010
0000
0001
1000
0001
1000
0001
0000
0100
0001
0100
0000
0010
1000
0010
0000
,  // measure 75
1000
0000
0001
0000
0010
0000
0100
0000
1000
0000
0010
0000
0100
0010
0100
0000
,  // measure 76
0001
0000
0000
1000
0000
0000
0001
0000
0000
1000
0000
0000
0200
0000
0000
0000
0000
0000
0300
0000
0000
0000
0000
0000
0000
0000
0000
0000
0000
0000
0000
0000
0000
0000
0000
0000
2002
3003
0000
0000
0000
0000
0000
0000
0000
0000
0000
0000
,  // measure 77
1000
0000
0100
1000
0100
0000
0010
0100
0010
1000
0100
0010
0001
0000
0100
0000
,  // measure 78
0001
0000
0010
0001
0010
0000
0100
0010
0100
0001
0010
0100
1000
0010
1000
0010
,  // measure 79
0100
0000
0001
0100
0001
0000
0100
0010
0100
0001
1000
0100
0010
0001
0100
0000
,  // measure 80
0001
0010
0100
1000
0100
0010
0001
1000
0001
0100
0010
1000
0100
1000
0100
1000
,  // measure 81
0001
0000
0001
0100
0010
1000
0100
0000
0010
0001
0010
0100
1000
0010
0100
0010
,  // measure 82
2000
0000
0000
0000
0000
0000
0000
0000
0000
0000
0000
0000
3010
0100
0010
0100
,  // measure 83
0001
0000
0001
1000
0010
1000
0001
0000
0010
0100
1000
0010
0100
0010
1000
0100
,  // measure 84
0020
0000
0000
0000
0000
0000
0000
0000
0031
1000
0001
1000
0010
0100
0010
0100
,  // measure 85
0010
0000
1000
0100
0000
0001
0000
0100
1000
0010
0100
0000
0001
1000
0001
0000
,  // measure 86
1000
0000
0001
0010
0000
1000
0000
0010
0001
0100
0010
1000
0010
1000
0010
1000
,  // measure 87
0001
0000
0001
1000
0010
1000
0001
0010
0100
1000
0100
0010
0001
1000
0001
1000
,  // measure 88
0010
0100
0001
0000
0000
0000
0000
0000
0000
0000
0000
0000
0000
0000
0000
0000
;

//---------------dance-single - ----------------
#NOTES:
     dance-single:
     :
     Beginner:
     2:
     0.084,0.126,0.022,0.000,0.000:
1000
0000
0000
0000
,
0001
0000
0000
0000
,
1000
0000
1000
0000
,
1000
0000
0000
0001
,
0000
0000
1000
0000
,
0001
0000
0000
0010
,
0000
0000
0100
0000
,
0010
0000
0000
0001
,
0000
0000
1000
0000
,
0100
0000
0000
0010
,
0000
0000
0100
0000
,
0000
1000
0000
0000
,
0000
0000
0000
0001
,
0000
0000
0000
1000
,
0000
0000
0000
0001
,
0000
0000
0000
1000
,
0000
0000
0000
0000
,
0000
0000
0000
0000
,
0000
0010
0000
0000
,
0000
0100
0000
0000
,
0000
0010
0000
0000
,
0000
0000
0000
0010
,
0000
0000
0010
0000
,
0000
0000
0100
0000
,
0000
0000
0010
0000
,
0000
0000
0000
1000
,
0000
0000
0000
0000
,
0000
0001
0000
0000
,
0000
0000
0000
0000
,
0000
0010
0000
0000
,
0000
0000
0000
0000
,
0000
0100
0000
0000
,
0000
0000
0000
0000
,
0000
1000
0000
0000
,
0000
0000
0000
0001
,
0000
0000
0000
0000
,
0000
1000
0000
0000
,
0000
0001
0000
0000
,
0000
1000
0000
0000
,
0000
0000
0000
1000
,
0000
0000
0001
0000
,
0000
0000
1000
0000
,
0000
0000
0001
0000
,
0000
0000
0000
1000
,
0000
0000
0000
0000
,
0000
0000
0000
0000
,
0000
0000
0000
0000
,
0000
0000
0000
0000
,
0000
0000
0100
0000
,
0000
0000
0010
0000
,
0000
0000
0000
0001
,
0000
0000
0000
0000
,
0000
0000
0000
0010
,
0000
0000
0000
0100
,
0000
0000
0000
1000
,
0000
0000
0000
0000
,
0001
0000
1000
0000
,
0000
0000
0000
0000
,
0000
0000
0000
0000
,
0000
0001
0000
0000
,
0000
1000
0000
0000
,
0000
0001
0000
0000
,
0000
0010
0000
0000
,
0000
0100
0000
0000
,
0000
0010
0000
0000
,
0000
0001
0000
0000
,
0000
1000
0000
0000
,
0000
0001
0000
0000
,
0000
1001
0000
0000
,
1000
0000
0000
0000
,
0000
0001
0000
0000
,
0000
1000
0000
0000
,
0000
0000
1000
0000
,
0000
0000
0001
0000
,
0000
0000
0000
0001
,
0000
0000
0000
0000
,
1000
0000
0000
0000
,
0001
0000
0000
0000
,
1000
0000
0000
0000
,
1001
0000
0000
0000
,
0010
0000
0000
0000
,
0010
0000
0000
0000
,
0100
0000
0000
0000
,
0100
0000
0000
0000
,
0010
0000
0000
0000
,
0010
0000
0000
0000
,
0010
0000
0000
0000
,
1001
0000
0000
0000
;
