#TITLE:SODA;
#SUBTITLE:;
#ARTIST:SLAKE;
#TITLETRANSLIT:;
#SUBTITLETRANSLIT:;
#ARTISTTRANSLIT:;
#CREDIT:DigiMindAxel;
#BANNER:SODA.png;
#BACKGROUND:SODA-bg.png;
#LYRICSPATH:;
#CDTITLE:beatmania.png;
#MUSIC:SODA.mp3;
#OFFSET:-7.120;
#SAMPLESTART:7.100;
#SAMPLELENGTH:12.000;
#SELECTABLE:YES;
#BPMS:0.000=160.000;
#STOPS:;
#BGCHANGES:;

//---------------dance-single - ----------------
#NOTES:
     dance-single:
     :
     Easy:
     2:
     0.195,0.235,0.148,0.209,0.000:
1001
0000
1000
0000
,
0001
0000
1000
0000
,
0010
0000
0100
0000
,
0002
0000
1003
0000
,
1001
0000
1000
0000
,
0001
0000
1000
0000
,
0010
0000
0100
0000
,
0002
0000
1003
0000
,
1002
0000
0003
0000
,
2000
0000
3000
0000
,
0200
0000
0300
0000
,
0020
0000
0030
0000
,
0002
0000
0003
0000
,
0020
0000
0030
0000
,
0200
0000
0300
0000
,
2000
0000
3000
0000
,
0000
0002
0000
0000
0000
0000
0000
0000
,
2003
0000
0000
0000
,
3200
0000
0000
0000
,
0320
0000
0000
0000
,
0032
0000
0000
0000
,
2003
0000
0000
0000
,
3020
0000
0000
0000
,
0130
0000
0100
0000
,
0110
0000
1000
0000
,
1001
0000
0001
0000
,
1001
0000
0010
0000
,
0110
0000
0100
0000
,
0110
0000
0010
0000
,
1001
0000
1000
0000
,
1001
0000
0001
0000
,
0110
0000
0000
0000
,
1000
0000
0001
0000
,
1000
0000
0100
0000
,
0010
0001
0000
1000
,
0000
0001
0000
1000
,
0000
0010
0000
0100
,
0000
0001
0000
1000
,
0000
0100
0000
1000
,
0000
0001
0000
0100
,
0110
0000
0100
0000
,
0010
0000
0100
0000
,
0010
0000
0100
0000
,
0010
0000
1000
0000
,
0001
0000
1000
0000
,
0001
0000
1000
0000
,
0001
0000
1000
0000
,
0001
0000
0100
0010
;

//---------------dance-single - ----------------
#NOTES:
     dance-single:
     :
     Medium:
     5:
     0.364,0.383,0.135,0.258,0.000:
1002
0000
0000
1000
0000
0003
0000
0100
,
0000
0100
0010
1000
0000
1000
0001
0000
,
0200
0000
0000
0000
0310
0000
0000
0010
,
0000
0010
0100
0001
1000
0000
1001
0000
,
2001
0000
0000
0001
0000
3000
0000
0010
,
0000
0010
0100
0001
0000
0001
1000
0000
,
0200
0000
0000
0000
0310
0000
0000
0001
,
0000
0001
1000
0000
0010
1000
0100
0010
,
0000
0002
0000
0103
,
0010
2000
0000
3010
,
0100
0002
0000
0013
,
0100
2000
0000
3100
,
0010
0002
0000
0103
,
0001
2000
0000
3100
,
1000
0020
0000
0130
,
0001
2000
0000
3001
,
0000
2000
0000
0000
0000
0000
0000
0000
,
3200
0000
0000
0000
,
0320
0000
0000
0000
,
0230
0000
0000
0000
,
2300
0001
0000
3001
,
0200
0010
0000
0310
,
2000
0001
0000
3001
,
0010
0100
0010
0100
,
0110
0000
0000
0000
0001
0010
0100
0000
,
0011
0000
0000
0000
1000
0100
0010
0000
,
1100
0000
0000
0000
0010
1000
0100
0000
,
0110
0000
0020
0000
,
0130
0001
0010
0000
0110
0000
0000
0000
,
0100
1000
0001
0000
0101
0000
0000
0000
,
0010
0001
0100
0000
0110
0000
0000
0000
,
0200
0000
1300
0000
,
1000
0001
0100
0000
0010
0000
0100
0000
,
0001
1000
0100
0000
0010
0000
0100
0000
,
1000
0100
0010
0000
0100
0000
0010
0000
,
0001
0100
0010
0000
1000
0000
0100
0000
,
0010
0001
0100
0000
0001
0000
0010
0000
,
0001
0010
0100
0000
0010
0000
0100
0000
,
1000
0001
0010
0000
0001
0000
0100
0000
,
0010
1000
0100
0010
0001
0000
0001
0000
,
1001
1000
0010
1000
,
0100
1000
0010
1000
,
0100
1000
0010
0100
,
0001
0010
0001
0100
,
0001
0010
0001
0100
,
0010
1000
0100
0010
,
0001
0100
0010
1000
,
0100
0000
0010
0000
0001
0000
0100
0010
;

//---------------dance-single - ----------------
#NOTES:
     dance-single:
     :
     Hard:
     8:
     0.545,0.472,0.111,0.258,0.240: // measure 1
1000
0010
1000
0002
0000
0000
0103
0001
,  // measure 2
0000
0001
1000
0200
0000
1000
1300
0000
,  // measure 3
0010
0100
0001
0000
0100
0000
0010
1000
,  // measure 4
0000
1000
0001
0000
1000
0010
0110
0000
,  // measure 5
1002
0000
0000
0203
0000
0000
0310
1000
,  // measure 6
0000
1000
0001
0020
0000
0001
0031
0000
,  // measure 7
0100
0001
1000
0000
0100
0000
1000
0001
,  // measure 8
0000
0001
0010
0000
0100
0010
0001
1000
,  // measure 9
0100
0000
0000
0000
1000
0000
0000
0200
0000
0000
0000
0000
1300
0000
0010
0000
,  // measure 10
0100
0000
0000
0000
0001
0000
0000
0020
0000
0000
0000
0000
0130
0000
0010
0000
,  // measure 11
0001
0000
0000
0000
0100
0000
0000
0020
0000
0000
0000
0000
0130
0000
0001
0000
,  // measure 12
1000
0000
0000
0000
0010
0000
0000
0200
0000
0000
0000
0000
0310
0000
1000
0000
,  // measure 13
0100
0000
0000
0000
1000
0001
0000
0200
0000
0000
0000
0000
0301
0000
0010
0000
,  // measure 14
0100
0000
0000
0000
0010
0001
0000
0200
0000
0000
0000
0000
0310
0000
1000
0000
,  // measure 15
0100
0000
0000
0000
0010
0100
0000
2000
0000
0000
0000
0000
3010
0000
0100
0000
,  // measure 16
0001
0000
0000
0000
0100
0001
0000
2000
0000
0000
0000
0000
3001
0000
0000
0000
,  // measure 17
0010
0000
0001
0010
0100
0000
0010
0000
,  // measure 18
0100
1000
0010
0100
0010
0000
0100
0000
,  // measure 19
0001
0010
0100
1000
0010
0000
0100
0000
,  // measure 20
0001
1000
0010
0100
0010
0000
1000
0000
,  // measure 21
0100
1000
0001
0100
0001
0000
0010
0000
,  // measure 22
0100
0000
0010
0000
0001
0000
1000
0000
0100
0000
0000
0010
0000
0000
0001
0000
,  // measure 23
1000
0000
0000
0100
0000
0000
2000
0000
0000
0000
0000
0000
0001
0000
0000
0000
,  // measure 24
3001
0100
0010
1000
0001
0100
0010
1000
,  // measure 25
0001
0000
0001
0000
1000
0000
0000
0000
0010
0000
0000
0100
0000
0000
0010
0000
,  // measure 26
1000
0000
1000
0000
0001
0000
0000
0000
0110
0000
0000
0110
0000
0000
0100
0000
,  // measure 27
0001
0000
0001
0000
1000
0000
0000
0000
0010
0000
0000
1000
0000
0000
0010
0000
,  // measure 28
1000
0000
1000
0000
0001
0000
0000
0000
0110
0000
0000
0110
0000
0000
0010
0000
,  // measure 29
1000
0000
1000
0000
0001
0000
0010
0000
0100
0000
0000
0010
0000
0000
0001
0000
,  // measure 30
1000
0000
1000
0000
0001
0000
0000
0000
0110
0000
0000
0110
0000
0000
0100
0000
,  // measure 31
0001
0000
0001
0000
1000
0000
0100
0000
0001
0000
0000
0100
0000
0000
1000
0000
,  // measure 32
0010
0010
0100
0000
0010
0000
0010
0100
,  // measure 33
0010
0000
0100
0000
0001
1000
0000
0200
0000
0000
0000
0000
1300
0000
0001
0000
,  // measure 34
0100
0000
0000
0000
0010
1000
0000
0002
0000
0000
0000
0000
0013
0000
0100
0000
,  // measure 35
1000
0000
0000
0000
0100
1000
0000
0020
0000
0000
0000
0000
0130
0000
0001
0000
,  // measure 36
0010
0000
0000
0000
0001
0010
0000
0200
0000
0000
0000
0000
0310
0000
0001
0000
,  // measure 37
1000
0000
0000
0000
0010
1000
0000
0002
0000
0000
0000
0000
0103
0000
0001
0000
,  // measure 38
1000
0000
0000
0000
0100
1000
0000
0020
0000
0000
0000
0000
0130
0000
0001
0000
,  // measure 39
0010
0000
0000
0000
0001
0010
0000
0200
0000
0000
0000
0000
0310
0000
1000
0000
,  // measure 40
0100
0000
0000
0000
0001
0000
0100
0000
0000
1000
0000
0000
0001
0000
0000
0000
,  // measure 41
1001
0000
1000
0000
0010
1000
0100
0000
,  // measure 42
0001
0000
0100
0000
1000
0010
0100
0000
,  // measure 43
0001
0000
0100
0000
1000
0100
0001
0000
,  // measure 44
1000
0000
0010
0000
0001
0010
1000
0000
,  // measure 45
0010
1000
0100
0000
1000
0100
0010
0000
,  // measure 46
0100
0010
0001
0000
0010
0001
0100
0000
,  // measure 47
0010
0000
1000
0000
0001
0000
0000
0010
0001
0000
0010
0000
0100
0000
0000
0000
,  // measure 48
1000
0000
0001
0000
0100
0000
0000
0010
1000
0000
0100
0000
0010
0000
0001
1000
;

//---------------dance-single - ----------------
#NOTES:
     dance-single:
     :
     Beginner:
     1:
     0.102,0.173,0.074,0.000,0.000:
1000
0000
0000
0000
,
0001
0000
0000
0000
,
0100
0000
0000
0000
,
0001
0000
0000
0000
,
1001
0000
0000
0000
,
0001
0000
0000
0000
,
1000
0000
0000
0000
,
0100
0000
0000
0000
,
1000
0000
0000
0000
,
0001
0000
0000
0000
,
1000
0000
0000
0000
,
0010
0000
0000
0000
,
0100
0000
0000
0000
,
0010
0000
0000
0000
,
0100
0000
0000
0000
,
0010
0000
0000
0000
,
1000
0000
0000
0000
,
1000
0000
0000
0000
,
1000
0000
0000
0000
,
0001
0000
0000
0000
,
0001
0000
0000
0000
,
0001
0000
0000
0000
,
1000
0000
0000
0000
,
0010
0000
0000
0000
,
1001
0000
1000
0000
,
1000
0000
0000
0000
,
1001
0000
0001
0000
,
0001
0000
0000
0000
,
0110
0000
0100
0000
,
0100
0000
0000
0000
,
0110
0000
0010
0000
,
0010
0000
0000
0000
,
0000
1000
0000
0000
,
0000
0001
0000
0000
,
0000
1000
0000
0000
,
0000
0001
0000
0000
,
0000
1000
0000
0000
,
0000
0010
0000
0000
,
0000
0100
0000
0000
,
0000
0001
0000
0000
,
1001
0000
0000
0000
,
1000
0000
0000
0000
,
1000
0000
0000
0000
,
1000
0000
0000
0000
,
0001
0000
0000
0000
,
0001
0000
0000
0000
,
0001
0000
0000
0000
,
0001
0000
0000
0000
;
