#TITLE:少年リップルズ;
#SUBTITLE:;
#ARTIST:常盤ゆう;
#TITLETRANSLIT:SHOUNEN RIPPLES;
#SUBTITLETRANSLIT:;
#ARTISTTRANSLIT:YU TOKIWA;
#CREDIT:DigiMindAxel;
#BANNER:SHOUNEN RIPPLES.png;
#BACKGROUND:SHOUNEN RIPPLES-bg.png;
#LYRICSPATH:SHOUNEN RIPPLES.lrc;
#CDTITLE:jubeat.png;
#MUSIC:SHOUNEN RIPPLES.mp3;
#OFFSET:-4.720;
#SAMPLESTART:66.451;
#SAMPLELENGTH:12.000;
#SELECTABLE:YES;
#BPMS:0.000=210.000;
#STOPS:;
#BGCHANGES:-20.000=SHOUNEN RIPPLES.AVI=1.000=1=1=0,
99999=-nosongbg-=1.000=0=0=0 // don't automatically add -songbackground-
;

//---------------dance-single - ----------------
#NOTES:
     dance-single:
     :
     Easy:
     5:
     0.364,0.420,0.178,0.136,0.000: // measure 1
0220
0000
0000
0000
,  // measure 2
0000
0000
0000
0330
,  // measure 3
2002
0000
0000
0000
,  // measure 4
0000
0000
0000
3003
,  // measure 5
0020
0000
0000
1030
,  // measure 6
0000
0000
0000
0000
,  // measure 7
0200
0000
0000
0301
,  // measure 8
0000
0000
0000
0000
,  // measure 9
1000
0001
0100
0000
,  // measure 10
0001
0100
0001
1000
,  // measure 11
0001
0100
0010
0000
,  // measure 12
1000
0010
1000
0001
,  // measure 13
1000
0001
0010
0000
,  // measure 14
0001
0010
0001
1000
,  // measure 15
0001
1000
0100
0000
,  // measure 16
1000
0100
1000
0001
,  // measure 17
0020
0000
0000
0000
,  // measure 18
0000
0000
0000
0000
,  // measure 19
0230
0000
0000
0000
,  // measure 20
0000
0000
0000
0000
,  // measure 21
0320
0000
0000
0000
,  // measure 22
0000
0000
0000
0000
,  // measure 23
0230
0000
0000
0000
,  // measure 24
0000
1300
0000
0000
,  // measure 25
1000
0001
1000
0001
,  // measure 26
1000
0100
0010
0001
,  // measure 27
0100
0000
0001
0100
,  // measure 28
0001
0000
0100
0010
,  // measure 29
0100
0000
0001
0010
,  // measure 30
0001
0000
1000
0010
,  // measure 31
1000
0001
1000
0001
,  // measure 32
1000
0001
0010
0100
,  // measure 33
2000
0000
0010
0000
,  // measure 34
0010
0000
3010
0000
,  // measure 35
0200
0000
0001
0000
,  // measure 36
0001
0000
0301
0000
,  // measure 37
2000
0000
0100
0000
,  // measure 38
0100
0000
3100
0000
,  // measure 39
0020
0000
0001
0000
,  // measure 40
0001
0000
0031
0000
,  // measure 41
1001
0010
0001
0010
,  // measure 42
0001
0000
1000
0000
0010
0000
0000
1001
,  // measure 43
0000
0100
1000
0100
,  // measure 44
1000
0001
0100
0001
,  // measure 45
1001
0100
0001
0100
,  // measure 46
0001
0000
1000
0000
0100
0000
0000
1001
,  // measure 47
0000
0000
1000
0001
,  // measure 48
1000
1000
0001
0001
,  // measure 49
1001
0000
0000
1000
0000
0000
0010
0000
,  // measure 50
0000
0100
0000
0000
0001
0000
0001
0000
,  // measure 51
1001
0000
0000
0001
0000
0000
0100
0000
,  // measure 52
0000
0010
0000
0000
1000
0000
1000
0000
,  // measure 53
1001
0001
1000
0020
,  // measure 54
0000
0000
0000
0030
,  // measure 55
0110
0100
0100
0100
,  // measure 56
0001
0010
0100
1000
,  // measure 57
0010
0010
0010
0010
,  // measure 58
1000
0100
0010
0001
,  // measure 59
1000
1000
1000
1000
,  // measure 60
0001
0100
0010
1000
,  // measure 61
0001
0001
0001
1000
,  // measure 62
0010
0000
1000
1000
,  // measure 63
1001
0001
0001
0001
,  // measure 64
0100
0000
0001
0010
,  // measure 65
0100
1000
1000
1000
,  // measure 66
0010
0000
1000
0100
,  // measure 67
0010
0001
0001
0001
,  // measure 68
0100
0010
1000
0001
,  // measure 69
0002
0000
1003
0100
,  // measure 70
1000
1000
1001
0000
,  // measure 71
0001
0010
1000
0010
,  // measure 72
0001
1000
0100
0010
,  // measure 73
0001
0100
1000
0100
,  // measure 74
0001
1000
0100
0010
,  // measure 75
0001
0010
1000
0010
,  // measure 76
0001
1000
0100
0010
,  // measure 77
0001
0001
0001
1000
,  // measure 78
1001
0000
0010
0010
,  // measure 79
1001
0001
0010
1000
,  // measure 80
0010
0001
1001
1000
,  // measure 81
0100
0001
0100
1000
,  // measure 82
1001
0001
1000
0001
,  // measure 83
1001
1000
0100
0001
,  // measure 84
0100
1000
0010
0100
,  // measure 85
0010
0100
0001
0010
,  // measure 86
1000
0010
0001
1000
,  // measure 87
1001
0000
0000
1000
0000
0000
1010
0000
,  // measure 88
0000
0001
0000
0000
0100
0000
0001
0000
,  // measure 89
1001
0000
0000
0001
0000
0000
0101
0000
,  // measure 90
0000
1000
0000
0000
0010
0000
1000
0000
,  // measure 91
0001
0000
0000
0000
;

//---------------dance-single - ----------------
#NOTES:
     dance-single:
     :
     Medium:
     8:
     0.600,0.687,0.645,0.212,0.000: // measure 1
0101
0100
0100
1100
,  // measure 2
0000
0000
0000
0001
1000
0000
0000
0000
,  // measure 3
1010
0010
0010
0011
,  // measure 4
0000
0000
1001
0000
,  // measure 5
2000
0000
0000
3200
0000
0000
0320
0000
,  // measure 6
0000
0032
0000
0000
1000
0000
1003
0000
,  // measure 7
0002
0000
0000
0023
0000
0000
0130
0000
,  // measure 8
1000
0010
0100
0001
,  // measure 9
1001
0010
0011
0100
,  // measure 10
1000
0000
0001
0010
0000
0001
0010
0000
,  // measure 11
1001
0100
1100
0010
,  // measure 12
0001
0000
1000
0100
0000
1000
0100
0000
,  // measure 13
1001
0010
0011
0100
,  // measure 14
1000
0000
0001
0100
0000
0001
0100
0000
,  // measure 15
1001
0100
1100
0010
,  // measure 16
0001
0100
0001
0000
1000
0000
0100
0000
,  // measure 17
1001
0001
0001
0001
,  // measure 18
0100
1000
0100
0001
,  // measure 19
1000
1000
1000
1000
,  // measure 20
0010
0001
0010
1000
,  // measure 21
0001
0001
0001
0001
,  // measure 22
0010
1000
0010
0001
,  // measure 23
1000
1000
1000
1000
,  // measure 24
0100
0001
0100
1000
,  // measure 25
0001
0000
1000
0100
1000
0000
0100
1000
,  // measure 26
0001
0000
0010
0100
1000
0001
0100
0000
,  // measure 27
0002
0100
1000
0100
,  // measure 28
1003
0000
0100
0010
0001
1000
0100
0000
,  // measure 29
2001
0010
0001
0010
,  // measure 30
3001
0000
0010
0100
1000
0001
0100
0000
,  // measure 31
0001
0010
0001
0000
1000
0010
0100
0001
,  // measure 32
0000
0010
0100
0010
0000
0001
0010
0001
,  // measure 33
2000
0000
0000
3200
0000
0000
0302
0000
,  // measure 34
0100
1003
0010
0100
,  // measure 35
0002
0000
0000
0023
0000
0000
2030
0000
,  // measure 36
0010
3001
0010
0100
,  // measure 37
2000
0000
0000
3020
0000
0000
0032
0000
,  // measure 38
0010
1003
0100
0010
,  // measure 39
0002
0000
0000
0203
0000
0000
1300
0100
,  // measure 40
0000
0000
0001
0000
0100
0010
1000
0000
,  // measure 41
1001
0000
1000
0000
0001
0010
0001
0000
,  // measure 42
1000
0100
0010
0000
0001
0100
0010
1000
,  // measure 43
0000
0000
0001
0000
1000
0100
1000
0000
,  // measure 44
0001
0010
0100
0000
1000
0000
0001
0000
,  // measure 45
1001
0000
0001
0000
1000
0100
1000
0000
,  // measure 46
0001
0010
0100
0000
1000
0010
0100
0002
,  // measure 47
0000
0000
0000
0000
1003
0100
1000
0000
,  // measure 48
0001
0100
0001
1000
0100
0010
0001
0000
,  // measure 49
1001
0000
0000
0001
0000
0000
0101
0000
,  // measure 50
0000
1000
0000
0000
1010
0000
0010
0000
,  // measure 51
1001
0000
0000
1000
0000
0000
1010
0000
,  // measure 52
0000
0001
0000
0000
0101
0000
0100
0000
,  // measure 53
2001
0001
3001
0010
,  // measure 54
1000
0010
0001
1000
,  // measure 55
1001
1010
1001
1001
,  // measure 56
1000
0100
1000
0100
1000
0001
0100
0000
,  // measure 57
1001
0101
1001
1001
,  // measure 58
0001
0010
0001
0010
0001
1000
0010
0000
,  // measure 59
1001
0000
0001
0100
0000
0010
1000
0000
,  // measure 60
0001
0100
0000
0010
1000
0000
0001
0000
,  // measure 61
2001
0000
0000
0000
0000
3001
0010
0001
,  // measure 62
1000
0100
0001
0100
,  // measure 63
1001
0000
1000
0010
0000
1000
0000
0002
,  // measure 64
0000
0000
0000
0000
1003
0100
1000
0010
,  // measure 65
0100
0000
0001
0100
0000
0001
0000
2000
,  // measure 66
0000
0000
0000
0000
3001
0010
0001
0000
,  // measure 67
1001
0000
1000
0100
0000
1000
0000
0001
,  // measure 68
0100
0010
0100
0000
0001
1000
0001
0000
,  // measure 69
1000
0000
0001
0000
0010
0001
0000
1000
,  // measure 70
0000
0100
1000
0000
1001
0000
0000
0000
,  // measure 71
1001
0000
1000
0010
0000
0100
0001
0000
,  // measure 72
0001
0000
1000
0100
1000
0001
0100
0000
,  // measure 73
1001
0000
0001
0100
0000
0010
1000
0000
,  // measure 74
1000
0000
0001
0010
0001
1000
0010
0000
,  // measure 75
1001
0000
1000
0100
0000
0010
0001
0000
,  // measure 76
1000
0100
0000
0010
0001
0000
1000
0000
,  // measure 77
0002
0000
0000
0000
0000
1003
0100
0010
,  // measure 78
0001
0100
0100
0100
,  // measure 79
1001
1001
1001
1001
,  // measure 80
0011
0011
0011
0011
,  // measure 81
1001
1001
1001
1001
,  // measure 82
1100
1100
1100
1100
,  // measure 83
0101
0000
0101
0000
0100
0001
1000
0000
,  // measure 84
1010
0000
1010
0000
0010
1000
0001
0000
,  // measure 85
0011
0000
0011
0000
0010
0001
1000
0000
,  // measure 86
1100
0000
1100
0000
0100
1000
0001
0000
,  // measure 87
1001
0000
0000
0011
0000
0000
0101
0000
,  // measure 88
0000
1001
0000
0000
1100
0000
1100
0000
,  // measure 89
1001
0000
0000
1100
0000
0000
1010
0000
,  // measure 90
0000
1001
0000
0000
0011
0000
0011
0000
,  // measure 91
1000
0000
0000
0000
;

//---------------dance-single - ----------------
#NOTES:
     dance-single:
     :
     Hard:
     9:
     0.704,0.687,0.238,0.161,0.000: // measure 1
0011
0100
1000
0011
,  // measure 2
1000
0000
0001
1000
0001
0000
0000
0000
,  // measure 3
1100
0010
0001
1100
,  // measure 4
0001
0000
1000
0000
0001
1000
0001
0000
,  // measure 5
1000
0010
0000
1000
0010
0000
0100
0002
,  // measure 6
0000
1000
0000
0000
1000
0000
1003
0000
,  // measure 7
0001
0100
0000
0001
0100
0000
0010
1000
,  // measure 8
0100
0100
0100
0100
,  // measure 9
1002
0000
0010
0000
0013
0000
0001
1000
,  // measure 10
0001
0000
0100
0010
0000
1000
0010
0000
,  // measure 11
2001
0000
0100
0000
3100
0000
1000
0001
,  // measure 12
1000
0000
0010
0100
0000
0001
0100
0000
,  // measure 13
1002
0000
0010
0000
0013
0000
0001
1000
,  // measure 14
0001
0000
0100
0010
0000
1000
0010
0000
,  // measure 15
2001
0000
0100
0000
3100
0000
1000
0001
,  // measure 16
1000
0001
1000
0000
0001
0010
0100
1000
,  // measure 17
0002
1000
1000
1000
,  // measure 18
1003
0010
0100
0001
,  // measure 19
2000
0001
0001
0001
,  // measure 20
3001
0100
0010
1000
,  // measure 21
0002
1000
1000
1000
,  // measure 22
1003
0010
0100
0001
,  // measure 23
2000
0001
0001
0001
,  // measure 24
3001
0000
0001
1000
0001
1000
0001
0010
,  // measure 25
0100
0000
1000
0100
0010
0000
0001
1000
,  // measure 26
0010
0000
1000
0100
0010
0001
1000
0010
,  // measure 27
2000
0000
0001
0000
3001
0010
0001
1000
,  // measure 28
0100
0000
1000
0100
0010
0001
1000
0010
,  // measure 29
2000
0000
0001
0000
3001
0010
0001
1000
,  // measure 30
0100
0000
1000
0100
0010
0001
1000
0010
,  // measure 31
2000
0000
0001
0000
3001
0010
0100
0010
,  // measure 32
0000
0001
0010
0100
0000
1000
0100
0010
,  // measure 33
0001
0100
0001
0100
0001
0100
0001
0000
,  // measure 34
1000
0001
0010
0100
1000
0001
0010
0001
,  // measure 35
1000
0010
1000
0010
1000
0010
1000
0000
,  // measure 36
0001
1000
0100
0010
0001
1000
0100
1000
,  // measure 37
0001
0100
0001
0100
0001
0100
0001
0000
,  // measure 38
1000
0001
0010
0100
1000
0001
0010
0000
,  // measure 39
0001
1000
0100
0010
0001
1000
0100
1000
,  // measure 40
0010
0100
0001
0010
0001
0010
0001
1000
,  // measure 41
1001
0000
1000
0000
1000
0100
1000
0001
,  // measure 42
0010
0000
0001
0010
0100
1000
0001
1001
,  // measure 43
0000
0000
0001
0000
0001
0010
0001
1000
,  // measure 44
0100
1000
1001
0001
,  // measure 45
1001
0000
0001
0000
0001
0010
0001
1000
,  // measure 46
0100
0000
1000
0100
0010
0001
1000
1001
,  // measure 47
0000
0000
1000
0000
1000
0100
1000
0100
,  // measure 48
1000
0001
0010
0100
1000
0001
0010
0001
,  // measure 49
1000
0010
0000
0001
0010
0000
1000
0010
,  // measure 50
0000
0001
0010
0000
1100
0000
1001
0000
,  // measure 51
0001
0100
0000
1000
0100
0000
0001
0100
,  // measure 52
0000
1000
0100
0000
0011
0000
1001
0000
,  // measure 53
0001
1000
0100
0010
0001
1000
0010
2000
,  // measure 54
0000
0000
3001
0000
1000
0001
1001
0000
,  // measure 55
0001
0010
0001
0100
0001
0010
0100
1000
,  // measure 56
0010
0100
0001
1000
0100
0010
0100
0000
,  // measure 57
1000
0100
1000
0010
1000
0100
0010
0001
,  // measure 58
0100
0010
1000
0001
0010
0100
0010
0000
,  // measure 59
1001
0000
0001
0100
0000
1000
0100
0001
,  // measure 60
0100
0010
0000
1000
0100
0010
0001
1000
,  // measure 61
0002
0000
1000
0000
1003
0100
0010
0001
,  // measure 62
1000
0100
1000
0000
1001
0000
0001
0000
,  // measure 63
1001
0000
1000
0020
0000
0100
0000
0031
,  // measure 64
0000
0000
0010
0000
1000
0100
0010
0001
,  // measure 65
1000
0000
0001
0020
0000
0100
0000
1030
,  // measure 66
0000
0010
0001
1000
,  // measure 67
1001
0000
1000
0200
0000
0010
0000
0301
,  // measure 68
0000
0000
0100
0000
1000
0000
0100
1000
,  // measure 69
0001
0000
1000
0000
0001
0200
0000
0010
,  // measure 70
0000
1300
0100
0000
0001
0010
0100
1000
,  // measure 71
0001
0010
0001
1000
0001
0010
0100
1000
,  // measure 72
0001
0010
0001
1000
0100
0010
0100
0000
,  // measure 73
1000
0010
1000
0001
1000
0100
0010
0001
,  // measure 74
1000
0100
1000
0001
0010
0100
0010
0000
,  // measure 75
0001
1000
0100
0001
0000
0100
1000
0010
,  // measure 76
0100
0001
0000
0010
0100
1000
0001
0100
,  // measure 77
0002
0000
1000
0000
1003
0100
0010
0001
,  // measure 78
1000
0100
1000
0000
1001
0000
1001
0000
,  // measure 79
0001
0100
0001
1000
0001
0010
1000
0010
,  // measure 80
0001
1000
0001
0010
0001
0100
1000
0100
,  // measure 81
0001
1000
0100
1000
0001
0100
1000
0100
,  // measure 82
0001
1000
0010
1000
0100
0010
0001
0000
,  // measure 83
1000
0001
1000
0100
1000
0010
0001
0010
,  // measure 84
1000
0001
1000
0010
1000
0100
0001
0100
,  // measure 85
1000
0001
1000
0100
0001
0100
1000
0010
,  // measure 86
0001
0010
1000
0100
0010
0001
0100
0000
,  // measure 87
0001
0100
0000
1000
0100
0000
0001
0100
,  // measure 88
0000
1000
0100
0000
0011
0000
1001
0000
,  // measure 89
0001
0010
0000
1000
0010
0000
0001
0010
,  // measure 90
0000
1000
0010
0000
0101
0000
1001
0000
,  // measure 91
1000
0000
0000
0000
;

//---------------dance-single - ----------------
#NOTES:
     dance-single:
     :
     Beginner:
     2:
     0.103,0.191,0.136,0.000,0.000: // measure 1
0000
0000
0000
0000
,  // measure 2
0000
0000
0000
0000
,  // measure 3
0000
0000
0000
0000
,  // measure 4
0000
0000
0000
0000
,  // measure 5
1000
0000
0000
0000
,  // measure 6
0000
0000
0000
0000
,  // measure 7
0001
0000
0000
0000
,  // measure 8
0000
0000
0000
0000
,  // measure 9
1001
0000
0000
0000
,  // measure 10
0001
0000
0000
0000
,  // measure 11
1000
0000
0000
0000
,  // measure 12
0001
0000
0000
0000
,  // measure 13
1000
0000
0000
0000
,  // measure 14
0001
0000
0000
0000
,  // measure 15
1000
0000
0000
0000
,  // measure 16
0001
0000
0000
0000
,  // measure 17
1001
0000
0000
0000
,  // measure 18
0000
0000
0000
0000
,  // measure 19
0000
0000
0000
0000
,  // measure 20
0000
0000
1000
0000
,  // measure 21
0000
0000
0000
0000
,  // measure 22
0000
0000
0000
0000
,  // measure 23
0001
0000
0000
0000
,  // measure 24
0000
0000
0000
0000
,  // measure 25
1001
0000
0000
0000
,  // measure 26
1000
0000
0000
0000
,  // measure 27
0001
0000
0000
0000
,  // measure 28
1000
0000
0000
0000
,  // measure 29
0001
0000
0000
0000
,  // measure 30
1000
0000
0000
0000
,  // measure 31
0100
0000
0000
0000
,  // measure 32
0010
0000
0000
0000
,  // measure 33
1001
0000
0000
0000
,  // measure 34
0000
0000
0000
0000
,  // measure 35
0001
0000
0000
0000
,  // measure 36
0000
0000
0000
0000
,  // measure 37
1001
0000
0000
0000
,  // measure 38
0000
0000
0000
0000
,  // measure 39
1000
0000
0000
0000
,  // measure 40
0000
0000
0000
0000
,  // measure 41
1001
0000
0000
0000
,  // measure 42
0001
0000
0000
0000
,  // measure 43
0010
0000
0000
0000
,  // measure 44
0001
0000
0000
0000
,  // measure 45
1000
0000
0000
0000
,  // measure 46
0100
0000
0000
0000
,  // measure 47
1000
0000
0000
0000
,  // measure 48
0000
0000
0000
0000
,  // measure 49
1001
0000
0000
0000
,  // measure 50
0000
0000
0000
0000
,  // measure 51
0110
0000
0000
0000
,  // measure 52
0000
0000
0000
0000
,  // measure 53
1001
0000
0000
0000
,  // measure 54
0000
0000
0000
0000
,  // measure 55
1000
0000
0000
0000
,  // measure 56
0001
0000
0000
0000
,  // measure 57
1000
0000
0000
0000
,  // measure 58
1000
0000
0000
0000
,  // measure 59
0001
0000
0000
0000
,  // measure 60
1000
0000
0000
0000
,  // measure 61
0001
0000
0000
0000
,  // measure 62
0001
0000
0000
0000
,  // measure 63
1001
0000
0000
0000
,  // measure 64
0000
0000
0000
0000
,  // measure 65
1000
0000
0000
0000
,  // measure 66
0000
0000
0000
0000
,  // measure 67
0001
0000
0000
0000
,  // measure 68
0000
0000
0000
0000
,  // measure 69
1000
0000
0000
0000
,  // measure 70
0000
0000
0000
0000
,  // measure 71
1001
0000
0000
0000
,  // measure 72
0001
0000
0000
0000
,  // measure 73
1001
0000
0000
0000
,  // measure 74
1000
0000
0000
0000
,  // measure 75
1001
0000
0000
0000
,  // measure 76
0001
0000
0000
0000
,  // measure 77
1000
0000
0000
0000
,  // measure 78
0000
0000
0000
0000
,  // measure 79
1001
0000
0001
0000
,  // measure 80
0001
0000
0000
0000
,  // measure 81
1000
0000
1000
0000
,  // measure 82
1000
0000
0000
0000
,  // measure 83
0001
0000
1000
0000
,  // measure 84
0001
0000
0000
0000
,  // measure 85
1000
0000
0001
0000
,  // measure 86
1000
0000
0000
0000
,  // measure 87
1001
0000
0000
0000
,  // measure 88
0000
0000
0000
0000
,  // measure 89
0110
0000
0000
0000
,  // measure 90
0000
0000
0000
0000
,  // measure 91
0001
0000
0000
0000
;
