#TITLE:幸せを謳う詩;
#SUBTITLE:;
#ARTIST:あさき;
#TITLETRANSLIT:SHIAWASE WO UTAU UTA;
#SUBTITLETRANSLIT:;
#ARTISTTRANSLIT:Asaki;
#CREDIT:DigiMindAxel;
#BANNER:SHIAWASE WO UTAU UTA.png;
#BACKGROUND:SHIAWASE WO UTAU UTA-bg.png;
#LYRICSPATH:;
#CDTITLE:pop'n music.png;
#MUSIC:SHIAWASE WO UTAU UTA.mp3;
#OFFSET:-10.144;
#SAMPLESTART:29.838;
#SAMPLELENGTH:12.000;
#SELECTABLE:YES;
#BPMS:0.000=95.005,12.000=87.500,20.000=90.000,30.000=185.000,54.000=180.000,145.500=90.000,156.000=79.500,157.000=65.000,157.750=64.500,158.500=64.000,159.500=47.500,160.500=45.000,161.000=210.000,253.000=83.500;
#STOPS:125.500=0.167
;
#BGCHANGES:;

//---------------dance-single - ----------------
#NOTES:
     dance-single:
     :
     Hard:
     8:
     0.451,0.458,0.244,0.130,0.020: // measure 1
2000
0000
0000
3001
,  // measure 2
0100
0010
2000
0000
,  // measure 3
0000
3001
0000
0000
,  // measure 4
0000
1000
0100
0010
,  // measure 5
0001
0000
0000
0000
0000
0000
0000
0000
1000
0000
0000
0000
0000
0000
0000
0000
0001
0000
0000
0000
0000
1001
0000
0000
0000
0000
0000
0000
0000
0000
0000
0000
,  // measure 6
0100
0010
0001
0010
,  // measure 7
0100
1000
0100
0010
,  // measure 8
0100
0000
1000
0000
0001
0100
0010
0000
,  // measure 9
0100
0010
0100
0000
0001
0100
0010
0100
,  // measure 10
0001
0000
0010
0000
0100
0000
1000
0010
,  // measure 11
0100
0000
0010
0100
0010
0000
1000
0100
,  // measure 12
0010
0002
0000
1003
0001
0010
0100
0000
,  // measure 13
1000
0001
1000
0000
0001
0000
1000
0000
,  // measure 14
1001
0000
0100
0000
1100
0000
0000
0110
,  // measure 15
0000
0000
0011
0000
0000
1001
0000
0000
,  // measure 16
0010
0000
1001
0000
0100
0000
1000
0100
,  // measure 17
0010
0001
1000
0002
0000
1000
1003
0100
,  // measure 18
1000
0000
1001
0000
0002
0000
1003
0100
,  // measure 19
1000
0100
0001
0100
1000
0100
0010
0001
,  // measure 20
0100
0010
0100
0000
0001
0100
0001
0100
,  // measure 21
1000
0100
0001
0010
0100
1000
0010
0100
,  // measure 22
0010
0000
1000
0100
0010
0100
0000
0000
,  // measure 23
1000
0001
0000
0000
0010
0100
0000
1000
,  // measure 24
0100
0010
0001
0000
2001
0000
0001
0000
,  // measure 25
3001
0000
0000
0110
0000
0000
0110
0000
,  // measure 26
1001
0000
0000
0000
0001
0010
0001
0010
,  // measure 27
0001
1000
0100
1000
0100
1000
0100
0010
,  // measure 28
0001
0010
0100
0000
1000
0010
1000
0010
,  // measure 29
1000
0001
0100
0001
0100
0001
0100
0010
,  // measure 30
1000
0100
0010
0001
1000
0000
1100
0000
,  // measure 31
0001
0011
1000
1001
,  // measure 32
0001
0010
0100
1000
0001
0100
0010
0100
,  // measure 33
0001
1000
0100
1000
0100
0010
0001
0010
,  // measure 34
0100
1000
0010
0100
0010
1000
0010
0100
,  // measure 35
0010
1000
0002
0000
1000
1003
0000
0001
,  // measure 36
0010
0100
2000
0000
0001
3001
0000
1000
,  // measure 37
0100
0010
0002
0000
0000
1000
0000
1003
,  // measure 38
0000
1000
0000
0010
0000
0100
0000
0001
,  // measure 39
0000
0010
0000
0100
0000
2000
0000
0000
,  // measure 40
3002
0000
0000
0000
0000
0000
0000
0103
,  // measure 41
0100
0010
1000
0100
1000
0100
1000
0100
,  // measure 42
1000
0010
0000
0100
0001
0010
0001
0010
,  // measure 43
0001
0010
0001
0000
1001
0000
1000
0000
,  // measure 44
1010
0000
0001
0000
0101
0000
1000
0001
,  // measure 45
1000
0000
1001
0000
0100
1000
0100
0000
,  // measure 46
0010
0001
0010
0001
1000
0100
0010
0001
,  // measure 47
1000
0000
1001
0000
0010
0100
0010
0000
,  // measure 48
1000
0002
0000
0000
1000
0000
1000
0000
,  // measure 49
1003
0000
0000
0000
1001
0000
1000
0010
,  // measure 50
0100
0010
0000
0100
0001
0000
0010
0000
,  // measure 51
0100
0000
1000
0001
1000
0000
0010
0100
,  // measure 52
0001
2000
0000
0000
0001
0000
0001
0000
,  // measure 53
3001
0000
0000
0000
1001
0000
0001
0100
,  // measure 54
0010
0100
0001
0000
1000
0100
1000
0000
,  // measure 55
0001
0010
0001
0000
1000
0010
0100
0001
,  // measure 56
1000
0000
1100
0000
0000
0011
0000
0000
,  // measure 57
1001
0000
0100
1000
0100
1000
0100
1000
,  // measure 58
0001
0100
0001
0100
0001
0010
0100
1000
,  // measure 59
0001
0010
0100
0000
1010
0000
0010
0000
,  // measure 60
0101
1000
1001
0001
,  // measure 61
1001
0000
0000
0000
1001
0000
0010
1000
,  // measure 62
0010
1000
0001
0000
0010
0000
0100
0000
,  // measure 63
1000
0000
0000
0001
0000
0100
0000
0010
0000
1000
0000
0001
,  // measure 64
0000
2000
0000
0000
0000
0000
0000
0000
0000
3001
0000
0000
,  // measure 65
0000
0010
0000
0000
0100
1000
0001
0001
,  // measure 66
0100
0010
0200
0000
0020
0000
0000
0000
,  // measure 67
0000
0000
0000
0330
0000
0000
0000
0000
;

//---------------dance-single - ----------------
#NOTES:
     dance-single:
     :
     Medium:
     6:
     0.380,0.377,0.089,0.154,0.020: // measure 1
2000
0000
0000
3001
,  // measure 2
0000
0001
2000
0000
,  // measure 3
0000
3001
0000
0000
,  // measure 4
0000
1000
0001
0010
,  // measure 5
0100
0000
0000
0000
0000
0000
0000
0000
1000
0000
0000
0000
0000
0000
0000
0000
0001
0000
0000
0000
0000
1000
0000
0000
0000
0000
0000
0000
0000
0000
0000
0000
,  // measure 6
0000
0000
0010
0100
0010
0000
0010
0100
,  // measure 7
0010
0000
1000
0001
1000
0000
0001
1000
,  // measure 8
0001
0000
0100
0010
,  // measure 9
0100
0000
0010
0000
1000
0001
1000
0000
,  // measure 10
0010
0100
0010
0000
1000
0000
0010
0000
,  // measure 11
0100
0001
1000
0010
,  // measure 12
0100
0001
0000
1001
0000
0001
0010
0001
,  // measure 13
0100
0010
0100
0000
0001
0000
0010
0000
,  // measure 14
0100
0000
1000
0000
0200
0000
0000
2300
,  // measure 15
0000
0000
3020
0000
0000
0230
0000
0000
,  // measure 16
0301
0000
1001
0000
1000
0100
1000
0000
,  // measure 17
0001
1000
0000
1001
0000
0000
0001
1000
,  // measure 18
0001
1001
1000
0001
,  // measure 19
0100
0010
1000
0000
0100
0000
1000
0000
,  // measure 20
0100
0010
0001
0000
0010
0000
0001
0000
,  // measure 21
0010
0001
0010
0000
0100
1000
0100
0000
,  // measure 22
1000
0001
1000
0000
0010
0010
0000
0000
,  // measure 23
0100
0100
0000
0000
0010
0010
0000
0000
,  // measure 24
0100
0010
0100
0000
0020
0000
0100
0000
,  // measure 25
0130
0010
0100
0002
0000
0000
1003
0000
,  // measure 26
0010
0100
0010
0000
0100
0010
1000
0000
,  // measure 27
0100
0010
0001
0000
0100
0010
0100
0000
,  // measure 28
0001
0100
0010
0000
1000
0100
0010
0000
,  // measure 29
0001
0100
0010
0000
1000
0100
1000
0010
,  // measure 30
0100
0000
0010
0100
0010
0000
2000
0000
,  // measure 31
3010
0200
0301
2000
,  // measure 32
3001
0000
1000
0001
0100
0000
0010
0000
,  // measure 33
0100
0010
0100
0001
0000
0010
0000
0100
,  // measure 34
0000
1000
0001
1000
0000
0010
0000
0100
,  // measure 35
0010
0100
0002
0000
0000
1000
0000
1003
,  // measure 36
0010
0100
0001
0000
0000
1000
0001
0010
,  // measure 37
0100
1000
0001
0000
0000
0000
0000
0000
,  // measure 38
0000
0100
0000
0010
0000
0100
0000
0001
,  // measure 39
0100
0000
0010
0000
0100
0002
0000
0000
,  // measure 40
2003
0000
0000
0000
0000
0000
0000
3010
,  // measure 41
0010
0010
1000
0000
0001
0000
0100
0010
,  // measure 42
0100
0000
0010
0100
0010
0000
1000
0000
,  // measure 43
0001
1001
1000
0001
,  // measure 44
0100
0001
0100
0000
0010
1000
0010
0000
,  // measure 45
1000
1001
0010
0100
,  // measure 46
0001
0000
0010
0100
0010
0000
0001
1000
,  // measure 47
0001
0000
0010
0100
1000
0000
0001
0000
,  // measure 48
0100
0010
0000
0000
0100
0000
0010
0000
,  // measure 49
0100
0000
1001
0001
,  // measure 50
0100
0020
0000
0000
1030
0000
0100
0000
,  // measure 51
0010
0000
0001
1000
0001
0000
1000
0100
,  // measure 52
0010
0001
0000
0000
0000
0000
1000
0001
,  // measure 53
1000
0000
1001
0001
,  // measure 54
1000
0100
0010
0001
,  // measure 55
1000
0000
0010
0100
0010
0000
1000
0000
,  // measure 56
0001
0000
2000
0000
0000
3002
0000
0000
,  // measure 57
0103
0010
0100
0000
0001
0000
0010
0000
,  // measure 58
0100
0000
1000
0100
0010
0000
0001
0010
,  // measure 59
0100
0000
1000
0001
1000
0000
0010
0100
,  // measure 60
0010
0100
0010
0000
0010
0000
0110
0000
,  // measure 61
1001
0000
1001
1000
,  // measure 62
0001
0000
0100
0010
0100
0000
0010
0100
,  // measure 63
0010
0000
0000
1000
0000
0001
0000
1000
0000
0001
0000
1000
,  // measure 64
0000
0002
0000
0000
0000
0000
0000
0000
0000
1003
0000
0000
,  // measure 65
0000
0100
0000
0000
1000
0001
0000
0000
,  // measure 66
0100
0010
0200
0000
0000
0000
0000
0000
,  // measure 67
0000
0000
0000
0310
0000
0000
0000
0000
;

//---------------dance-single - ----------------
#NOTES:
     dance-single:
     :
     Easy:
     4:
     0.262,0.274,0.089,0.106,0.004: // measure 1
2002
0000
0000
3003
,  // measure 2
0000
2000
0002
0000
,  // measure 3
3003
0020
0000
0000
,  // measure 4
0000
0230
0000
0000
,  // measure 5
0000
0000
0000
0000
,  // measure 6
0300
0001
0000
0010
,  // measure 7
0000
0100
0000
1000
,  // measure 8
0000
0000
0100
0010
,  // measure 9
0001
0010
0001
0010
,  // measure 10
0100
1000
0010
0100
,  // measure 11
0010
0100
0010
0000
,  // measure 12
1001
0000
1000
0001
,  // measure 13
1000
0010
0100
0100
,  // measure 14
0010
0000
0010
0000
1001
0000
0000
0100
,  // measure 15
0000
0000
0010
0000
0000
0001
0000
0000
,  // measure 16
0100
0010
0100
0001
,  // measure 17
1000
0000
0000
1001
0000
0000
0000
0000
,  // measure 18
0001
0001
1000
0100
,  // measure 19
1000
0010
0100
0010
,  // measure 20
1000
0100
0010
0001
,  // measure 21
0010
0100
0010
0001
,  // measure 22
1000
0001
1001
0000
,  // measure 23
1001
0000
1001
0000
,  // measure 24
1001
0000
2000
0000
,  // measure 25
3001
0010
0100
0000
,  // measure 26
2000
0000
3001
1000
,  // measure 27
0100
0010
0001
0010
,  // measure 28
0001
0010
0001
0010
,  // measure 29
0100
1000
0100
1000
,  // measure 30
0100
0010
0001
0000
,  // measure 31
0010
0000
0100
0000
,  // measure 32
1000
0000
0001
0000
0000
1000
0000
0001
,  // measure 33
0000
0100
0000
0010
0000
0100
0000
0010
,  // measure 34
0000
1000
0000
0001
0000
0010
0000
0100
,  // measure 35
0000
1000
0000
0100
0000
0010
0000
0001
,  // measure 36
0000
1000
0001
0000
0000
1000
0000
0100
,  // measure 37
0000
0010
0000
0001
0000
0000
0000
0000
,  // measure 38
0000
1000
0000
0000
0000
0010
0000
0000
,  // measure 39
0100
0000
0000
0000
0000
0010
0000
0000
,  // measure 40
0200
0000
0000
0000
0000
0000
0000
0320
,  // measure 41
0000
0130
0001
0010
,  // measure 42
0100
1000
0100
0010
,  // measure 43
0001
0100
0010
0100
,  // measure 44
0010
0100
0001
1000
,  // measure 45
0010
0100
0001
0010
,  // measure 46
0100
1000
0001
1000
,  // measure 47
0010
0100
0010
1000
,  // measure 48
0000
0001
0000
0000
0000
0000
0100
0000
,  // measure 49
0010
0000
1001
0100
,  // measure 50
0010
0001
0100
0001
,  // measure 51
0010
0001
0010
0100
,  // measure 52
1000
0001
0000
0000
0000
0000
0100
0000
,  // measure 53
0010
0000
1001
0010
,  // measure 54
0100
1000
0010
0100
,  // measure 55
0010
1000
0000
0001
,  // measure 56
0000
0000
0100
0000
0000
0100
0000
0000
,  // measure 57
0100
0001
0010
0100
,  // measure 58
1000
0100
0010
0001
,  // measure 59
1000
0010
0100
0010
,  // measure 60
1000
0100
0010
0001
,  // measure 61
1000
0000
1001
0100
,  // measure 62
0010
0001
1000
0001
,  // measure 63
0010
0200
0000
2300
,  // measure 64
0000
3001
0000
0000
0000
0000
0000
0000
0000
0100
0000
0000
,  // measure 65
0000
0010
0000
0000
0100
0000
0000
0000
,  // measure 66
0000
0010
0000
0000
,  // measure 67
0000
0000
0000
0020
0000
0000
0000
0000
,  // measure 68
0000
0000
0030
0000
;

//---------------dance-single - ----------------
#NOTES:
     dance-single:
     :
     Beginner:
     2:
     0.118,0.132,0.024,0.000,0.000: // measure 1
0001
0000
0000
0000
,  // measure 2
0000
0000
0001
0000
,  // measure 3
0000
0000
0000
0000
,  // measure 4
0000
1000
0000
0000
,  // measure 5
0000
0000
0000
0000
,  // measure 6
0000
0001
0000
0000
,  // measure 7
0000
0000
0000
0000
,  // measure 8
0000
0000
1000
0000
,  // measure 9
1000
0000
1000
0000
,  // measure 10
1000
0000
0001
0000
,  // measure 11
0001
0000
0001
0000
,  // measure 12
0001
0000
0100
0000
,  // measure 13
0100
0000
0010
0000
,  // measure 14
0010
0000
0110
0000
,  // measure 15
0000
0000
0000
0000
,  // measure 16
0000
0000
0100
0000
,  // measure 17
0010
0000
0100
0000
,  // measure 18
0001
0000
1000
0000
,  // measure 19
0001
0000
1000
0000
,  // measure 20
0010
0000
1000
0000
,  // measure 21
0010
0000
0100
0000
,  // measure 22
0001
0000
0001
0000
,  // measure 23
0001
0000
0001
0000
,  // measure 24
1001
0000
1000
0000
,  // measure 25
0000
0000
0000
0000
,  // measure 26
0010
0000
0010
0000
,  // measure 27
1000
0000
0001
0000
,  // measure 28
1000
0000
0001
0000
,  // measure 29
0100
0000
0010
0000
,  // measure 30
0100
0000
0001
0000
,  // measure 31
0010
0000
0100
0000
,  // measure 32
1000
0000
0000
0000
0000
0000
0000
0010
,  // measure 33
0000
0000
0000
0100
0000
0000
0000
0010
,  // measure 34
0000
0000
0000
1000
0000
0000
0000
0001
,  // measure 35
0000
0000
0000
1000
0000
0000
0000
0100
,  // measure 36
0000
0000
0000
0010
0000
0000
0000
0001
,  // measure 37
0000
1000
0000
0000
,  // measure 38
0000
0000
0000
0000
,  // measure 39
0000
0000
0000
0000
,  // measure 40
0000
0000
0000
0000
,  // measure 41
0000
0100
0000
0100
,  // measure 42
0000
0100
0000
0100
,  // measure 43
0000
0001
0000
1000
,  // measure 44
0000
0001
0000
1000
,  // measure 45
0000
0001
0000
0010
,  // measure 46
0000
0001
0000
0010
,  // measure 47
0000
0001
0000
1000
,  // measure 48
0000
0100
0000
0000
,  // measure 49
0000
0000
1000
0000
,  // measure 50
0100
0000
1000
0000
,  // measure 51
0010
0000
1000
0000
,  // measure 52
0010
0000
0000
0000
,  // measure 53
0000
0000
0100
0000
,  // measure 54
0001
0000
0100
0000
,  // measure 55
0001
0000
1000
0000
,  // measure 56
0001
0000
0000
0000
,  // measure 57
0000
1000
0000
1000
,  // measure 58
0000
0100
0000
0010
,  // measure 59
0000
0001
0000
0001
,  // measure 60
0000
0010
0000
0100
,  // measure 61
0000
0000
1001
0000
,  // measure 62
1000
0000
0010
0000
,  // measure 63
0100
0000
0000
0000
,  // measure 64
0000
0000
0000
0010
,  // measure 65
0000
0000
0100
0000
,  // measure 66
0000
0010
0000
0000
;

//---------------dance-single - ----------------
#NOTES:
     dance-single:
     :
     Challenge:
     9:
     0.572,0.602,0.268,0.309,0.024: // measure 1
1002
0000
1000
2003
,  // measure 2
3200
0302
0203
1300
,  // measure 3
0010
0220
0000
0000
,  // measure 4
0330
1000
0010
0001
,  // measure 5
0010
0000
0000
0000
0000
0000
0000
0000
1000
0000
0000
0000
0000
0000
0000
0000
0001
0000
0000
0000
0000
1001
0000
0000
0000
0000
0000
0000
0000
0000
0000
0000
,  // measure 6
1000
0100
1000
0001
0100
0000
0010
1000
,  // measure 7
0100
0000
1000
0100
1000
0001
0010
0100
,  // measure 8
1000
0000
1000
0000
0001
0100
0010
0100
,  // measure 9
0001
0100
0010
0100
0001
0100
1000
0100
,  // measure 10
0001
0010
0100
1000
0010
0100
0010
1000
,  // measure 11
0100
0010
0001
0100
0010
0100
0001
0010
,  // measure 12
0100
2000
0000
3001
1000
0100
0010
0001
,  // measure 13
0100
1000
0100
0001
1000
0000
1100
0000
,  // measure 14
1001
0000
0011
0000
0200
0000
1300
0020
,  // measure 15
0000
0130
0002
0000
0013
0200
0000
1300
,  // measure 16
0001
0000
1001
0000
0001
0100
0001
1000
,  // measure 17
0100
1000
0001
1001
0000
1000
0010
1000
,  // measure 18
0010
0100
0001
0000
1000
0010
1000
0001
,  // measure 19
0010
0001
1000
0100
0001
0100
1000
0100
,  // measure 20
0010
0001
0100
0010
1000
0000
0001
0010
,  // measure 21
0001
1000
0010
1000
0001
0100
1000
0100
,  // measure 22
0001
0010
0100
1000
0001
0101
0000
0000
,  // measure 23
1000
1100
0000
0000
1001
1001
0000
1000
,  // measure 24
0001
0010
0100
1000
0010
0100
0010
1000
,  // measure 25
0001
1000
0100
0010
0000
0000
0110
0000
,  // measure 26
1001
0000
0000
0000
0001
0100
0010
0100
,  // measure 27
0001
0100
0010
0100
0001
0100
1000
0100
,  // measure 28
0001
0010
0100
1000
0010
0100
0010
1000
,  // measure 29
0010
0100
0010
1000
0010
1000
0100
0001
,  // measure 30
0100
1000
0001
0010
0200
0000
1300
0100
,  // measure 31
0020
0000
0031
0010
0200
0000
1300
0001
,  // measure 32
0010
0100
1000
0001
1000
0100
0010
0100
,  // measure 33
1000
0001
0100
1000
0100
0001
0010
0100
,  // measure 34
0010
0001
1000
0010
0001
0010
1000
0100
,  // measure 35
0010
0001
2000
0000
0001
3001
0000
1000
,  // measure 36
0100
0010
0002
0000
1000
1003
0000
0001
,  // measure 37
0010
0100
2000
0000
0001
0001
3001
0100
,  // measure 38
1000
0100
0010
1000
0001
0001
1000
0100
,  // measure 39
0001
0100
0010
0001
1000
0100
0010
0001
,  // measure 40
0210
0000
0000
0000
0320
0000
0000
2030
,  // measure 41
3002
2003
3001
0010
0100
0010
0001
0100
,  // measure 42
0010
1000
0010
0100
0010
1000
0100
0001
,  // measure 43
0100
1000
0001
0000
0101
0000
1001
0000
,  // measure 44
0001
2000
0000
0010
3010
0000
1010
0000
,  // measure 45
1001
0000
1000
0100
0010
0100
1000
0010
,  // measure 46
0100
0001
0100
0010
0100
0001
0100
1000
,  // measure 47
0100
0001
1000
0100
0010
0000
0001
0010
,  // measure 48
0100
2000
0000
3001
0010
0100
1000
0001
,  // measure 49
1000
0100
0000
0000
1100
0000
1001
0000
,  // measure 50
1000
0002
0000
0010
0013
0000
0011
0000
,  // measure 51
1001
0000
1001
0000
1000
0001
0010
0100
,  // measure 52
1000
0020
0000
0000
0130
0000
0001
0010
,  // measure 53
0100
1000
0000
0000
1001
0000
0001
0010
,  // measure 54
0100
0010
0001
1000
0010
0100
0010
1000
,  // measure 55
0100
0001
0100
1000
0010
0100
0010
1000
,  // measure 56
0100
0010
0001
0000
0000
1001
0000
0000
,  // measure 57
1001
0000
0001
0100
0010
0100
0001
0100
,  // measure 58
0010
0100
0001
0100
1000
0100
0001
1000
,  // measure 59
0010
0001
0010
1000
0010
0100
0010
1000
,  // measure 60
0010
0100
0010
1000
0100
0001
0100
1000
,  // measure 61
0001
0010
0100
0000
1001
0000
0100
1000
,  // measure 62
0010
0100
0001
0000
1001
0000
0110
0000
,  // measure 63
1001
0000
0000
1000
0000
0100
0000
0010
0000
0001
0000
1000
,  // measure 64
0000
0020
0000
0000
0000
0000
0000
0030
0000
1010
0000
0000
,  // measure 65
0000
0000
0101
0000
0000
0000
0000
0000
0001
0010
0100
0000
1000
0000
1000
0000
,  // measure 66
0001
0001
0200
0320
0230
0302
0023
0230
,  // measure 67
2300
3002
0203
0302
0000
0000
0000
0000
,  // measure 68
0000
0000
0000
0003
0000
0000
0000
0000
;
