#TITLE:防人恋歌;
#SUBTITLE:;
#ARTIST:Ax feat. 夏川陽子;
#TITLETRANSLIT:SAKIMORI RENKA;
#SUBTITLETRANSLIT:;
#ARTISTTRANSLIT:Ax feat. YOKO NATSUKAWA;
#CREDIT:DigiMindAxel;
#BANNER:SAKIMORI RENKA.png;
#BACKGROUND:SAKIMORI RENKA-bg.png;
#LYRICSPATH:SAKIMORI RENKA.lrc;
#CDTITLE:pop'n music.png;
#MUSIC:SAKIMORI RENKA.mp3;
#OFFSET:-10.340;
#SAMPLESTART:45.594;
#SAMPLELENGTH:12.000;
#SELECTABLE:YES;
#BPMS:0.000=170.000;
#STOPS:;
#BGCHANGES:;

//---------------dance-single - ----------------
#NOTES:
     dance-single:
     :
     Easy:
     3:
     0.231,0.339,0.119,0.187,0.000:
0000
0001
0001
0200
,
0000
0010
0000
0000
0000
0000
0000
0000
,
0300
0000
0002
0000
0000
0000
0000
1000
,
0000
1000
0000
0000
0000
0000
1003
0000
,
1000
0000
0020
0000
0000
0100
0000
0000
,
0000
0000
0000
1030
,
0002
0000
0000
1000
0000
1000
0000
0000
,
0000
2000
0000
0000
,
0000
0000
0000
3003
,
0200
0000
0000
0000
0000
0000
0000
0320
,
0000
0000
0000
0030
,
2000
0000
0000
0000
0000
0000
0000
3002
,
0000
0000
0000
0003
,
0200
0000
0000
0000
0000
0000
0000
0320
,
0000
0000
0000
0030
,
2000
0000
0000
0000
,
3001
0000
1000
0000
,
0001
0000
0100
0000
,
0010
0000
1000
0000
,
0100
0000
0100
0000
,
0010
0000
0010
0000
,
0001
0000
0100
0000
,
0010
0000
1000
0000
,
0002
0000
0000
0000
,
2000
0000
3003
0000
,
1001
0000
1001
0000
,
1000
0100
0010
0001
,
1000
0000
1000
0001
,
1000
0000
1000
0000
,
1001
0000
1001
0000
,
0001
0010
0100
1000
,
0001
0000
0001
1000
,
0001
0000
0001
0000
,
1000
0001
1000
0000
,
0010
1000
0001
0000
,
2000
0000
0000
0000
0000
0000
0000
0001
,
0000
0000
0000
0000
,
3002
0000
0000
0000
0000
1000
0000
1000
,
0000
0000
2003
0000
,
0000
0000
0000
0001
0000
0000
0000
0000
,
0000
0000
3002
0000
,
0000
1000
0000
1000
0000
0000
0000
0000
,
1003
0000
0000
0000
,
0100
0000
0000
0000
,
0010
0000
0000
0000
,
0002
0000
0000
0000
,
2003
0000
0000
0000
,
3001
0000
0100
0000
,
0010
0000
1000
0001
,
1000
0000
0010
0000
,
0010
0100
0010
0000
,
1000
0000
0010
0000
,
0100
0000
0001
0000
,
2000
0000
0001
0000
,
0002
0000
0000
3003
,
1001
0000
1001
0000
,
0001
0010
0100
1000
,
0001
0000
0001
1000
,
0001
0000
0001
0000
,
1001
0000
1001
0000
,
1000
0100
0010
0001
,
1000
0000
1000
0000
,
1000
0001
0100
0000
,
0000
1001
0000
1001
,
0010
0100
1000
0001
,
0000
1001
0000
1001
,
0100
0010
0001
1000
,
0001
1001
1000
1001
,
0001
0010
0100
1000
,
0010
0100
0010
0000
,
1000
0001
0100
0000
,
0010
1000
0001
0010
,
0100
1000
0001
0000
;

//---------------dance-single - ----------------
#NOTES:
     dance-single:
     :
     Medium:
     6:
     0.386,0.400,0.289,0.255,0.000:
0000
1000
0010
0200
,
0000
0302
0000
0000
0000
0000
0000
0000
,
0003
0000
1000
0000
0020
0000
0000
0100
,
0000
0130
0000
0000
0000
0000
0010
0000
,
0100
0000
0020
0000
0000
2030
0000
0000
,
0000
0000
3000
0001
,
0200
0000
0000
0010
0000
0310
0000
0000
,
0000
2002
0000
0000
,
0000
0000
0000
3003
,
0100
0000
0001
0000
1000
0000
0000
0200
,
0000
0000
0000
0000
0000
0000
0300
1000
,
0010
0000
0100
0000
0001
0000
0000
0200
,
0000
0000
0000
0300
,
0001
0000
1000
0000
0010
0000
0000
0200
,
0000
0000
0000
0000
0000
0000
0300
0001
,
1000
0100
0010
0000
,
0001
1000
0001
0000
1000
0001
1000
0000
,
1100
0000
1100
0000
,
0010
0000
0001
0000
1000
0001
1000
0000
,
0010
0100
0010
1000
,
0001
0010
0100
0010
,
0101
0000
0101
0000
,
1000
0100
0010
0001
,
0200
0000
0301
0100
,
2000
0000
3100
0000
,
1001
0001
1001
1000
,
0001
0100
0001
0000
1000
0100
1000
0000
,
1001
0001
1001
1000
,
0001
0010
0001
0000
1000
0010
1000
0000
,
1001
1000
1001
0001
,
1000
0100
1000
0000
0001
0100
0001
0000
,
1001
0001
1001
1000
,
0001
0010
0001
0000
1000
0010
1000
0000
,
1001
0001
1001
1000
,
0000
0001
0010
0100
1000
0000
0000
0000
,
0010
0000
0010
0000
2000
0000
0000
0002
,
0000
3000
0000
0003
,
0100
0000
0020
0000
0000
1000
0000
2000
,
0000
3030
0100
0100
,
0002
0000
0000
2000
0000
0000
0003
0000
,
0000
3000
0010
0200
,
0000
0001
0000
0002
0000
0000
0303
0000
,
2001
0000
3200
0000
,
0320
0000
0032
0000
,
1003
0000
0000
0000
,
0002
0000
0000
0000
,
1003
0100
0010
0001
,
0011
0000
0011
0000
,
0100
0000
1000
0000
0001
1000
0001
0000
,
0100
0010
1000
0100
,
0001
0100
1000
0001
,
1010
0000
1010
0000
,
0100
0000
0001
0000
1000
0001
1000
0000
,
0020
0000
0130
0002
,
1000
0000
2000
3003
,
1001
1000
1001
0001
,
0100
0001
0010
0000
0100
1000
0100
0000
,
1001
0001
1001
1000
,
0010
1000
0100
0000
0010
0001
0010
0000
,
0110
1000
0110
0001
,
0100
0001
1000
0100
1000
0000
1000
0000
,
0001
0000
0110
0000
2000
0000
0000
3001
,
0000
1000
0100
0010
0001
0000
0000
0000
,
0000
1001
0000
1001
,
0010
1000
0001
0010
0001
0000
0001
0000
,
0000
0000
1001
0000
0100
0001
1000
0100
,
1000
1001
0001
1001
,
1000
0100
0010
0000
0100
0010
0001
0000
,
0100
0001
1000
0100
1000
0000
1000
0000
,
0001
0010
0100
0000
0110
0000
0000
1000
,
0000
1000
0000
0001
0100
0000
0110
0000
,
0001
0010
0100
0000
0010
0100
1000
0001
,
0000
1000
0100
0010
0001
0000
0000
0000
;

//---------------dance-single - ----------------
#NOTES:
     dance-single:
     :
     Hard:
     7:
     0.460,0.462,0.085,0.229,0.000:
0000
1000
0001
0200
,
0000
0002
0000
0000
0000
0000
0000
0000
,
0303
0000
0001
0000
0001
0100
0001
1000
,
0000
2000
0000
0000
0000
0000
3001
0000
,
1000
0000
0020
0000
0000
2000
0000
0000
,
0000
0000
3030
1000
,
1000
0010
1000
0001
0000
0002
0000
0000
,
0003
2002
0000
0000
,
0000
0000
0000
3003
,
1000
0000
0100
0000
0001
0000
0000
0100
,
0000
1000
0100
0010
0001
1000
0100
1000
,
0000
0000
0010
0000
0100
0000
0002
2000
,
0000
0000
0000
3003
,
0001
0000
0100
0000
1000
0000
0000
0100
,
0000
0001
0100
0010
1000
0001
0010
0001
,
0000
1000
0010
0100
,
0010
1000
0100
0000
0010
0001
1000
0100
,
0010
0000
0001
0100
0010
0000
1000
0100
,
0010
0000
0010
0000
0001
1000
1000
0000
,
0010
0000
0010
1000
0001
0010
0001
0000
,
1000
0100
0001
0100
,
1000
0000
0001
0010
0100
0000
1000
0100
,
0010
0001
1000
0100
1000
0000
0010
0100
,
0002
0000
0013
0100
,
2000
0000
3001
0000
,
1000
0100
0001
0000
0001
0100
1000
0000
,
0100
1000
0001
0010
0100
0000
0110
0000
,
0001
0100
1000
0000
0100
0001
1000
0100
,
0010
0100
1000
0001
0100
0010
0100
0000
,
0001
0100
1000
0000
1000
0100
0001
0000
,
0100
0001
1000
0100
0010
0000
0110
0000
,
1000
0000
0010
0000
0100
0000
0001
1000
,
0000
0100
0000
0001
0100
0000
1001
0000
,
0001
0100
0001
0000
1000
0010
1000
0001
,
0000
0001
0010
0100
1000
0000
0000
0000
,
1001
0000
0001
0000
0020
0000
0000
0002
,
0000
0000
0000
0033
,
1000
0000
1000
0100
1000
0001
0000
0002
,
0000
0000
1003
1000
,
0200
0000
0000
2000
0000
0000
0000
0000
,
0000
0000
3300
0000
0001
0000
0001
0010
,
0001
1000
0000
1000
0100
0010
0001
1000
,
0002
0000
0203
0000
,
2300
0000
3200
0000
,
0302
0000
1003
0010
,
0200
0000
0000
0000
,
0301
0001
1000
0000
1000
0100
0010
0001
,
1000
0000
0001
0010
0100
0000
1000
0010
,
0100
0000
0100
0000
0001
1000
1000
0000
,
0010
0000
0010
0100
0010
1000
0001
0000
,
1000
0100
0001
0100
,
1000
0000
0001
0010
0100
0000
1000
0100
,
0010
0001
0100
0010
1000
0100
0001
0100
,
2000
0000
3010
0200
,
0002
0300
2000
0003
,
3001
0100
1000
0000
1000
0100
0001
0000
,
0100
0010
1000
0001
0010
0100
0010
0000
,
0001
0100
1000
0000
0100
0001
1000
0100
,
0010
0001
1000
0000
1000
0001
0010
0100
,
1000
0100
0001
0000
0001
0100
1000
0000
,
0100
0010
0001
1000
0010
0100
0010
0000
,
1000
0000
0010
0000
0100
0000
0001
1000
,
0000
1000
0001
0010
0100
0000
0110
0000
,
0000
1001
0000
1001
,
0001
0100
1000
0100
0010
1000
0001
0000
,
0001
0000
1001
0000
1000
0100
0001
0100
,
0010
0001
1000
0100
1000
0001
0100
0001
,
1000
0100
0001
0000
0001
0100
1000
0000
,
0100
0010
0001
1000
0010
0100
0010
0000
,
1000
0010
0100
0001
0010
0100
0010
0001
,
0000
1000
0000
0010
0100
0000
0110
0000
,
0001
0100
0010
1000
0100
0000
0010
0100
,
0000
1000
0100
0001
0100
0000
0000
0000
;

//---------------dance-single - ----------------
#NOTES:
     dance-single:
     :
     Beginner:
     2:
     0.101,0.154,0.093,0.000,0.000:
0000
1000
0000
0000
,
0000
0000
0000
0000
,
0000
1000
0000
0000
,
0000
0000
0000
0001
,
0000
0000
0000
0000
,
0000
0000
0000
0001
,
0000
0000
0000
0000
,
0000
0001
0000
0000
,
0000
0000
0000
0000
,
1000
0000
0000
0000
,
0000
0000
0000
0000
,
0001
0000
0000
0000
,
0000
0000
0000
0000
,
1000
0000
0000
0000
,
0000
0000
0000
0000
,
0001
0000
0000
0000
,
0000
0000
0000
0000
,
0100
0000
0010
0000
,
0100
0000
0000
0000
,
0100
0000
0000
0000
,
0010
0000
0000
0000
,
1000
0000
0001
0000
,
1000
0000
0000
0000
,
1000
0000
0000
0000
,
0001
0000
0000
0000
,
1001
0000
0001
0000
,
0001
0000
0000
0000
,
1001
0000
1000
0000
,
1000
0000
0000
0000
,
1001
0000
0001
0000
,
0001
0000
0000
0000
,
1001
0000
1000
0000
,
1000
0000
0000
0000
,
0010
0000
0000
0000
,
0000
0000
0100
0000
,
0001
0000
0000
0000
,
0000
0000
0000
0000
,
0001
0000
0000
0000
,
0000
0000
1000
0000
,
0000
0000
0000
0000
,
0000
0000
1000
0000
,
0000
0000
0000
0000
,
0001
0000
0000
0000
,
0000
0000
0000
0000
,
0000
0000
0000
0000
,
0000
0000
0000
0000
,
0000
0000
0000
0000
,
0001
0000
1000
0000
,
0001
0000
0000
0000
,
0001
0000
0000
0000
,
0001
0000
0000
0000
,
1000
0000
0001
0000
,
1000
0000
0000
0000
,
1000
0000
0000
0000
,
0000
0000
0000
0000
,
1001
0000
1000
0000
,
1000
0000
0000
0000
,
1001
0000
0001
0000
,
0001
0000
0000
0000
,
1001
0000
1000
0000
,
1000
0000
0000
0000
,
0001
0000
1000
0000
,
0001
0000
0000
0000
,
0000
1001
0000
1001
,
0000
0000
0000
0000
,
0000
1001
0000
0000
,
0000
0000
0000
0000
,
1000
0000
0001
0000
,
0100
0000
0010
0000
,
0100
0000
0000
0000
,
0100
0000
0000
1001
,
0000
0001
0000
1000
,
0000
0000
0001
0000
;

//---------------dance-single - ----------------
#NOTES:
     dance-single:
     :
     Challenge:
     8:
     0.605,0.585,0.263,0.348,0.030: // measure 1
0000
0002
0203
0320
,  // measure 2
0000
2030
0000
3001
0010
0100
1000
0100
,  // measure 3
0010
0000
0002
0000
1003
0100
0001
0100
,  // measure 4
0000
1000
0100
0010
0001
1000
0020
0000
,  // measure 5
0230
0000
0302
0000
0000
2003
0000
3100
,  // measure 6
0010
0001
0010
0100
1000
0000
0002
0000
,  // measure 7
1003
0010
0001
0010
0000
1000
0100
0010
,  // measure 8
0001
1000
0020
0000
0000
0000
0000
0000
,  // measure 9
0000
0200
0000
0330
,  // measure 10
0101
0000
0100
0000
0110
0000
0000
0200
,  // measure 11
0000
0301
0100
1000
0100
0001
0010
0100
,  // measure 12
1000
0000
0010
0000
0110
0000
1000
0002
,  // measure 13
0000
1003
0100
0010
0100
1000
0100
0001
,  // measure 14
0100
0000
1100
0000
0110
0000
0000
0020
,  // measure 15
0000
1030
0100
0001
0100
1000
0010
0100
,  // measure 16
0001
0000
0100
0000
0110
0000
0001
1000
,  // measure 17
0010
0001
0010
1000
0100
0010
0100
1000
,  // measure 18
0001
0000
0001
1000
0010
0000
0010
1000
,  // measure 19
0001
0000
0101
0000
0020
0100
0130
0001
,  // measure 20
1000
0000
1000
0100
0001
0100
1000
0010
,  // measure 21
0100
0101
0110
1010
,  // measure 22
1001
0000
1000
0001
0100
0000
0100
0001
,  // measure 23
1000
0100
0001
0100
1000
0010
0100
0001
,  // measure 24
1000
0000
1100
0110
,  // measure 25
0012
0000
1003
0000
,  // measure 26
0001
0100
1000
0100
1000
0100
0001
0000
,  // measure 27
0010
0100
1000
0100
0010
0000
1001
0000
,  // measure 28
1000
0100
0001
0100
0001
0100
1000
0001
,  // measure 29
0010
0100
0001
0100
1000
0010
0100
0000
,  // measure 30
0001
0010
1000
0010
1000
0010
0001
0000
,  // measure 31
0100
0010
1000
0010
0100
0000
1001
0000
,  // measure 32
1000
0010
0200
0000
0302
0000
1003
0100
,  // measure 33
0000
0001
0000
0100
1000
0000
1001
0000
,  // measure 34
0001
0010
0200
0000
2300
0000
3001
0100
,  // measure 35
0000
1000
0100
0001
1000
0000
0000
0000
,  // measure 36
2001
0000
3020
0000
0230
0000
0000
0301
,  // measure 37
0000
0001
0010
0100
1000
0100
0010
0000
,  // measure 38
0002
0000
1003
0100
0010
0001
0000
0001
,  // measure 39
1000
0100
0001
0100
2000
0000
3020
0000
,  // measure 40
0230
0000
0000
0301
0000
0001
0010
0100
,  // measure 41
1000
0100
0010
0000
0200
0000
1300
0001
,  // measure 42
0010
0100
0000
0100
1000
0010
0001
0010
,  // measure 43
1000
0100
0001
0100
,  // measure 44
1000
0010
0100
0100
,  // measure 45
0110
0000
0000
0000
0010
0100
0001
0010
,  // measure 46
0200
0000
0000
0000
,  // measure 47
1300
0000
0100
0000
1000
0000
0100
0000
0010
0000
0001
0000
0100
0010
0100
0000
,  // measure 48
0001
0000
0001
0100
0010
0000
0010
0100
,  // measure 49
0001
1000
0100
0001
0200
1000
1300
0000
,  // measure 50
0020
0000
1030
0100
0010
1000
0010
0001
,  // measure 51
1000
1001
0110
1001
,  // measure 52
1000
0000
1000
0010
0100
0000
0100
0010
,  // measure 53
1000
0001
0010
1000
0010
0001
0100
0010
,  // measure 54
1000
0000
1100
0110
,  // measure 55
0012
0000
2003
0000
,  // measure 56
3001
0010
1000
0010
1000
0010
0001
1000
,  // measure 57
0001
0100
0010
0001
0010
1000
0001
0000
,  // measure 58
1000
0100
0001
0100
0001
0100
1000
0001
,  // measure 59
0020
0000
0000
0000
0230
0000
0000
0000
0310
0000
0001
0000
1000
0001
1000
0001
,  // measure 60
1000
0100
0001
0100
0001
0100
1000
0001
,  // measure 61
1000
0100
0010
1000
0010
0001
1000
0000
,  // measure 62
0100
0010
0001
0010
0100
2000
0000
3020
,  // measure 63
0000
0000
0031
0000
0010
0000
1000
0000
0010
0100
0010
0100
0010
0000
0000
0000
,  // measure 64
0100
0001
0101
0000
0100
0001
0101
0000
,  // measure 65
0001
0100
0010
0001
0010
1000
0001
0100
,  // measure 66
0010
1000
1010
0000
0010
1000
0100
0010
,  // measure 67
1000
0000
0010
0000
0001
0000
1000
0000
0010
0000
1000
0000
0001
0010
0001
0010
,  // measure 68
0001
0100
0110
0000
1000
0010
0110
0000
,  // measure 69
0010
1000
0010
0100
1000
0100
0001
1000
,  // measure 70
0100
0010
0200
0000
0320
0000
0031
1000
,  // measure 71
0000
0100
0000
0001
0100
1000
0001
0000
,  // measure 72
1000
0010
0110
0000
0001
0100
0100
0020
,  // measure 73
0000
1030
0100
0010
0001
0000
0000
0000
;
