#TITLE:最強おばちゃん伝説;
#SUBTITLE:;
#ARTIST:Jimmy Weckl feat. ジュース・アクターズ;
#TITLETRANSLIT:SAIKYOU OBACHAN DENSETSU;
#SUBTITLETRANSLIT:;
#ARTISTTRANSLIT:Jimmy Weckl feat. JUICE ACTORS;
#CREDIT:DigiMindAxel;
#BANNER:SAIKYOU OBACHAN DENSETSU.png;
#BACKGROUND:SAIKYOU OBACHAN DENSETSU-bg.png;
#LYRICSPATH:SAIKYOU OBACHAN DENSETSU.lrc;
#CDTITLE:pop'n music.png;
#MUSIC:SAIKYOU OBACHAN DENSETSU.mp3;
#OFFSET:-6.860;
#SAMPLESTART:53.059;
#SAMPLELENGTH:12.000;
#SELECTABLE:YES;
#BPMS:0.000=126.000,40.000=156.000,173.000=117.000;
#STOPS:44.000=1.154
;
#BGCHANGES:;

//---------------dance-single - ----------------
#NOTES:
     dance-single:
     :
     Easy:
     3:
     0.191,0.255,0.103,0.258,0.000: // measure 1
1000
0001
1000
0100
,  // measure 2
1000
0001
1000
0100
,  // measure 3
0010
0001
0100
0001
,  // measure 4
1000
0001
0100
0001
,  // measure 5
1000
0100
0010
0001
,  // measure 6
2000
0000
0001
3001
,  // measure 7
0110
0000
1001
0000
,  // measure 8
0110
0000
1001
0000
,  // measure 9
1000
0100
0010
0001
,  // measure 10
2000
0000
0000
0000
,  // measure 11
3001
0000
0000
0000
,  // measure 12
0000
2002
0000
0000
,  // measure 13
3003
2000
0000
0000
,  // measure 14
3000
2002
0000
0000
,  // measure 15
3003
0002
0000
0000
,  // measure 16
0003
2002
0000
0000
,  // measure 17
3003
2000
0000
0000
,  // measure 18
3000
2002
0000
0000
,  // measure 19
3003
0002
0000
0000
,  // measure 20
0003
0000
0100
0000
,  // measure 21
0010
0000
0100
0020
,  // measure 22
0000
0030
1000
0000
,  // measure 23
0001
0000
1000
0002
,  // measure 24
0000
0003
0100
0000
,  // measure 25
0010
0000
0100
0020
,  // measure 26
0000
0030
1000
0000
,  // measure 27
0001
2000
0000
3000
,  // measure 28
0000
0001
0000
0010
,  // measure 29
0000
0001
0000
0010
,  // measure 30
0000
0100
0000
1000
,  // measure 31
0000
0100
0000
1000
,  // measure 32
0000
0010
0000
0100
,  // measure 33
0000
0010
0000
1000
,  // measure 34
0000
0002
0000
0000
,  // measure 35
0000
2003
0000
0000
,  // measure 36
3000
0000
1001
0000
,  // measure 37
0000
0001
0000
1000
,  // measure 38
0000
0001
0000
0010
,  // measure 39
0000
0001
0000
0010
,  // measure 40
0000
0100
0000
1000
,  // measure 41
0000
0100
0000
1000
,  // measure 42
0000
0002
0000
0000
,  // measure 43
0000
2003
0000
0000
,  // measure 44
0000
0000
3001
0000
0000
0010
0000
0000
,  // measure 45
0002
0000
0000
2003
,  // measure 46
0000
3100
0000
0000
0010
0000
0000
0000
,  // measure 47
0000
0002
0000
0000
,  // measure 48
1003
0000
0000
0100
0000
0000
0010
0000
,  // measure 49
0000
0001
0000
0000
0010
0000
0000
0001
,  // measure 50
0000
0000
1000
0000
0000
0020
0000
0000
,  // measure 51
0000
0000
0000
0230
,  // measure 52
0000
0000
0000
0000
0301
0000
0000
1000
,  // measure 53
0000
0000
0001
0000
0000
0010
0000
0000
,  // measure 54
0100
0000
0000
1000
0000
0000
1001
0000
,  // measure 55
0000
0000
0110
0000
,  // measure 56
0000
0002
0000
0000
,  // measure 57
1003
0000
0000
1000
,  // measure 58
0000
0100
0000
0000
0010
0000
0000
0001
,  // measure 59
0000
0220
0000
0000
,  // measure 60
0000
0000
0000
0330
0000
0000
0000
0000
;

//---------------dance-single - ----------------
#NOTES:
     dance-single:
     :
     Hard:
     7:
     0.439,0.485,0.344,0.473,0.060: // measure 1
1000
0001
0010
0100
1000
0000
1000
0001
,  // measure 2
0200
0000
0000
0001
0000
0001
0301
0000
,  // measure 3
1000
0001
0010
0100
1000
0000
1000
0001
,  // measure 4
0100
0000
0010
1000
0100
0000
1000
0100
,  // measure 5
0020
0000
0000
0031
0100
0010
1000
0100
,  // measure 6
0020
0000
0000
0000
0000
0031
0010
0100
,  // measure 7
1000
1000
1000
0000
0001
0001
0001
0000
,  // measure 8
1000
1000
1000
0000
1001
0000
0001
0000
,  // measure 9
0200
0000
0000
0301
1000
0100
0010
0001
,  // measure 10
2000
0000
0000
0000
3001
1000
0001
0000
,  // measure 11
2000
0000
0000
0000
,  // measure 12
3000
0000
0000
0000
0200
0000
0000
2000
0000
0000
0000
0000
0000
0000
0000
0000
,  // measure 13
3300
0000
1001
0000
0000
0220
0000
0000
,  // measure 14
0330
0000
0000
0000
0200
0000
0000
0002
0000
0000
0000
0000
0000
0000
0000
0000
,  // measure 15
0303
0000
1001
0000
0000
0110
0000
0110
,  // measure 16
0000
0000
0000
0000
0020
0000
0000
2000
0000
0000
0000
0000
0000
0000
0000
0000
,  // measure 17
3030
0000
1001
0000
0000
0220
0000
0000
,  // measure 18
0330
0000
0000
0000
0020
0000
0000
0002
0000
0000
0000
0000
0000
0000
0000
0000
,  // measure 19
0033
0000
1001
0000
0000
0110
0000
0110
,  // measure 20
0000
0000
1100
0000
,  // measure 21
0101
0000
0000
0000
0000
0000
0000
0000
1100
0000
0000
0000
1000
0001
0000
0010
,  // measure 22
0000
0100
0000
0000
0000
0000
0000
0000
0101
0000
0000
0000
0000
0000
0000
0000
,  // measure 23
1100
0000
0000
0000
0000
0000
0000
0000
0101
0000
0000
0000
0001
1000
0000
0100
,  // measure 24
0000
0010
0000
0000
0000
0000
0000
0000
0110
0000
0000
0000
0000
0000
0000
0000
,  // measure 25
1001
0000
0000
0000
0000
0000
0000
0000
0110
0000
0000
0000
0100
0001
0000
1000
,  // measure 26
0000
0100
0000
0000
0000
0000
0000
0000
1001
0000
0000
0000
0000
0000
0000
0000
,  // measure 27
0110
0000
0000
0000
0200
0000
0000
0000
0010
0000
0000
0310
0000
0000
0000
0000
,  // measure 28
0000
0000
2000
0000
3100
0000
0010
0100
,  // measure 29
1000
0001
0000
0100
0001
2000
0000
0000
,  // measure 30
3001
0010
0002
0000
0013
0000
0100
0010
,  // measure 31
0001
1000
0000
0010
1000
0002
0000
0003
,  // measure 32
0000
0110
0000
0100
0010
1000
0000
0100
,  // measure 33
0010
0001
0000
1001
0000
1000
0000
0010
,  // measure 34
0100
0001
0000
0100
0001
0100
0001
1000
,  // measure 35
0100
1000
0000
1100
0000
0001
0000
0011
,  // measure 36
0000
0000
0000
0000
1001
0000
0010
0100
,  // measure 37
1000
0001
0000
0100
0001
2000
0000
0000
,  // measure 38
0000
0000
3001
0000
1001
0000
0100
0010
,  // measure 39
0001
1000
0000
0100
1000
0010
0000
0100
,  // measure 40
0010
2000
0000
3100
0010
0001
0100
1000
,  // measure 41
0100
0002
0000
0013
0100
1000
0010
0100
,  // measure 42
0000
0101
0000
1200
0000
0010
0000
0310
,  // measure 43
0000
0021
0000
0100
0000
0100
0000
0100
,  // measure 44
0000
0130
1001
0000
0000
0001
0010
0100
,  // measure 45
2000
0000
0000
0000
3010
0100
0002
0000
,  // measure 46
1003
0100
0010
0001
0100
0200
0000
0000
,  // measure 47
0000
0000
0300
0001
0010
0001
0100
0010
,  // measure 48
2000
0000
3002
0000
1003
0100
0220
0000
,  // measure 49
0330
2002
0000
3003
0010
0100
1000
0010
,  // measure 50
0100
0001
2000
0000
0000
3020
0000
0000
,  // measure 51
0000
1030
0100
0010
0001
1000
0002
0000
,  // measure 52
0000
1003
0100
0010
2002
0000
3003
1001
,  // measure 53
0010
0100
1000
0001
0100
0001
1000
0100
,  // measure 54
0002
0000
0203
0000
1300
0100
0020
0000
,  // measure 55
0000
0031
0010
0100
2000
0000
0010
3020
,  // measure 56
0000
0100
0130
0000
1001
0000
0010
0100
,  // measure 57
0020
0000
0000
1030
0001
0100
0002
0000
,  // measure 58
1000
1003
0100
0010
2002
3003
0000
0022
,  // measure 59
0033
2200
0000
0000
,  // measure 60
0000
0000
0000
3300
0000
0000
0000
0000
;

//---------------dance-single - ----------------
#NOTES:
     dance-single:
     :
     Challenge:
     8:
     0.600,0.587,0.515,0.430,0.215:
0000
0000
0100
0000
0010
0000
0100
0000
0002
0000
0000
0000
1003
0000
0010
0100
,
0020
0000
1000
0000
0000
0000
1000
0000
0000
0000
1030
0001
1000
0000
0001
0000
,
0000
0000
0010
0000
0100
0000
1000
0000
0001
0000
1000
0001
1000
0000
0100
0000
,
0001
0000
0000
0000
0100
0000
1000
0000
0010
0000
0100
0010
0100
0000
0001
0000
,
0020
0000
0100
0000
0000
0000
0130
0000
0010
0000
0001
1000
0001
0000
1000
0000
,
0200
0010
0000
0310
0100
1000
0010
0100
,
0001
0000
0001
0000
0101
0000
1000
0100
1000
0000
1000
0000
1100
0000
0001
0100
,
0001
0000
0001
0000
0001
0100
0010
1000
0100
0000
0000
0000
1000
0000
0001
0000
,
2000
0000
0000
0000
3001
0000
0010
0000
1000
0000
0010
0001
0010
0000
0100
0000
,
2000
0000
0010
0000
0000
0000
3010
0000
0100
0000
0001
0100
0010
0000
1000
0001
,
2000
0000
0000
0000
,
3000
0000
0000
0000
0101
0000
0000
0102
0000
0000
0000
0000
1003
0100
1000
0000
,
0001
0000
2002
0000
3003
2002
0000
0000
,
3003
0000
0000
0000
1010
0000
0000
2010
0000
0000
0000
0000
3001
0010
0001
0000
,
1000
0000
2002
0000
3003
1001
0000
0110
,
0000
0000
0000
0000
1100
0000
0000
2100
0000
0000
0000
0000
3001
0100
0001
0000
,
1000
0000
2002
0000
3003
2002
0000
0000
,
3003
0000
0000
0000
0011
0000
0000
0012
0000
0000
0000
0000
1003
0010
1000
0000
,
0001
0000
2002
0000
3003
1001
0000
0110
,
0000
0000
1000
0010
1010
0000
1000
0010
,
1010
0000
0000
0000
0001
0000
0010
0000
0011
0000
0000
0000
0100
1000
0000
0001
,
0000
0100
0001
0000
1000
0000
0100
0000
1100
0000
0000
0000
1000
0000
0100
0000
,
1100
0000
0000
0000
0001
0000
0100
0000
0101
0000
0000
0000
1000
0001
0000
0010
,
0000
0001
1000
0000
0010
0000
0100
0000
0110
0000
0000
0000
1000
0000
0001
0000
,
1001
0000
0000
0000
0010
0000
0100
0000
0110
0000
0000
0000
0001
1000
0000
0100
,
0000
1000
0001
0000
0100
0000
0010
0000
0110
0000
0000
0000
0001
0000
1000
0000
,
1001
0000
0000
0000
0100
0000
0001
0000
1000
0100
0000
2000
0000
0000
0000
0000
,
3000
0000
0110
0000
1001
0000
1000
0100
,
0010
0200
0000
1300
0100
0001
0000
0100
,
1000
0010
0100
0000
0110
0000
0001
0100
,
1000
0200
0000
0301
0010
0100
1000
0010
,
0100
0020
0000
1000
1030
0001
0010
0100
,
1000
0010
0000
0110
0000
2002
0000
3000
,
0000
1003
0100
0001
0100
1000
0010
0001
,
0010
1000
0000
1100
0000
0110
0000
0011
,
0000
0000
0110
0000
1001
0000
0001
0010
,
0100
0020
0000
0031
0100
1000
0000
0100
,
0001
0010
0100
0000
0110
0000
1000
0100
,
0001
0200
0000
1300
0001
0010
0100
0010
,
0001
0200
0000
0001
0301
0010
0100
1000
,
0001
0200
0000
0001
0301
0010
0100
1000
,
0000
1001
0000
0210
0000
0001
0000
0301
,
0000
0000
0000
0120
0000
0000
0000
0000
0000
1000
0000
0000
0000
0000
0000
1030
0000
0000
0001
0000
0100
0000
0001
0000
,
1000
0000
0100
0000
1000
0000
0020
0000
0000
0000
0000
0000
0000
0000
0000
1030
0000
0000
0001
0000
0000
0100
0000
0000
,
0120
0000
0000
0000
0000
0000
1030
0000
0001
0000
0010
0000
0001
0010
0001
0000
,
1000
0000
0010
0100
0010
0000
1000
0000
0001
1000
0002
0000
0000
0000
1000
0000
,
0000
0000
1003
0001
0001
1000
1000
0010
,
0020
0000
0000
0000
0230
0000
0000
0000
0301
0000
0010
0000
0100
0000
1000
0002
,
0000
0000
0200
0000
0000
0003
0000
0000
0301
0000
0010
0100
0010
0100
1000
0000
,
0010
0100
0101
0000
0000
0110
0100
0010
,
0100
0000
0001
0000
0010
0000
1000
0001
1000
0000
0010
0000
0002
0000
0000
0000
,
0003
0000
1000
0001
1000
0000
0010
0000
0100
0010
0100
0000
0010
0000
1000
0001
,
1000
0110
0110
0001
1000
1001
0010
0100
,
2000
0000
0000
0000
3020
0000
0000
0000
1030
0000
0001
0000
0100
0001
1000
0100
,
0010
0000
0001
0000
1001
0000
0110
0000
0010
1000
0001
0000
0100
0000
0010
1000
,
0100
1000
1001
0000
1100
0000
0010
0011
,
1002
0000
0000
1003
0100
1000
0020
0000
,
0130
0001
0010
0100
1001
0010
0100
1001
,
0100
0010
0100
0000
2002
0000
0000
0000
0000
0000
0000
0000
3000
0000
0000
0000
,
0200
0000
0000
0303
0000
0000
0000
0000
;

//---------------dance-single - ----------------
#NOTES:
     dance-single:
     :
     Medium:
     5:
     0.309,0.332,0.369,0.275,0.000: // measure 1
0000
0100
0000
0010
0000
1000
1000
0001
,  // measure 2
0000
0010
0000
0100
0000
1000
1000
0001
,  // measure 3
0000
0100
0000
0001
0000
1000
1000
0001
,  // measure 4
0000
0010
0000
0100
0000
1000
1000
0001
,  // measure 5
0000
0100
0000
0010
0000
0100
0100
0001
,  // measure 6
0000
1000
0000
0010
0000
0100
0010
0100
,  // measure 7
0001
0001
0001
0000
1000
1000
1000
0000
,  // measure 8
0001
0001
0001
0000
1001
0000
0000
0000
,  // measure 9
0200
0000
0000
0301
0000
1000
1000
0010
,  // measure 10
0200
0000
0000
0300
,  // measure 11
0100
0000
0000
0000
,  // measure 12
0000
0202
0000
0000
,  // measure 13
0303
0000
1001
0000
0000
1001
0000
0000
,  // measure 14
0000
2020
0000
0000
,  // measure 15
3030
0000
1001
0000
0000
0001
0000
1000
,  // measure 16
0000
2200
0000
0000
,  // measure 17
3300
0000
1001
0000
0000
1001
0000
0000
,  // measure 18
0000
0022
0000
0000
,  // measure 19
0033
0000
1001
0000
0000
0001
0000
1000
,  // measure 20
0000
0000
1001
0000
,  // measure 21
0110
0000
1001
0200
,  // measure 22
0000
0300
0000
0000
0110
0000
0000
0000
,  // measure 23
1001
0000
0110
0002
,  // measure 24
0000
0003
0000
0000
1001
0000
0000
0000
,  // measure 25
0110
0000
1001
0020
,  // measure 26
0000
0030
0000
0000
0110
0000
0000
0000
,  // measure 27
1001
1000
2000
0000
,  // measure 28
3000
0001
1000
0010
,  // measure 29
0100
0002
0000
2000
0000
0000
3003
0000
,  // measure 30
0001
1001
0100
0010
,  // measure 31
0100
0020
0000
2000
0000
0000
3030
0000
,  // measure 32
0000
0110
0000
0000
0000
0010
0000
0100
,  // measure 33
0000
1000
0000
0010
0000
0100
0000
0001
,  // measure 34
0000
2000
0000
0002
0000
0000
0000
3003
,  // measure 35
0000
0100
0000
0110
0000
0010
0000
0110
,  // measure 36
0000
0000
1001
0001
,  // measure 37
0100
0020
0000
2000
0000
0000
3030
0000
,  // measure 38
0000
0001
1001
1000
,  // measure 39
0010
0200
0000
0002
0000
0303
0000
0000
,  // measure 40
0000
1001
0000
0100
0010
0100
0000
0001
,  // measure 41
0000
1001
0000
0010
0100
0010
0000
1000
,  // measure 42
0000
0100
0000
0020
0000
0000
0000
0000
,  // measure 43
0000
0230
0000
0000
0000
0000
0000
0000
,  // measure 44
0300
0000
1001
0000
0000
0001
0100
0001
,  // measure 45
0200
0000
0000
0301
,  // measure 46
0000
1000
0000
0000
0010
0000
0000
0000
,  // measure 47
0000
0000
0000
0100
0010
0100
0000
0001
,  // measure 48
1000
0001
0000
0101
,  // measure 49
0000
1100
0000
0000
0110
0000
0000
1001
,  // measure 50
0000
0000
2000
0000
0000
3002
0000
0000
,  // measure 51
0000
1003
0100
1000
0100
1000
0002
0000
,  // measure 52
0000
1003
0100
0010
0001
0000
0000
1001
,  // measure 53
0000
0000
1000
0000
0000
0001
0000
0000
,  // measure 54
0200
0000
0300
1001
,  // measure 55
0000
1100
0000
0000
0011
0000
0000
0110
,  // measure 56
0000
0000
1001
0000
0001
0000
0100
0010
,  // measure 57
0100
0000
0000
1001
,  // measure 58
0000
1000
0000
0000
1001
0000
0000
0001
,  // measure 59
0010
0100
2000
0000
0000
0000
0000
0000
,  // measure 60
0000
0000
0000
3000
0000
0000
0000
0000
;

//---------------dance-single - ----------------
#NOTES:
     dance-single:
     :
     Beginner:
     1:
     0.088,0.125,0.112,0.000,0.000:
0001
0000
1000
0000
,
0001
0000
0000
0000
,
0100
0000
0010
0000
,
0100
0000
0000
0000
,
0010
0000
1000
0000
,
0010
0000
0000
0000
,
1001
0000
1000
0000
,
0001
0000
0000
0000
,
0100
0000
0001
0000
,
0100
0000
0000
0000
,
0100
0000
0000
0000
,
0000
1001
0000
0000
,
0000
1000
0000
0000
,
0000
1001
0000
0000
,
0000
0001
0000
0000
,
0000
1001
0000
0000
,
0000
1000
0000
0000
,
0000
0110
0000
0000
,
0000
0010
0000
0000
,
0000
0000
1001
0000
,
1000
0000
0001
0000
,
0000
0000
1001
0000
,
0001
0000
1000
0000
,
0000
0000
0110
0000
,
0010
0000
0100
0000
,
0000
0000
0110
0000
,
0100
0000
0000
0000
,
0000
0001
0000
0000
,
0000
0000
0000
0000
,
0000
1000
0000
0000
,
0000
0000
0000
0000
,
0000
0010
0000
0000
,
0000
0100
0000
0000
,
0000
0010
0000
0000
,
0000
1000
0000
0000
,
0000
0000
1001
0000
,
0000
0000
0000
0000
,
0000
0001
0000
0000
,
0000
0000
0000
0000
,
0000
0010
0000
0000
,
0000
0100
0000
0000
,
0000
1000
0000
0000
,
0000
0000
0000
0000
,
0000
1001
0000
0000
,
0000
0000
0000
0001
,
0000
0000
0000
0000
,
0000
0001
0000
0000
,
0000
0000
0000
1000
,
0000
0000
0000
0000
,
0000
1000
0000
0000
,
0000
0000
0000
0010
,
0000
0000
0000
0000
,
0000
0010
0000
0000
,
0000
0000
0000
0110
,
0000
0000
0100
0000
,
0000
0010
0000
0000
,
0000
0000
0000
0100
,
0000
0000
0001
0000
,
0000
1001
0000
0000
;
