#TITLE:Romanticが止まらない;
#SUBTITLE:;
#ARTIST:ネオロマンティックス;
#TITLETRANSLIT:Romantic ga tomaranai;
#SUBTITLETRANSLIT:;
#ARTISTTRANSLIT:NEO ROMANTICS;
#CREDIT:DigiMindAxel;
#BANNER:Romantic ga tomaranai.png;
#BACKGROUND:Romantic ga tomaranai-bg.png;
#LYRICSPATH:Romantic ga tomaranai.lrc;
#CDTITLE:pop'n music.png;
#MUSIC:Romantic ga tomaranai.mp3;
#OFFSET:-3.660;
#SAMPLESTART:46.376;
#SAMPLELENGTH:12.000;
#SELECTABLE:YES;
#BPMS:0.000=146.000;
#STOPS:;
#BGCHANGES:;

//---------------dance-single - ----------------
#NOTES:
     dance-single:
     :
     Easy:
     3:
     0.187,0.230,0.167,0.025,0.000:
1000
1000
1000
1000
,
0001
0000
0000
0000
,
0001
0001
0001
0001
,
1000
0000
0000
0000
,
0010
0010
0010
0010
,
0100
0000
0000
0000
,
0100
0100
0100
0100
,
0010
0000
0000
0000
,
1001
1000
0000
0001
,
0000
1000
0000
0010
,
0000
0100
0000
0010
,
0000
0100
0100
0010
,
0000
1000
0000
0001
,
0000
1000
0000
0001
,
0000
1000
0000
0010
,
0000
0100
0100
0100
,
0020
0000
0000
0000
,
0000
0000
0000
0030
,
2000
0000
0000
0000
,
0000
0000
3000
0000
,
0002
0000
0000
0000
,
0000
0000
0000
0000
0003
0000
0000
0110
,
0000
0000
1000
0000
0000
0000
0000
1001
,
0000
0001
0000
1001
,
0000
0000
0100
0000
,
0000
0010
0000
0000
,
0100
0000
0100
1001
,
0000
0000
0000
0000
,
0010
0000
0010
1001
,
0000
0100
0000
0100
,
0000
0100
0000
0010
,
0000
0010
0000
1000
,
0000
1000
0000
0001
,
1001
0000
0000
0000
,
0001
0010
0001
1001
,
0000
0000
0000
0000
,
0100
1000
0100
1001
,
0000
0000
0000
0100
,
0000
0010
0000
1001
,
0000
0010
0010
0010
,
1001
0000
0000
0000
,
0000
0100
0000
1000
,
0000
0010
0000
1000
,
0000
0001
0000
0010
,
0000
0001
1000
0000
,
0010
0100
0010
1001
,
0000
0000
0000
0000
,
0100
0010
0100
1001
,
0000
0000
0000
0000
,
0000
0001
0000
0010
,
0000
0001
0000
1000
,
0000
0100
0000
1000
,
1001
0000
0000
0000
,
1000
0010
1000
1001
,
0000
0000
0000
0000
,
0001
0100
0001
1001
,
0000
0000
0000
0000
,
0000
0100
0000
0110
,
0000
0001
0010
0100
,
1001
0000
0000
0000
,
0000
0100
0000
1000
,
0000
0010
0000
0100
,
0000
0010
0000
0100
,
0000
0001
0000
0010
,
0000
0001
0000
1000
,
0000
0010
0000
1000
,
0000
0100
0000
0010
,
0000
0001
0000
1000
,
0000
1001
0000
0000
,
1001
0000
0000
0000
;

//---------------dance-single - ----------------
#NOTES:
     dance-single:
     :
     Hard:
     6:
     0.402,0.404,0.375,0.383,0.000: // measure 1
0000
0100
0001
0100
0001
0100
0010
0000
,  // measure 2
1000
0000
0010
2000
0000
0000
0000
0000
,  // measure 3
3000
0010
1000
0010
1000
0010
0100
0000
,  // measure 4
0001
0011
1000
1001
,  // measure 5
0000
0001
0010
0001
0010
0001
0100
0000
,  // measure 6
0001
0000
1000
0020
0000
0000
0000
0000
,  // measure 7
0000
1030
0100
1000
0100
1000
0010
0000
,  // measure 8
1000
0001
0000
0100
0000
0010
0010
1000
,  // measure 9
1001
0000
0001
0000
0100
0000
0010
0100
,  // measure 10
0010
0000
1000
0010
0000
0100
0100
0100
,  // measure 11
0010
1000
0020
0000
0100
0000
0000
0000
,  // measure 12
0100
0130
1010
0110
,  // measure 13
1001
0000
1000
0000
0010
0000
0100
0010
,  // measure 14
0100
0000
0001
0100
0000
0010
0010
0010
,  // measure 15
0100
0010
2000
0000
0001
0000
0000
0000
,  // measure 16
0001
3001
0110
1010
,  // measure 17
2001
0001
0000
0001
,  // measure 18
0000
0001
0000
3001
,  // measure 19
0210
0010
0000
0010
,  // measure 20
0000
0010
0000
0310
,  // measure 21
1002
1000
0000
1000
,  // measure 22
0000
0000
1000
0000
0000
1003
0010
0110
,  // measure 23
0000
0000
0001
0000
0000
0001
0100
0110
,  // measure 24
0000
0000
1000
0000
0000
0000
0001
1001
,  // measure 25
0000
0000
0000
0000
1000
0001
0000
0000
,  // measure 26
0100
0000
1010
0000
0000
0001
0001
0001
,  // measure 27
0001
0010
0100
2020
,  // measure 28
0000
0000
0000
3030
,  // measure 29
1000
0100
0010
0202
,  // measure 30
0000
0000
0000
0303
,  // measure 31
0010
1000
0100
0022
,  // measure 32
0000
0000
0000
0000
0000
0033
0000
0100
,  // measure 33
0000
1000
0010
0000
1000
0000
0001
0000
,  // measure 34
0220
0000
0000
0330
,  // measure 35
0001
0010
0100
2200
,  // measure 36
0000
0000
0000
3300
,  // measure 37
1000
0100
0010
0022
,  // measure 38
0000
0000
0000
0033
,  // measure 39
0100
0000
1000
0010
0000
0000
0100
0001
,  // measure 40
0000
0010
0100
1000
0100
0001
0100
1000
,  // measure 41
0020
0000
0000
0130
,  // measure 42
2001
3020
0230
0302
,  // measure 43
0203
0000
0302
0023
,  // measure 44
0230
0000
2300
3020
,  // measure 45
0230
0000
0000
0000
0000
0301
1000
0001
,  // measure 46
1000
0110
1010
2002
,  // measure 47
0000
0000
0000
3003
,  // measure 48
1100
0110
0101
2002
,  // measure 49
0000
0000
0000
3003
,  // measure 50
0010
0000
1000
0100
0000
0000
2020
0000
,  // measure 51
0000
0000
0000
0000
0000
3030
0000
0001
,  // measure 52
0000
0100
0010
0000
1000
0000
0100
0000
,  // measure 53
2002
0000
0000
3003
,  // measure 54
0101
0110
1100
2002
,  // measure 55
0000
0000
0000
3003
,  // measure 56
1100
0110
0101
2002
,  // measure 57
0000
0000
0000
3003
,  // measure 58
0001
0000
0001
0100
0000
0000
0010
1000
,  // measure 59
0000
0100
0010
0001
0100
1000
0100
0010
,  // measure 60
0002
0000
0000
1003
,  // measure 61
0000
0001
0010
0001
0010
0001
0100
0000
,  // measure 62
0001
0000
1000
0020
0000
0000
0000
0000
,  // measure 63
0000
1030
0100
1000
0100
1000
0010
0000
,  // measure 64
1000
1100
0001
1001
,  // measure 65
0000
0100
0001
0100
0001
0100
0010
0000
,  // measure 66
0100
0000
0010
2000
0000
0000
0000
0000
,  // measure 67
0000
3010
1000
0010
1000
0010
0100
0000
,  // measure 68
0001
1000
0000
0010
0000
0100
0100
0100
,  // measure 69
0000
0000
1010
0000
0000
1001
0000
0000
,  // measure 70
0101
0000
0000
1001
0000
0000
0000
0000
;

//---------------dance-single - ----------------
#NOTES:
     dance-single:
     :
     Challenge:
     8:
     0.577,0.520,0.566,0.192,0.108: // measure 1
1000
0000
0001
0000
0010
0000
0001
0000
0010
0000
0001
0100
0000
0001
0100
0000
,  // measure 2
0020
0000
1000
1030
0000
1000
0100
0010
,  // measure 3
0001
0000
1000
0000
0100
0000
1000
0000
0100
0000
1000
0010
0000
1000
0010
0000
,  // measure 4
0100
0001
0000
0000
0100
0001
0000
0000
1000
0100
0000
0000
1000
0100
0000
0000
,  // measure 5
1000
0000
0001
0000
0010
0000
0001
0000
0010
0000
0001
0100
0000
0001
0100
0000
,  // measure 6
0020
0000
1000
1030
0000
1000
0100
0010
,  // measure 7
0001
0000
1000
0000
0100
0000
1000
0000
0100
0000
1000
0010
0000
1000
0010
0000
,  // measure 8
0100
0001
0000
1000
0000
0001
0001
1000
,  // measure 9
1001
0010
0100
0000
1000
0010
0100
0001
,  // measure 10
0101
0000
1000
1001
0000
0010
0010
0010
,  // measure 11
0100
0001
1000
0000
1010
0000
0100
0000
,  // measure 12
0011
0110
0101
0110
,  // measure 13
1001
0100
0010
0000
0001
0100
0010
1000
,  // measure 14
1010
0000
0001
1001
0000
0100
0100
0100
,  // measure 15
0010
1000
0001
0000
0011
0000
0100
0000
,  // measure 16
1010
1100
0110
0101
,  // measure 17
0001
0100
0001
0000
0100
0010
0100
0000
,  // measure 18
0010
1000
0010
0000
1000
0100
0010
0001
,  // measure 19
1000
0010
1000
0000
0010
0100
0010
0000
,  // measure 20
0100
0001
0100
0000
0001
0010
0100
1000
,  // measure 21
0001
0010
0001
0000
0010
0100
0010
0000
,  // measure 22
0100
1000
0100
0010
0001
1000
1000
0110
,  // measure 23
0000
0000
1001
0000
1000
0001
0001
0110
,  // measure 24
0000
0000
1001
0000
0000
0000
1001
1001
,  // measure 25
0000
0000
0000
0000
0001
0001
0100
0000
,  // measure 26
0100
0000
1001
0000
0000
1000
1000
1000
,  // measure 27
1010
0000
0100
0001
0010
0000
0102
0000
,  // measure 28
0000
0010
0013
0000
0110
0000
1001
0000
,  // measure 29
0101
0000
0010
1000
0100
0000
2010
0000
,  // measure 30
0000
0100
3100
0000
0110
0000
1001
0000
,  // measure 31
0100
0010
0001
0100
0000
0000
1020
0000
,  // measure 32
0000
0000
1000
1000
0000
0000
1030
0001
,  // measure 33
0000
0001
0100
0010
0100
0001
0010
0000
,  // measure 34
1001
0000
0000
0101
0000
0000
1100
0000
0000
0000
0000
0000
0010
0000
0010
0000
,  // measure 35
1010
0000
0100
0001
0010
0000
0102
0000
,  // measure 36
0000
0010
0000
0010
0013
0000
1001
0000
,  // measure 37
0101
0000
0010
1000
0100
0000
2010
0000
,  // measure 38
0000
0100
0000
0100
3100
0000
1001
0000
,  // measure 39
0100
1000
0100
0010
0000
0000
1001
0001
,  // measure 40
0000
1000
0010
0001
0010
1000
0100
0010
,  // measure 41
1001
0000
0000
0010
,  // measure 42
1002
0203
0320
2030
,  // measure 43
3010
0010
0200
0000
0301
1000
0100
0010
,  // measure 44
0001
0001
0020
0000
0032
0000
0203
0000
,  // measure 45
0310
0010
2000
0000
3001
1000
0100
0010
,  // measure 46
0001
0000
0010
0001
1000
0000
1002
0000
,  // measure 47
0000
0010
0013
0000
0110
0000
1001
0000
,  // measure 48
0011
0000
0100
1000
0001
0000
2001
0000
,  // measure 49
0000
0100
3100
0000
0110
0000
1001
0000
,  // measure 50
0010
0100
1000
0010
0000
0000
0201
0000
,  // measure 51
0000
0000
0001
0001
0000
0000
0301
1000
,  // measure 52
0000
1000
0010
0100
0010
1000
0100
0010
,  // measure 53
1001
0000
0000
0101
0000
0000
1100
0000
0000
0000
0000
0000
0010
0000
0010
0000
,  // measure 54
1010
0000
0100
0001
0010
0000
0102
0000
,  // measure 55
0000
0010
0000
0010
0013
0000
1001
0000
,  // measure 56
0101
0000
0010
1000
0100
0000
2010
0000
,  // measure 57
0000
0100
0000
0100
3100
0000
1001
0000
,  // measure 58
0100
0010
0001
0010
0000
0000
1001
1000
,  // measure 59
0000
0001
0100
1000
0100
0001
0010
0100
,  // measure 60
1001
0000
0000
0001
,  // measure 61
0001
0000
1000
0000
0100
0000
1000
0000
0100
0000
1000
0010
0000
1000
0010
0000
,  // measure 62
0200
0000
0001
0301
0000
0100
0001
1000
,  // measure 63
1000
0000
0001
0000
0010
0000
0001
0000
0010
0000
0001
0100
0000
0001
0100
0000
,  // measure 64
0010
1000
0000
0000
0010
1000
0000
0000
0001
0010
0000
0000
0001
0010
0000
0000
,  // measure 65
0001
0000
1000
0000
0010
0000
1000
0000
0010
0000
1000
0100
0000
1000
0100
0000
,  // measure 66
0020
0000
0001
0031
0000
0010
0001
1000
,  // measure 67
1000
0000
0001
0000
0100
0000
0001
0000
0100
0000
0001
0010
0000
0001
0010
0000
,  // measure 68
0100
1000
0000
0010
0000
1000
0001
1001
,  // measure 69
0000
0000
1010
0000
0000
1001
0000
0000
,  // measure 70
0101
0000
0000
1001
0000
0000
0000
0000
;

//---------------dance-single - ----------------
#NOTES:
     dance-single:
     :
     Beginner:
     2:
     0.090,0.144,0.083,0.000,0.000:
1000
0000
0000
0000
,
0000
0000
0000
0000
,
0001
0000
0000
0000
,
0000
0000
0000
0000
,
1000
0000
0000
0000
,
0000
0000
0000
0000
,
0001
0000
0000
0000
,
0000
0000
0000
0000
,
0000
1000
0000
1000
,
0000
0000
0000
0000
,
0000
0001
0000
0001
,
0000
0000
0000
0000
,
0000
0100
0000
0100
,
0000
0000
0000
0000
,
0000
0010
0000
0010
,
0000
0000
0000
0000
,
1000
0000
0000
0000
,
0000
0000
0000
0000
,
0100
0000
0000
0000
,
0000
0000
0000
0000
,
0010
0000
0000
0000
,
0000
0000
0000
0001
,
0000
0000
0000
1000
,
0000
0000
0000
1001
,
0000
0000
0000
0000
,
0000
0000
0000
0000
,
1000
0000
1000
0000
,
0000
0000
0000
0000
,
0001
0000
0001
0000
,
0000
0000
0000
0000
,
0100
0000
0100
0000
,
0000
0000
0000
0000
,
0010
0000
0010
0000
,
1001
0000
0000
0000
,
1000
0000
1000
0000
,
0000
0000
0000
0000
,
0001
0000
0001
0000
,
0000
0000
0000
0000
,
0100
0000
0100
0000
,
0000
0000
0000
0000
,
0110
0000
0000
0000
,
0000
0001
0000
0001
,
0000
1000
0000
1000
,
0000
0001
0000
0001
,
0000
1000
0000
0000
,
0000
0010
0000
0110
,
0000
0000
0000
0000
,
0000
0100
0000
0110
,
0000
0000
0000
0000
,
0000
0001
0000
1001
,
0000
0000
0000
0000
,
0000
1000
0000
1001
,
0000
0000
0000
0000
,
0010
0000
0010
0000
,
0000
0000
0000
0000
,
0100
0000
0100
0000
,
0000
0000
0000
0000
,
0001
0000
0001
0000
,
0000
0000
0000
0000
,
1001
0000
0000
0000
,
0000
1000
0000
1000
,
0000
0000
0000
0000
,
0000
0001
0000
0001
,
0000
0000
0000
0000
,
0000
0100
0000
0100
,
0000
0000
0000
0000
,
0000
0010
0000
0010
,
0000
0000
0000
0000
,
0000
1001
0000
0000
,
1001
0000
0000
0000
;

//---------------dance-single - ----------------
#NOTES:
     dance-single:
     :
     Medium:
     5:
     0.315,0.347,0.225,0.266,0.000: // measure 1
1000
0000
0100
0000
1000
0100
1000
0000
,  // measure 2
0002
0000
1000
1003
0000
0000
0000
0000
,  // measure 3
0000
0000
0001
0000
0001
0100
0001
0000
,  // measure 4
1000
0110
0001
0110
,  // measure 5
1000
0000
1000
0000
1000
0010
1000
0000
,  // measure 6
0002
0000
1000
1003
0000
0000
0000
0000
,  // measure 7
0000
0000
1000
0000
1000
0010
1000
0000
,  // measure 8
0001
0000
0000
0100
0000
0001
0001
0000
,  // measure 9
1001
1000
0010
0100
,  // measure 10
0002
0000
0013
0100
,  // measure 11
1000
0001
0200
0300
,  // measure 12
0200
0310
0110
1001
,  // measure 13
1000
0001
0010
0100
,  // measure 14
2000
0000
3100
0010
,  // measure 15
0001
0100
0020
0030
,  // measure 16
0020
0130
0110
1001
,  // measure 17
0020
0001
0000
0001
,  // measure 18
0000
0001
0000
0031
,  // measure 19
0200
1000
0000
1000
,  // measure 20
0000
1000
0000
1300
,  // measure 21
0020
0001
0000
0001
,  // measure 22
0000
0000
0001
0030
0000
0001
0100
0002
,  // measure 23
0000
0000
1003
0000
0000
1000
0010
2000
,  // measure 24
0000
0000
3001
0000
0000
0000
1000
0001
,  // measure 25
0000
0000
0000
0000
0001
1000
0000
0000
,  // measure 26
0000
0000
1001
0000
0000
0020
0000
0000
,  // measure 27
1030
0100
0010
1001
,  // measure 28
0000
0000
0000
0000
,  // measure 29
0001
0010
0100
1001
,  // measure 30
0000
0000
0000
0000
,  // measure 31
0010
0100
0000
0002
,  // measure 32
0000
0010
0000
0013
,  // measure 33
0100
1000
0010
0100
,  // measure 34
0220
0000
0000
0330
,  // measure 35
0001
0010
0100
1001
,  // measure 36
0000
0000
0000
0000
,  // measure 37
1000
0100
0010
1001
,  // measure 38
0000
0000
0000
0000
,  // measure 39
0001
0000
1000
0000
0001
0000
0000
1001
,  // measure 40
0000
0010
0010
0010
,  // measure 41
1001
0000
0000
0000
,  // measure 42
0000
0100
1000
0010
,  // measure 43
0200
0000
0301
1000
,  // measure 44
0002
0000
0103
0010
,  // measure 45
0200
0000
0000
0300
,  // measure 46
0001
0010
0100
2002
,  // measure 47
0000
0000
0000
3003
,  // measure 48
1000
0100
0010
2002
,  // measure 49
0000
0000
0000
3003
,  // measure 50
0100
0001
0100
0000
,  // measure 51
0010
1000
0010
0000
,  // measure 52
0100
0010
0100
0001
,  // measure 53
2002
0000
0000
3003
,  // measure 54
1000
0100
0010
2002
,  // measure 55
0000
0000
0000
3003
,  // measure 56
0001
0010
0100
2002
,  // measure 57
0000
0000
0000
3003
,  // measure 58
0001
0000
1000
0000
0001
0000
0000
1001
,  // measure 59
0000
0100
0100
0100
,  // measure 60
1001
0000
0000
0100
,  // measure 61
1001
0000
1000
0000
0010
1000
0010
0000
,  // measure 62
2000
0000
0001
3001
0000
0000
0000
0000
,  // measure 63
0000
0000
0001
0000
0100
0001
0100
0000
,  // measure 64
0001
0010
0100
1000
,  // measure 65
0001
0000
1000
0000
0100
1000
0100
0000
,  // measure 66
2000
0000
0001
3001
0000
0000
0000
0000
,  // measure 67
0000
0000
1000
0000
0100
1000
0100
0000
,  // measure 68
1000
0001
0000
0100
0000
0001
1000
0001
,  // measure 69
0000
0000
1001
0000
0000
1001
0000
0000
,  // measure 70
0110
0000
0000
0110
0000
0000
0000
0000
;
