#TITLE:繚乱ヒットチャート;
#SUBTITLE:;
#ARTIST:ギラギラメガネ団;
#TITLETRANSLIT:RYOURAN HIT CHART;
#SUBTITLETRANSLIT:;
#ARTISTTRANSLIT:GYRAGYRA MEGANE DAN;
#CREDIT:DigiMindAxel;
#BANNER:RYOURAN HIT CHART.png;
#BACKGROUND:RYOURAN HIT CHART-bg.png;
#LYRICSPATH:RYOURAN HIT CHART.lrc;
#CDTITLE:GUITAR FREAKS & drummania.png;
#MUSIC:RYOURAN HIT CHART.mp3;
#OFFSET:-5.280;
#SAMPLESTART:77.750;
#SAMPLELENGTH:12.000;
#SELECTABLE:YES;
#BPMS:0.000=192.000;
#STOPS:;
#BGCHANGES:-17.000=RYOURAN HIT CHART.AVI=1.000=1=1=0,
99999=-nosongbg-=1.000=0=0=0 // don't automatically add -songbackground-
;

//---------------dance-single - ----------------
#NOTES:
     dance-single:
     :
     Easy:
     4:
     0.297,0.370,0.208,0.125,0.000:
0002
0000
0000
0000
,
0000
0000
1003
0000
,
1001
0001
0001
0000
,
1001
1000
1000
0000
,
1001
0001
0001
0000
,
1001
1000
1000
0000
,
0110
0010
0010
0000
,
0110
0100
0100
0000
,
0110
0010
0010
0000
,
0110
0100
0001
0010
,
0100
1000
0100
0000
,
1000
0001
1000
0000
,
0001
0010
0001
0000
,
1000
0001
1000
0000
,
0010
1000
0010
0000
,
0100
0001
0100
0000
,
0010
0100
0010
0100
,
0010
1000
0100
0010
,
0002
0000
0000
0000
,
0000
0000
0000
0000
,
2003
0000
0000
0000
,
0000
0000
0000
0000
,
3010
0000
0010
0000
,
0010
0000
0010
0000
,
0100
0000
0100
0000
,
0000
0000
0000
0000
,
0000
0001
0000
0000
,
0000
0000
0000
0000
,
0010
0000
0000
0000
,
0000
0000
0000
0000
,
0200
0000
0000
0000
,
2300
0000
0000
0000
,
3002
0000
0000
0000
,
2003
0000
0000
0000
,
3001
0000
1001
0000
,
1000
0000
0010
0000
,
0100
0000
0110
0000
,
0001
0000
1000
0000
,
1001
0000
0010
0000
,
0100
0000
0001
0000
,
0010
0010
0010
0010
,
0100
0100
0100
0000
,
1001
0000
0100
0000
,
1000
0000
0010
0000
,
1000
0000
0100
0000
,
0010
0001
0010
0100
,
1000
0000
0001
0000
,
1000
0000
0010
0000
,
0100
0001
0100
0001
,
0010
0100
1000
0010
,
0100
0000
0100
0000
,
0200
0000
0000
0010
,
0310
0000
0000
1000
,
2000
0000
0000
0000
,
3001
0000
0000
0000
,
1001
0000
0000
0100
,
0020
0000
0000
0130
,
0020
0000
0000
0030
,
1001
0010
0100
1000
,
0100
0010
0001
1000
,
0001
1000
0100
0010
,
0001
0010
0100
1000
,
0001
1000
0001
0010
,
0100
1000
0010
1000
,
0010
0100
0010
0100
,
0001
0100
0001
0000
,
0001
0010
0100
1000
,
0010
1000
0100
1000
,
0001
0000
0010
0000
,
0100
0000
1000
0000
,
0001
1000
0001
0010
,
0100
1000
0010
0100
,
0220
0000
0000
0330
,
2002
0000
0000
3003
,
0010
0000
0010
0000
,
0010
0000
0010
0000
,
0100
0000
0100
0000
,
0100
0000
0110
0000
,
1001
0010
0100
0000
,
1001
0100
0010
0000
,
1001
0010
0100
0000
,
1001
0100
0010
0000
,
0001
1000
0001
0010
,
0100
0100
1000
0010
,
0100
0100
0001
1000
,
1001
0000
1001
0000
,
0000
0110
0000
0000
,
0000
0000
0000
0000
,
0000
0000
0000
0000
,
1001
0000
0000
0000
;

//---------------dance-single - ----------------
#NOTES:
     dance-single:
     :
     Challenge:
     9:
     0.642,0.629,0.250,0.216,0.004: // measure 1
2001
0001
0001
0001
,  // measure 2
0001
0000
0000
0000
3001
0000
0000
0100
0010
0000
1000
0000
1000
0000
0000
0000
,  // measure 3
0001
0010
0001
0010
0001
0000
0011
0000
,  // measure 4
0100
1000
0100
1000
0100
0000
1100
0000
,  // measure 5
0001
0100
0001
0100
0001
0000
0101
0000
,  // measure 6
1000
0010
1000
0010
1000
0000
1010
0000
,  // measure 7
0010
0100
0010
0100
0010
0000
0110
0000
,  // measure 8
1000
0001
1000
0001
1000
0000
1001
0000
,  // measure 9
0100
0010
0100
0010
0100
0000
0110
0000
,  // measure 10
0001
1000
0001
1000
0100
0010
0001
0010
,  // measure 11
0100
0000
1000
0100
0010
0000
0001
0100
,  // measure 12
0010
0000
0100
0010
0000
0100
0001
0010
,  // measure 13
0100
0000
1000
0010
0000
1000
0001
0000
,  // measure 14
0100
0010
0100
0000
0001
0100
0010
1000
,  // measure 15
0100
0000
1000
0100
0010
0000
0001
0100
,  // measure 16
0010
0000
0100
0010
0000
0100
0001
0010
,  // measure 17
0100
0000
1000
0010
0000
1000
0001
0000
,  // measure 18
0100
0010
0100
0000
0001
0010
0100
1000
,  // measure 19
0020
0000
0000
1000
,  // measure 20
0000
1030
0100
0010
,  // measure 21
0001
1000
0100
0000
,  // measure 22
1000
0100
0010
0001
,  // measure 23
0100
0010
0100
0001
,  // measure 24
1000
0100
1000
0001
,  // measure 25
0010
0000
0001
0000
0100
0000
0010
2000
,  // measure 26
0000
0000
0000
3000
,  // measure 27
0002
0100
0100
0103
,  // measure 28
0020
1000
1000
1030
,  // measure 29
0002
0010
0010
0013
,  // measure 30
0200
1000
1000
1300
,  // measure 31
0020
0000
0100
0000
0100
0000
0130
0001
,  // measure 32
2000
0000
0001
0000
0001
0000
3001
0010
,  // measure 33
0200
0000
1000
0000
1000
0000
1300
0010
,  // measure 34
0000
0100
0010
0100
0000
0010
1000
0001
,  // measure 35
0001
0000
0010
0100
1000
0001
0000
0100
,  // measure 36
0000
0010
0100
0010
1000
0000
0100
0010
,  // measure 37
0001
1000
0000
0010
0000
0100
0010
0100
,  // measure 38
0001
1000
0001
0000
0010
0100
1000
0001
,  // measure 39
0100
0000
0010
1000
0100
0000
1000
0100
,  // measure 40
0010
0000
0100
0010
0001
0100
0001
0000
,  // measure 41
1000
1000
0001
0001
1000
1000
0001
0010
,  // measure 42
0100
0010
0001
1000
0100
0001
0100
0000
,  // measure 43
1001
0000
0001
0010
0100
0000
1000
0100
,  // measure 44
0010
0000
0001
0100
0010
0000
1000
0010
,  // measure 45
0100
0001
0010
0100
0000
1000
0001
0000
,  // measure 46
0001
0100
0010
1000
0100
0010
0001
0000
,  // measure 47
1001
0000
1000
0100
0010
0000
0001
0010
,  // measure 48
0100
0000
1000
0010
0100
0000
0001
0100
,  // measure 49
0010
1000
0100
0010
0001
0100
0010
1000
,  // measure 50
0000
0001
1000
0100
0010
0001
0100
0000
,  // measure 51
0002
0013
0200
1300
,  // measure 52
0010
0100
0000
0100
0001
0010
0100
1000
,  // measure 53
0200
1300
0002
0013
,  // measure 54
0100
0010
0000
0010
1000
0100
0010
0001
,  // measure 55
0100
0000
0000
0000
,  // measure 56
0001
0001
1001
0000
0000
0000
0010
0001
,  // measure 57
2000
0000
3010
0100
0000
0100
0001
1000
,  // measure 58
1000
1001
0000
1010
0000
0101
0001
0000
,  // measure 59
1000
0100
0010
0100
1000
0000
0100
0010
,  // measure 60
0001
0010
0100
0000
1000
0100
0010
0001
,  // measure 61
0200
0000
0301
0010
0200
0000
1300
0010
,  // measure 62
0100
0001
1000
0100
0010
0000
1001
0000
,  // measure 63
0001
0010
0100
0010
0001
0000
0010
0100
,  // measure 64
1000
0100
0010
0000
0001
0010
0100
1000
,  // measure 65
0020
0000
1030
0010
0200
0000
0301
0010
,  // measure 66
0100
1000
0010
0100
0001
0000
1001
0000
,  // measure 67
1000
0100
0010
0100
1000
0000
0100
0010
,  // measure 68
0001
0010
0100
0000
1000
0010
0100
0010
,  // measure 69
2000
0000
3001
0010
0200
0000
1300
0100
,  // measure 70
0020
0000
0031
0100
0010
0000
1001
0000
,  // measure 71
0001
0010
0100
0010
0001
0000
0010
0100
,  // measure 72
1000
0100
0010
0000
0001
0100
0010
0100
,  // measure 73
0101
0000
0000
1100
0000
0000
1001
0000
,  // measure 74
0100
0010
0100
0000
0110
0000
0110
0000
,  // measure 75
0002
1000
1000
1003
,  // measure 76
0100
0010
0001
1000
,  // measure 77
0020
0100
0100
0130
,  // measure 78
0001
0000
1000
0000
0010
0010
0110
0000
,  // measure 79
1000
0100
0010
0100
1000
0000
0100
0010
,  // measure 80
0001
0010
0100
0000
1000
0100
0001
0100
,  // measure 81
1000
0100
0010
0100
1000
0000
1001
0000
,  // measure 82
0001
0010
0100
0010
0001
0000
1001
0000
,  // measure 83
0010
0100
0001
0100
0010
0000
0101
0000
,  // measure 84
0100
0010
1000
0010
0100
0000
1010
0000
,  // measure 85
0001
0010
1000
0010
0001
0000
1001
0000
,  // measure 86
1000
0100
0001
0100
1000
0010
0100
0000
,  // measure 87
0100
0202
0000
0000
,  // measure 88
0000
0000
0000
0000
,  // measure 89
0300
0000
1000
1003
,  // measure 90
1001
0000
0000
0000
;

//---------------dance-single - ----------------
#NOTES:
     dance-single:
     :
     Hard:
     8:
     0.563,0.629,0.391,0.208,0.000:
2002
0000
0000
0000
,
0000
0000
3003
0000
1000
0001
1000
0000
,
0001
0010
0001
0010
0001
0000
0011
0000
,
1000
0100
1000
0100
1000
0000
1100
0000
,
0010
0100
0010
0100
0010
0000
0110
0000
,
0100
0010
0100
0010
0100
0000
0110
0000
,
1000
0010
1000
0010
1000
0000
1010
0000
,
0001
0100
0001
0100
0001
0000
0101
0000
,
1000
0001
1000
0001
1000
0000
1001
0000
,
0001
1000
0001
1000
0001
0010
0100
0000
,
2000
0000
0010
0000
3010
0000
0100
0001
,
0020
0000
0001
0000
0031
0000
0100
1000
,
0020
0000
0100
0000
0130
0000
0001
1000
,
0010
0100
0010
0000
1000
0001
1000
0000
,
0200
0000
1000
0000
1300
0000
0010
0001
,
0200
0000
0010
0000
0310
0000
1000
0001
,
0100
0000
0000
0110
0000
0000
1001
0000
,
0100
0100
0100
0000
0110
0000
0011
0000
,
2200
0000
0000
0000
,
0000
0000
0000
0300
,
0002
0000
0000
0000
,
0000
0000
0000
3003
,
0001
0010
0100
1000
,
0010
1000
0100
0010
,
0001
0000
0010
0000
0100
0000
0000
2000
,
0000
0000
0000
3000
,
0000
0001
0100
0001
,
0000
1000
0100
1000
,
0000
0010
0100
0010
,
0000
1000
0100
0010
,
1001
0000
0010
0000
0100
0000
1000
0001
,
0100
0010
0100
0010
,
0100
0001
1000
0001
,
0010
0000
0100
0000
1000
0001
1000
0001
,
1000
0000
0100
0000
0010
0000
0001
0100
,
0000
0001
1000
0000
0100
0000
0010
0000
,
0001
1000
0001
0000
1000
0000
0010
0100
,
0010
1000
0000
0000
0001
0000
0001
0000
,
1001
0000
0100
1000
0100
0000
1000
0001
,
0100
0000
0010
0100
0010
0000
0100
0001
,
1000
0100
1000
0100
1000
0001
0100
0010
,
0100
0010
0100
0000
0110
0000
0110
0000
,
1001
0000
1000
0100
0010
0000
0001
0010
,
2000
0000
0010
0000
3001
0000
1000
0100
,
0010
0001
0000
0100
0010
0000
1000
0010
,
0100
0000
0001
1000
0010
0000
1010
0000
,
1001
0000
0001
0010
0100
0000
1000
0100
,
0002
0000
0100
0000
1003
0000
0001
0010
,
0100
1000
0000
0010
0100
0000
0001
1000
,
0010
0100
0010
1000
0100
0010
0001
0000
,
1001
0100
1100
0100
,
2002
0000
3000
1003
,
1001
0100
0101
0100
,
1002
0000
0000
0000
1003
0100
0010
0001
,
1000
0000
0000
0000
,
0001
1000
0001
0000
0000
0000
0000
0000
,
1001
0000
0000
0110
0000
0000
1001
0000
,
1000
0001
0000
0010
0000
0100
0010
0000
,
0001
0010
0100
0010
0001
0000
0100
0010
,
1000
0100
0010
0000
0100
0000
1000
0000
,
0200
0000
1300
0001
0200
0000
0301
1000
,
0100
0100
0110
1001
,
1000
0100
0010
0100
1000
0000
0010
0100
,
0001
0010
0100
0000
0010
0000
0001
0000
,
0020
0000
0031
1000
0020
0000
1030
0001
,
0010
0010
0110
1001
,
0100
0010
0001
0010
0100
0000
1000
0001
,
0100
0001
1000
0000
0010
0000
0100
0000
,
0002
0000
0013
0100
2000
0000
3100
0010
,
0001
0001
0001
1001
,
0010
0100
1000
0100
0010
0000
0001
1000
,
0010
1000
0001
0000
0010
0000
0100
0000
,
1100
0000
0000
0011
0000
0000
1001
0000
,
0010
0100
0010
0000
1001
0000
1001
0000
,
1000
0010
0100
0001
,
0010
0100
1000
0010
,
2000
0000
0001
0000
,
3001
0000
0000
0000
0100
0010
0100
0000
,
0001
0100
0010
0100
0001
0000
1000
0010
,
0100
0010
1000
0000
0001
0000
1000
0000
,
0010
0100
0010
0100
0010
0000
0110
0000
,
1000
0001
1000
0001
1000
0000
1001
0000
,
0001
1000
0100
0000
1000
0000
1100
0000
,
1000
0001
0010
0000
0001
0000
0011
0000
,
0100
1000
0010
0000
0100
0000
0110
0000
,
0010
0001
0100
0000
0010
0000
0110
0000
,
0000
2020
0000
0000
,
0000
0000
0000
0000
,
0030
0000
0001
3001
,
1001
0000
0000
0000
;

//---------------dance-single - ----------------
#NOTES:
     dance-single:
     :
     Beginner:
     1:
     0.064,0.222,0.058,0.000,0.000:
0000
0000
0000
0000
,
0000
0000
0000
0000
,
1000
0000
0000
0000
,
1000
0000
0000
0000
,
0001
0000
0000
0000
,
0001
0000
0000
0000
,
0100
0000
0000
0000
,
0100
0000
0000
0000
,
0010
0000
0000
0000
,
0010
0000
0000
0000
,
1000
0000
0000
0000
,
0000
0000
0000
0000
,
0001
0000
0000
0000
,
0000
0000
0000
0000
,
1000
0000
0000
0000
,
0000
0000
0000
0000
,
0001
0000
0000
0000
,
0000
0000
0000
0000
,
1000
0000
0000
0000
,
0000
0000
0000
0000
,
0000
0000
0000
0000
,
0000
0000
0000
0000
,
0010
0000
0000
0000
,
0000
0000
0000
0000
,
0000
0000
0000
0000
,
0000
0000
0000
0000
,
0000
1000
0000
0000
,
0000
0000
0000
0000
,
0000
0000
0000
0000
,
0000
0000
0000
0000
,
0001
0000
0000
0000
,
0000
0000
0000
0000
,
0000
0000
0000
0000
,
0000
0000
0000
0000
,
1000
0000
0000
0000
,
0000
0000
0000
0000
,
0010
0000
0000
0000
,
0000
0000
0000
0000
,
1000
0000
0000
0000
,
0000
0000
0000
0000
,
0001
0000
0000
0000
,
0000
0000
0000
0000
,
0100
0000
0000
0000
,
0000
0000
0000
0000
,
0001
0000
0000
0000
,
0000
0000
0000
0000
,
1000
0000
0000
0000
,
0000
0000
0000
0000
,
0001
0000
0000
0000
,
0000
0000
0000
0000
,
1000
0000
0000
0000
,
0000
0000
0000
0000
,
1000
0000
0000
0000
,
0000
0000
0000
0000
,
0010
0000
0000
0000
,
0000
0000
0000
0000
,
0100
0000
0000
0000
,
0000
0000
0000
0000
,
0100
0000
0000
0000
,
0000
0000
0000
0000
,
0001
0000
0000
0000
,
0000
0000
0000
0000
,
1000
0000
0000
0000
,
0000
0000
0000
0000
,
0001
0000
0000
0000
,
0000
0000
0000
0000
,
1000
0000
0000
0000
,
0000
0000
0000
0000
,
0010
0000
0000
0000
,
0000
0000
0000
0000
,
0010
0000
0000
0000
,
0000
0000
0000
0000
,
0110
0000
0000
0000
,
0000
0000
0000
0000
,
1000
0000
0000
0000
,
0000
0000
0000
0000
,
0000
0000
0000
0000
,
0000
0000
0000
0000
,
1001
0000
0000
0000
,
1001
0000
0000
0000
,
1001
0000
0000
0000
,
0001
0000
0000
0000
,
1001
0000
0000
0000
,
1000
0000
0000
0000
,
1001
0000
0000
0000
,
0001
0000
0000
0000
,
0000
1000
0000
0000
,
0000
0000
0000
0000
,
0000
0000
0000
0000
,
1001
0000
0000
0000
;

//---------------dance-single - ----------------
#NOTES:
     dance-single:
     :
     Medium:
     6:
     0.433,0.555,0.316,0.133,0.000:
1000
0001
1000
0001
,
1000
0020
0000
0030
,
1001
0000
1000
0001
1000
0000
0000
0000
,
1001
0000
0001
1000
0001
0000
0000
0000
,
1001
0000
1000
0001
1000
0000
0000
0000
,
1001
0000
0001
1000
0001
0000
0000
0000
,
0110
0000
0100
0010
0100
0000
0000
0000
,
0110
0000
0010
0100
0010
0000
0000
0000
,
0110
0000
0100
0010
0100
0000
0000
0000
,
0110
0010
1000
0100
,
1000
0001
1000
0000
0100
0000
0010
0000
,
0001
0000
1000
0000
0001
0000
1000
0001
,
1000
0100
1000
0010
,
0100
0010
0100
0000
0001
1000
0001
0000
,
0100
0001
0100
0010
,
1000
0010
1000
0001
,
0110
0000
0000
0110
0000
0000
1001
0000
,
0100
0010
0100
0000
0001
0000
0100
0000
,
0020
0000
0000
0000
,
0000
0000
0000
0030
,
2000
0000
0000
0000
,
0000
0000
3000
0000
,
0100
1000
0100
0000
,
0010
0001
0010
0000
,
0100
0000
1000
0000
0100
0000
0000
0010
,
0000
0000
0000
0000
,
0000
0002
0000
0000
,
0000
0203
0000
0000
,
0320
0000
0000
0000
,
2030
0000
0000
0000
,
3100
0000
0010
0000
,
0001
0000
0010
0000
,
0100
0000
1000
0000
,
0001
0000
1000
0000
,
1001
0000
0100
0001
,
0100
0000
0010
1000
,
0010
0000
0100
0001
,
0010
0000
0100
1000
,
0010
1000
0010
0100
,
0100
0001
0010
0100
,
1000
0100
1000
0000
0100
1000
0100
0000
,
0010
0001
0010
0000
0001
0010
0001
0000
,
1001
1000
0001
0010
,
0001
1000
0001
0000
0100
0000
0010
0000
,
1000
0000
0010
0100
0010
0000
1000
0000
,
1001
0000
0100
0001
0100
0000
0010
0000
,
1000
0000
0100
0000
1000
0000
0001
1000
,
0001
1000
0100
0010
,
0001
0000
0100
0010
0100
0000
0001
1000
,
0000
0100
0000
0010
0000
0001
0100
0000
,
0210
0000
0010
0000
,
0320
0000
0000
1000
,
2030
0000
0000
0001
,
3001
0000
0000
0000
0100
0010
0100
0010
,
0100
0000
0000
0000
,
1001
0000
0000
0000
,
1100
0000
0000
1000
0000
0000
0001
0000
,
0022
0000
0000
0033
,
1001
0000
0100
0000
0010
0000
0001
0100
,
0001
0100
0010
0000
1000
0000
0001
0000
,
1000
0100
1000
0001
,
0100
0001
0010
0100
,
1001
0000
0010
0000
0100
0000
1000
0010
,
1000
0010
0100
0000
0001
0000
0100
0000
,
0001
1000
0100
1000
,
0001
0000
0100
0010
0100
0010
0100
0000
,
1001
0000
0100
0000
0010
0000
0001
0100
,
0001
0100
0010
0000
1000
0000
0010
0000
,
1000
0001
0010
0001
,
1000
0100
1000
0001
,
1000
0010
1000
0000
1001
0000
0001
0100
,
0001
1001
0100
0010
,
0110
0000
0000
0001
0000
0000
1000
0000
,
2002
0000
0000
3003
,
0100
1000
0100
1000
,
0100
1000
0100
0010
,
0001
0010
0001
0010
,
0001
0000
0110
0000
,
1001
0000
1000
0001
1000
0000
1001
0000
,
0001
1000
0001
0000
0110
0000
1000
0000
,
1001
0000
0100
0010
0100
0000
0110
0000
,
1001
0000
0010
0100
0010
0000
0110
0000
,
0001
1000
0001
0000
1000
0000
1001
0000
,
0100
0010
0100
0000
0100
0000
0110
0000
,
1000
0001
1000
0000
0001
0000
1001
0000
,
0100
0001
0010
0100
,
0000
2020
0000
0000
,
0000
0000
0000
0000
,
0000
0000
0000
3030
,
1001
0000
0000
0000
;
