#TITLE:プリズム;
#SUBTITLE:;
#ARTIST:SE-NA☆ from 4C-STATE;
#TITLETRANSLIT:PRISM;
#SUBTITLETRANSLIT:;
#ARTISTTRANSLIT:SE-NA from 4C-STATE;
#CREDIT:DigiMindAxel;
#BANNER:PRISM.png;
#BACKGROUND:PRISM-bg.png;
#LYRICSPATH:PRISM.lrc;
#CDTITLE:pop'n music.png;
#MUSIC:PRISM.mp3;
#OFFSET:-7.280;
#SAMPLESTART:61.551;
#SAMPLELENGTH:12.000;
#SELECTABLE:YES;
#BPMS:0.000=210.000;
#STOPS:;
#BGCHANGES:;

//---------------dance-single - ----------------
#NOTES:
     dance-single:
     :
     Easy:
     3:
     0.217,0.320,0.224,0.019,0.000: // measure 1
0001
1000
0001
0000
,  // measure 2
0000
0000
0000
0000
,  // measure 3
0100
0010
0100
0000
,  // measure 4
0000
0000
0000
0000
,  // measure 5
0001
1000
0001
0000
,  // measure 6
0000
0000
0000
0000
,  // measure 7
0100
0010
0100
0000
,  // measure 8
0000
0000
0000
0000
,  // measure 9
0001
0010
0100
0000
,  // measure 10
0000
0000
0000
0000
,  // measure 11
1000
0100
0010
0000
,  // measure 12
0000
0000
0000
0000
,  // measure 13
0001
1000
0001
0000
,  // measure 14
0100
0000
0010
0000
,  // measure 15
1000
0010
1000
0000
,  // measure 16
0010
0000
0100
0000
,  // measure 17
1001
0000
0000
0001
,  // measure 18
0000
0001
0000
0001
,  // measure 19
0000
1000
0000
1000
,  // measure 20
0000
1000
0000
1000
,  // measure 21
0000
0010
0000
0010
,  // measure 22
0000
0010
0000
0010
,  // measure 23
0000
0100
0000
0100
,  // measure 24
0000
0100
0000
0000
,  // measure 25
1001
0000
0000
1000
,  // measure 26
0000
1000
0000
1000
,  // measure 27
0000
0001
0000
0001
,  // measure 28
0000
0000
0000
0000
,  // measure 29
1001
0000
0010
0000
,  // measure 30
0010
0000
0000
0000
,  // measure 31
1001
0000
0001
0000
,  // measure 32
0000
0000
0000
0000
,  // measure 33
1001
0000
1000
0000
,  // measure 34
0000
0000
0000
0000
,  // measure 35
0010
0000
0010
0000
,  // measure 36
0010
0000
0000
0000
,  // measure 37
0100
0000
0000
0000
,  // measure 38
0000
0000
0000
0000
,  // measure 39
1001
0000
0000
0000
,  // measure 40
0000
0000
0000
0000
,  // measure 41
0110
0000
0000
0000
,  // measure 42
0000
0000
0000
0000
,  // measure 43
1001
0000
1000
0000
,  // measure 44
0001
0000
0000
0000
,  // measure 45
0010
0000
0100
0000
,  // measure 46
1000
0000
1000
0000
,  // measure 47
1001
0000
0000
0000
,  // measure 48
0110
0000
0000
0000
,  // measure 49
0001
0000
0001
0000
,  // measure 50
1000
0000
1000
0000
,  // measure 51
0010
0000
0010
0000
,  // measure 52
0100
0000
0100
0000
,  // measure 53
0010
0000
1000
0000
,  // measure 54
0100
0000
0010
0000
,  // measure 55
0001
0000
1000
0000
,  // measure 56
0001
0000
0000
0000
,  // measure 57
1000
0000
0100
0000
,  // measure 58
0010
0000
0001
0000
,  // measure 59
0010
0000
0001
0000
,  // measure 60
1000
0000
0000
0000
,  // measure 61
0010
0000
0100
0000
,  // measure 62
0010
0000
0000
0000
,  // measure 63
1000
0000
0001
0000
,  // measure 64
1000
0000
0000
0000
,  // measure 65
2002
0000
0000
0000
,  // measure 66
0000
0000
3003
0000
,  // measure 67
1001
0000
1000
0000
,  // measure 68
1001
0000
0001
0000
,  // measure 69
1001
0000
1000
0000
,  // measure 70
1001
0000
0001
0000
,  // measure 71
0110
0000
1000
0000
,  // measure 72
0110
0000
0001
0000
,  // measure 73
1000
0000
0001
0000
,  // measure 74
1000
0000
0000
0000
,  // measure 75
1001
0000
0001
0000
,  // measure 76
1001
0000
1000
0000
,  // measure 77
1001
0000
0001
0000
,  // measure 78
1001
0000
1000
0000
,  // measure 79
0110
0000
0001
0000
,  // measure 80
0110
0000
1000
0000
,  // measure 81
0001
0000
1000
0000
,  // measure 82
0010
0000
0000
0000
,  // measure 83
0100
0010
0100
0000
,  // measure 84
0000
0000
0000
0000
,  // measure 85
0001
1000
0001
0000
,  // measure 86
0000
0000
0000
1001
;

//---------------dance-single - ----------------
#NOTES:
     dance-single:
     :
     Hard:
     9:
     0.667,0.642,0.635,0.149,0.663: // measure 1
1001
0000
0000
0101
0000
0000
1001
0000
0000
0000
0000
0100
,  // measure 2
0000
0000
0100
0000
0000
1000
0001
0000
0001
1000
0000
0000
,  // measure 3
1001
0000
0000
0011
0000
0000
1001
0000
0000
0000
0000
0010
,  // measure 4
0000
0000
0010
0000
0000
0001
1000
0000
1000
0001
0000
0000
,  // measure 5
1001
0000
0000
0101
0000
0000
1001
0000
0000
0000
0000
0100
,  // measure 6
0000
0000
0100
0000
0000
0001
1000
0000
1000
0001
0000
0000
,  // measure 7
1001
0000
0000
0110
0000
0000
1001
0000
0000
0000
0000
0010
,  // measure 8
0000
0000
0010
0000
0000
1000
0001
0000
0001
1000
0000
0010
,  // measure 9
0100
0000
0000
0110
0000
0000
1001
0000
0000
0000
0000
1000
,  // measure 10
0000
0000
1000
0000
0000
1000
0001
0000
0001
1000
0000
0000
,  // measure 11
0110
0000
0000
0110
0000
0000
1001
0000
0000
0000
0000
0010
,  // measure 12
0000
0000
0010
0000
0000
1000
0001
0000
0001
1000
0000
0000
,  // measure 13
1100
0000
0000
0101
0000
0000
1100
0000
0000
0000
0000
0100
,  // measure 14
0000
0000
0100
0000
0000
0001
1000
0000
1000
0001
0000
0000
,  // measure 15
0101
0000
0000
1100
0000
0000
0101
0000
0000
0000
0000
0110
,  // measure 16
0000
0000
0110
0000
0000
0001
1000
0000
1000
0001
0000
0000
,  // measure 17
0201
0001
0000
0001
,  // measure 18
0000
0301
0010
0100
,  // measure 19
1020
1000
0000
1000
,  // measure 20
1030
0000
0000
0100
0000
0000
0010
0000
0000
0001
0000
1000
,  // measure 21
0001
0100
1000
0100
,  // measure 22
0001
0000
0000
0100
0000
0000
0010
0000
1000
0001
0000
1000
,  // measure 23
0002
1000
2003
0001
,  // measure 24
3001
0000
0100
0000
0000
0000
0010
0000
0100
0010
0000
0100
,  // measure 25
0010
1000
0100
0001
,  // measure 26
0100
1000
0001
1000
,  // measure 27
0010
0110
0010
1001
,  // measure 28
0000
1000
1000
1000
,  // measure 29
1001
0001
1000
0010
,  // measure 30
0100
0000
0010
0100
0000
0010
0100
0000
0001
1000
0000
0000
,  // measure 31
1100
0000
0000
0101
0000
0000
1100
0000
0000
0000
0000
0001
,  // measure 32
0000
0000
1000
0000
0000
0010
0100
0000
0010
0100
0000
0000
,  // measure 33
0101
0000
0000
1100
0000
0000
0101
0000
0000
0000
0000
1000
,  // measure 34
0000
0000
0001
0000
0000
0100
0010
0000
0100
0010
0000
0000
,  // measure 35
2010
0000
3002
0000
,  // measure 36
0103
0000
0010
0000
0000
0000
2000
0000
0000
0000
0000
0000
,  // measure 37
3001
0000
0000
0101
0000
0000
0101
0000
0000
0000
0000
1000
,  // measure 38
0000
0000
1000
0000
0000
0010
0100
0000
0010
0100
0000
0000
,  // measure 39
1010
0000
0000
1010
0000
0000
0001
0000
0010
0000
0000
0100
,  // measure 40
0020
0100
0100
0130
,  // measure 41
0110
0000
0000
1000
0100
1000
0100
0000
0000
1001
0000
0000
,  // measure 42
0000
0000
0000
0100
0000
0000
0100
0010
0100
0010
0000
0000
,  // measure 43
2000
0001
3002
1000
,  // measure 44
1003
0000
0010
0000
0000
0100
0010
0000
0000
2000
0000
0000
,  // measure 45
0001
3001
1002
1000
,  // measure 46
1003
0000
0010
0000
0000
0100
0010
0000
0100
0010
0000
0000
,  // measure 47
1000
0000
0001
0100
0000
0010
0100
0000
0001
1000
0000
0000
,  // measure 48
1001
0000
0000
0000
0000
0000
1000
0000
0001
0100
0000
0001
,  // measure 49
0100
0000
0000
0001
0000
0000
1001
0000
0000
0001
0000
0100
,  // measure 50
0000
0000
0010
0000
0000
1000
0010
0000
0000
1000
0000
0000
,  // measure 51
0001
0000
0000
1001
0000
0000
1000
0000
0000
0001
0000
0100
,  // measure 52
0000
0000
0010
0000
0000
1000
0010
0000
0000
1000
0000
0000
,  // measure 53
1001
0000
0000
0001
0000
0000
0011
0000
0000
1000
0000
0010
,  // measure 54
0000
0000
0100
0000
0000
0001
0100
0000
0000
0001
0000
0000
,  // measure 55
1000
0000
0000
1100
0000
0000
1001
0000
0000
1000
0000
0010
,  // measure 56
0000
0000
1000
0001
0000
0000
1000
0000
0001
0100
0000
0001
,  // measure 57
0100
0000
0000
0001
0000
0000
1001
0000
0000
1000
0000
0010
,  // measure 58
0000
0000
0100
0000
0000
0001
1000
0000
1000
0001
0000
0000
,  // measure 59
1001
1000
1100
1100
,  // measure 60
0001
0000
0100
0001
0000
1000
0000
0000
0100
1000
0000
0000
,  // measure 61
1001
0001
2000
0010
,  // measure 62
3020
0000
0000
0000
0000
0100
0000
0000
0000
0130
0000
0000
,  // measure 63
1001
0001
1000
0010
,  // measure 64
0100
0000
0001
0100
0000
0001
0100
0000
0001
1000
0000
0001
,  // measure 65
1000
0000
0100
0000
0000
0010
0001
0000
1000
0000
0000
0001
,  // measure 66
1000
0000
0001
1000
0000
0010
0100
0000
0010
0100
0000
0000
,  // measure 67
0001
0000
0100
0001
0000
0100
0001
0000
0000
1000
0000
0100
,  // measure 68
1000
0000
0100
1000
0000
0000
0001
0000
0000
1000
0000
0000
,  // measure 69
0001
0000
0010
0001
0000
0010
0001
0000
0000
1000
0000
0010
,  // measure 70
1000
0000
0010
1000
0000
0000
0001
0000
0000
1000
0000
0000
,  // measure 71
0010
0000
0100
0010
0000
0100
0001
0000
0000
0100
0000
0010
,  // measure 72
0100
0000
0010
1000
0000
0000
0001
0000
0000
1000
0000
0000
,  // measure 73
0020
0100
0230
0010
,  // measure 74
0310
0000
1000
0000
0000
0001
1000
0000
0001
1000
0000
0000
,  // measure 75
0001
0000
0100
0001
0000
0100
0010
0000
0000
1000
0000
0010
,  // measure 76
1000
0000
0010
0100
0000
0000
0001
0000
0000
1000
0000
0000
,  // measure 77
0100
0000
1000
0010
0000
1000
0010
0000
0000
0100
0000
0001
,  // measure 78
0100
0000
0001
0010
0000
0000
0001
0000
0000
1000
0000
0000
,  // measure 79
0100
0000
1000
0001
0000
1000
0001
0000
0000
0010
0000
0001
,  // measure 80
1000
0000
0001
1000
0000
0000
0100
0000
0000
0010
0000
0000
,  // measure 81
0011
0000
0000
0100
0000
0000
1000
0000
0000
0000
0000
0010
,  // measure 82
0100
0000
0000
0000
0000
0001
1000
0000
1000
0001
0000
0000
,  // measure 83
0011
0000
0000
0101
0000
0000
1001
0000
0000
0000
0000
0110
,  // measure 84
0000
0000
0110
0000
0000
1000
0010
0000
0100
0001
0000
0000
,  // measure 85
1100
0000
0000
1010
0000
0000
1001
0000
0000
0000
0000
0110
,  // measure 86
0000
0000
0110
0000
0000
0001
0100
0000
0010
1000
0000
1000
;

//---------------dance-single - ----------------
#NOTES:
     dance-single:
     :
     Beginner:
     2:
     0.087,0.160,0.093,0.000,0.000: // measure 1
0001
0000
0000
0000
,  // measure 2
0000
0000
0000
0000
,  // measure 3
0000
0000
0000
0000
,  // measure 4
0000
0000
0000
0000
,  // measure 5
1000
0000
0000
0000
,  // measure 6
0000
0000
0000
0000
,  // measure 7
0000
0000
0000
0000
,  // measure 8
0000
0000
0000
0000
,  // measure 9
0001
0000
0000
0000
,  // measure 10
0000
0000
0000
0000
,  // measure 11
0000
0000
0000
0000
,  // measure 12
0000
0000
0000
0000
,  // measure 13
1000
0000
0000
0000
,  // measure 14
0000
0000
0000
0000
,  // measure 15
0010
0000
0000
0000
,  // measure 16
0000
0000
0000
0000
,  // measure 17
0010
0000
0000
0000
,  // measure 18
0000
0000
0000
0000
,  // measure 19
0100
0000
0000
0000
,  // measure 20
0000
0000
0000
0000
,  // measure 21
0100
0000
0000
0000
,  // measure 22
0000
0000
0000
0000
,  // measure 23
0001
0000
0000
0000
,  // measure 24
1000
0000
0000
0000
,  // measure 25
0001
0000
0000
0000
,  // measure 26
0000
0000
0000
0000
,  // measure 27
1000
0000
0000
0000
,  // measure 28
0000
0000
0000
0000
,  // measure 29
0010
0000
0000
0000
,  // measure 30
0000
0000
0000
0000
,  // measure 31
1001
0000
0000
0000
,  // measure 32
0000
0000
0000
0000
,  // measure 33
1001
0000
0000
0000
,  // measure 34
0000
0000
0000
0000
,  // measure 35
0001
0000
0000
0000
,  // measure 36
1000
0000
0000
0000
,  // measure 37
0001
0000
0000
0000
,  // measure 38
0000
0000
0000
0000
,  // measure 39
0110
0000
0000
0000
,  // measure 40
0000
0000
0000
0000
,  // measure 41
1001
0000
0000
0000
,  // measure 42
0000
0000
0000
0000
,  // measure 43
1000
0000
0000
0000
,  // measure 44
0001
0000
0000
0000
,  // measure 45
1000
0000
0000
0000
,  // measure 46
0001
0000
0000
0000
,  // measure 47
1000
0000
0000
0000
,  // measure 48
0000
0000
0000
0000
,  // measure 49
0010
0000
0000
0000
,  // measure 50
0010
0000
0000
0000
,  // measure 51
0100
0000
0000
0000
,  // measure 52
0100
0000
0000
0000
,  // measure 53
0010
0000
0000
0000
,  // measure 54
0010
0000
0000
0000
,  // measure 55
0100
0000
0000
0000
,  // measure 56
0100
0000
0000
0000
,  // measure 57
0001
0000
0000
0000
,  // measure 58
0001
0000
0000
0000
,  // measure 59
1000
0000
0000
0000
,  // measure 60
1000
0000
0000
0000
,  // measure 61
0001
0000
0000
0000
,  // measure 62
1000
0000
0000
0000
,  // measure 63
0010
0000
0000
0000
,  // measure 64
0100
0000
0000
0000
,  // measure 65
0010
0000
0000
0000
,  // measure 66
0000
0000
0000
0000
,  // measure 67
1001
0000
0000
0000
,  // measure 68
0000
0000
0000
0000
,  // measure 69
0110
0000
0000
0000
,  // measure 70
0000
0000
0000
0000
,  // measure 71
1001
0000
0000
0000
,  // measure 72
0000
0000
0000
0000
,  // measure 73
0001
0000
0000
0000
,  // measure 74
1000
0000
0000
0000
,  // measure 75
1001
0000
0000
0000
,  // measure 76
0000
0000
0000
0000
,  // measure 77
0110
0000
0000
0000
,  // measure 78
0000
0000
0000
0000
,  // measure 79
1001
0000
0000
0000
,  // measure 80
0000
0000
0000
0000
,  // measure 81
1000
0000
0000
0000
,  // measure 82
0010
0000
0000
0000
,  // measure 83
1000
0000
0000
0000
,  // measure 84
0000
0000
0000
0000
,  // measure 85
0001
0000
0000
0000
,  // measure 86
0000
0000
0000
1000
;

//---------------dance-single - ----------------
#NOTES:
     dance-single:
     :
     Medium:
     6:
     0.411,0.481,0.308,0.177,0.084: // measure 1
1000
0001
1000
0000
,  // measure 2
0000
0001
0010
0100
,  // measure 3
1000
0001
1000
0000
,  // measure 4
1000
0100
0010
0001
,  // measure 5
1000
0001
1000
0000
,  // measure 6
0000
1000
0100
0010
,  // measure 7
0001
1000
0001
0000
,  // measure 8
0001
0000
1000
0000
,  // measure 9
1000
0100
0010
0000
,  // measure 10
0000
0001
1000
0001
,  // measure 11
0010
0100
1000
0000
,  // measure 12
1000
0000
0001
0000
,  // measure 13
0001
1000
0001
0000
,  // measure 14
0100
0010
0100
0010
,  // measure 15
1000
0001
1000
0000
,  // measure 16
1100
0000
0011
0000
,  // measure 17
1001
0000
1000
0010
,  // measure 18
1000
0001
1000
0000
,  // measure 19
1001
0000
0000
0001
,  // measure 20
0100
0001
1000
0000
,  // measure 21
1001
0000
1000
0100
,  // measure 22
1000
0001
1000
0000
,  // measure 23
1001
0000
0101
0000
,  // measure 24
1010
0000
0010
0000
,  // measure 25
1001
0000
0001
0000
,  // measure 26
0100
0001
0010
0001
,  // measure 27
1000
1000
1000
1001
,  // measure 28
0000
0001
0001
0001
,  // measure 29
0002
0000
0203
0000
,  // measure 30
0310
1000
0100
0010
,  // measure 31
1001
0000
0000
1000
0000
0000
1100
0000
0000
0000
0000
0002
,  // measure 32
0000
1003
0100
0010
,  // measure 33
1001
0000
0000
0001
0000
0000
0011
0000
0000
0000
0000
2000
,  // measure 34
0000
3001
0010
0100
,  // measure 35
2001
0000
3200
0000
,  // measure 36
0320
0000
0032
0000
,  // measure 37
1003
0000
0000
1000
0000
0000
1000
0000
0000
0000
0000
0002
,  // measure 38
0000
0000
1003
0000
,  // measure 39
1001
0001
0000
0000
,  // measure 40
0000
0001
0010
0100
,  // measure 41
2002
0000
3003
0110
,  // measure 42
0000
1000
0100
0010
,  // measure 43
1002
0000
0023
0000
,  // measure 44
0230
0000
1300
0000
,  // measure 45
0100
0000
0010
0000
,  // measure 46
0001
1000
0001
0000
,  // measure 47
1001
0001
1000
0001
,  // measure 48
0110
0000
1000
1000
,  // measure 49
1000
0000
0000
0001
0000
0000
1000
0000
0000
0000
0000
0010
,  // measure 50
0000
0000
0100
0000
0000
0000
0001
0000
0000
0010
0000
0000
,  // measure 51
0100
0000
0000
1000
0000
0000
0001
0000
0000
0000
0000
0100
,  // measure 52
0000
0000
0010
0000
0000
0000
1000
0000
0000
0100
0000
0000
,  // measure 53
0010
0001
1000
0001
,  // measure 54
0010
0001
1000
0100
,  // measure 55
1000
0000
0000
0100
0000
0000
0010
0000
0000
0001
0000
1000
,  // measure 56
0000
0000
0001
0001
,  // measure 57
0001
0000
0000
0100
0000
0000
0001
0000
0000
0000
0000
0100
,  // measure 58
0000
0000
0010
0000
0000
0000
1000
0000
0000
0100
0000
0000
,  // measure 59
0010
0001
0100
1000
,  // measure 60
0100
0001
0100
0010
,  // measure 61
0100
0000
0002
0000
,  // measure 62
1003
0000
0000
0000
0000
0100
0000
0000
0000
0010
0000
0000
,  // measure 63
1001
0000
1100
0000
,  // measure 64
1001
0100
0010
0001
,  // measure 65
0101
0000
0101
0000
,  // measure 66
1010
0000
1010
0000
,  // measure 67
1000
0100
0010
0001
,  // measure 68
0010
0100
0000
0000
,  // measure 69
1000
0010
0100
0001
,  // measure 70
0100
0010
0000
0000
,  // measure 71
1000
0100
0010
0001
,  // measure 72
0010
0100
0000
0000
,  // measure 73
2001
0000
3200
0000
,  // measure 74
0320
0000
0032
0000
,  // measure 75
1003
0100
0010
0001
,  // measure 76
0010
0100
0000
0000
,  // measure 77
1000
0010
0100
0001
,  // measure 78
0100
0010
0000
0000
,  // measure 79
1000
0100
0010
0001
,  // measure 80
0100
0010
0000
0000
,  // measure 81
1001
0000
0101
0000
,  // measure 82
1010
0000
1001
0000
,  // measure 83
0010
0000
0000
0100
0000
0000
0010
0000
0000
0000
0000
1000
,  // measure 84
0000
0000
1000
0000
0000
0001
0010
0000
0000
0001
0000
0000
,  // measure 85
1000
0000
0000
0001
0000
0000
1000
0000
0000
0000
0000
0001
,  // measure 86
0000
0000
0001
0000
0000
1000
0100
0000
0000
1000
0000
0001
;
