#TITLE:POPCORN;
#SUBTITLE:;
#ARTIST:DJ WATARAI;
#TITLETRANSLIT:;
#SUBTITLETRANSLIT:;
#ARTISTTRANSLIT:;
#CREDIT:DigiMindAxel;
#BANNER:POPCORN.png;
#BACKGROUND:POPCORN-bg.png;
#LYRICSPATH:;
#CDTITLE:beatmania.png;
#MUSIC:POPCORN.mp3;
#OFFSET:-3.020;
#SAMPLESTART:3.016;
#SAMPLELENGTH:12.000;
#SELECTABLE:YES;
#BPMS:0.000=93.000;
#STOPS:;
#BGCHANGES:;

//---------------dance-single - ----------------
#NOTES:
     dance-single:
     :
     Easy:
     2:
     0.173,0.199,0.077,0.000,0.000:
0001
0000
1000
0000
,
0010
0000
0100
0000
,
0001
0000
1000
0000
,
0001
0000
0110
0000
,
1000
0000
0010
0000
,
0100
0000
0010
0100
,
0010
1000
0100
0010
,
0001
0100
0010
1000
,
0100
0010
0001
0100
,
0010
1000
0001
0000
,
0100
0000
0010
0000
,
1000
0000
0001
0010
,
0100
1000
0010
0100
,
0001
1000
0110
0001
,
0010
0100
1000
1001
,
0000
0010
0000
1000
,
0010
0100
0000
0010
,
0100
0001
1000
0010
,
0100
0001
0010
0100
,
1000
0100
0010
1001
,
1001
0000
1000
0000
,
0010
0000
0100
0000
,
0001
0001
1000
0000
,
0100
0000
0010
0001
,
1000
0010
0100
0000
,
0001
0010
0001
1000
,
0010
0100
0001
0010
,
0100
1000
0001
1001
,
1000
0000
0000
0000
;

//---------------dance-single - ----------------
#NOTES:
     dance-single:
     :
     Hard:
     6:
     0.404,0.380,0.516,0.065,0.065:
0002
0000
0000
1003
0000
1100
0000
0001
,
2001
0000
0000
3001
0000
0011
0000
1000
,
0010
0010
0000
0110
0000
0001
0100
0100
,
0110
0000
1000
0001
0000
0100
0100
0100
,
1001
0000
0001
1000
0000
1001
0000
1000
,
0000
0001
0100
0000
0101
0000
0000
0000
0000
0000
1100
0000
1100
0000
0000
0000
,
1001
0000
1000
0001
0000
1001
0000
0000
,
0001
0010
0100
1000
0100
0010
0001
1000
,
1001
0000
0000
0000
1001
0000
0000
0001
1000
0000
1000
0000
0001
0000
0000
0000
,
0110
2000
3001
1001
,
0100
0000
0000
0100
0010
0000
0010
0100
0000
0000
0001
0000
1000
0000
0000
0000
,
0010
0000
0000
0010
0100
0000
0100
0010
0000
0000
1000
0000
0001
0000
0000
0000
,
1000
0100
0010
0001
0010
0100
1000
0001
,
0020
0001
0130
0110
,
0200
0000
1000
0000
0310
0000
0110
0001
,
1000
0000
1000
0000
0001
0000
0000
0000
0001
0000
1000
0001
1000
0000
0000
0000
,
0010
1000
0010
0000
0010
0100
0010
0000
,
1001
0000
0000
0000
1001
0000
0000
0001
1000
0000
0000
1000
0001
0000
0000
0000
,
0001
0010
0100
1000
0100
0010
0011
0000
,
1100
0000
0000
0000
1100
0000
0000
0100
1000
0000
0001
0000
0001
0000
1000
0000
,
1001
0000
1001
0000
1000
0001
0010
1010
,
0001
0010
0100
1000
0001
1000
0100
0101
,
1000
0000
1001
0000
0001
1000
0100
0101
,
1000
0100
0010
0001
1000
0010
0100
1001
,
1001
0000
0011
0000
1000
0100
0001
1100
,
0001
0010
0100
1001
1000
1001
0001
1001
,
1000
0100
0010
0000
0001
0100
1000
0101
,
1000
0100
0010
1001
0001
1001
1000
0001
,
1001
0000
0000
0000
;

//---------------dance-single - ----------------
#NOTES:
     dance-single:
     :
     Challenge:
     7:
     0.500,0.398,0.646,0.000,0.226: // measure 1
1010
0000
1000
1010
0000
1010
0001
0001
,  // measure 2
0011
0000
0001
0011
0000
0011
1000
1000
,  // measure 3
1100
1100
0000
1001
0000
1100
0001
0001
,  // measure 4
0101
0000
0000
0000
0101
0000
0001
0000
1000
0000
0100
0010
0001
0000
1000
0000
,  // measure 5
1001
0000
0001
0011
0000
1100
1000
0001
,  // measure 6
0000
1000
0010
0000
0110
0000
0000
0000
0000
0000
0110
0000
0110
0000
0001
0000
,  // measure 7
1001
0000
1000
1100
0000
0011
0001
0000
,  // measure 8
1001
0000
0000
1000
0000
0010
1000
0000
0000
0001
0000
0000
1001
0000
0000
0001
0000
0000
0100
0000
0000
0101
0000
0000
,  // measure 9
1001
0000
0000
0001
1000
0000
0000
0001
0100
0000
0100
0000
0100
0000
0000
0000
,  // measure 10
1001
0000
0000
1000
0001
0000
0100
0000
0110
0000
0000
0000
0110
0000
0000
0000
,  // measure 11
1001
0000
0000
0001
0100
0000
0100
0010
0100
0000
0000
0010
1000
0000
1000
0000
,  // measure 12
0001
0000
0000
1000
0010
0000
0010
0100
0010
0000
0100
0001
1000
0000
1000
0000
,  // measure 13
0001
0000
0001
0000
0010
0000
0010
0000
1000
0000
1000
0000
0001
0000
0100
0001
,  // measure 14
1000
1000
0100
0100
0001
0001
1000
0010
,  // measure 15
0100
0000
0000
0001
1000
0000
1000
0010
1000
0000
0000
0010
1000
0000
0001
0000
,  // measure 16
0100
0000
0001
0000
0001
0000
1000
0000
0010
0000
1000
0010
1000
0000
0001
0000
,  // measure 17
0010
0001
0010
0001
0010
0000
0001
0010
0100
1000
0010
1000
0010
0000
0000
0000
,  // measure 18
1001
0000
0000
1000
0001
0000
0000
0100
0001
0000
0000
1000
0001
0000
0001
0000
,  // measure 19
1000
0000
0000
0100
0000
0000
1000
0000
0000
0010
0000
0000
0100
0000
0000
0001
0000
0000
1000
0000
0001
1000
0000
0000
,  // measure 20
1001
0000
0000
0000
0000
0000
0000
0000
0000
0000
0000
0000
1001
0000
0000
0000
0000
0000
0000
0000
0000
0001
0000
0000
1000
0000
0000
0000
0000
0000
0100
0000
0000
0000
0000
0000
0010
0000
0000
0000
0000
0000
0001
0000
1000
0000
0001
0000
,  // measure 21
1000
0000
1100
0000
0011
0001
1000
1010
,  // measure 22
0001
0001
0001
0101
0100
1100
1000
1010
,  // measure 23
1001
0000
1001
0000
1000
1000
1000
1010
,  // measure 24
0010
0000
0000
1000
0000
0000
0001
0000
0000
1001
0000
1000
0001
0000
0000
0010
0000
0000
0100
0000
0000
1000
0001
1000
,  // measure 25
0001
0000
0011
0000
1100
1000
0001
0101
,  // measure 26
0100
0010
1000
1010
0010
0110
0100
1001
,  // measure 27
0001
0100
0010
0000
1000
0100
0010
0011
,  // measure 28
0001
0000
0000
1000
0000
0000
0010
0000
0000
0110
0000
0001
1000
0000
0000
0010
0000
0000
0100
0000
0000
0001
1000
0001
,  // measure 29
1000
0000
0000
0000
;

//---------------dance-single - ----------------
#NOTES:
     dance-single:
     :
     Medium:
     4:
     0.323,0.307,0.194,0.103,0.000:
1001
0010
0100
0010
,
1000
0001
1000
0001
,
0100
0000
0010
0000
1000
0000
0001
0001
,
1000
0000
0010
0000
0100
0100
0010
0010
,
1000
0000
0001
0010
0000
0001
1000
0000
,
0000
1000
0100
0000
0000
0010
0011
0000
,
1001
0000
0000
0110
0000
0110
0000
0000
,
1000
0100
0010
0001
0010
0100
1000
0000
,
1001
0000
0010
0000
0010
0100
0010
0000
,
0020
0130
1001
0000
,
0001
0000
1000
0100
0010
0000
0001
0010
,
0100
0000
1000
0010
0100
0000
0001
0100
,
0010
0010
1000
1000
0020
0000
0130
0000
,
1100
0011
1001
0010
,
0100
0001
0001
0000
1000
0000
0010
0100
,
0100
0010
1000
0000
0000
0001
0100
0000
,
0000
0010
1000
0000
0001
0010
1000
0000
,
0010
0100
0001
1000
,
1001
0010
0100
1000
0100
0010
0001
0000
,
1000
0000
0010
0000
0100
0001
1000
0010
,
0011
0000
1100
0000
1000
0100
0010
0002
,
0010
0000
0013
0000
0001
0010
0100
2000
,
0100
0000
3100
0000
1000
0010
0100
0002
,
0100
0000
0103
0000
0001
0100
0010
2000
,
0010
0000
3010
0000
1000
0010
0100
0002
,
1000
0000
1003
0000
0001
0100
0010
2000
,
0001
0000
3001
0000
1000
0100
0001
0100
,
1000
0100
0010
0001
0001
1001
1000
1000
,
1001
0000
0000
0000
;

//---------------dance-single - ----------------
#NOTES:
     dance-single:
     :
     Beginner:
     1:
     0.077,0.108,0.039,0.000,0.000:
1000
0000
0000
0000
,
1000
0000
0000
0000
,
0001
0000
0000
0000
,
0001
0000
0000
0000
,
1000
0000
0000
0000
,
0000
0001
0000
0010
,
0000
0001
0000
0000
,
1000
0000
0100
0000
,
1000
0000
0000
0000
,
0001
0000
1001
0000
,
0001
0000
0000
0000
,
1000
0000
0000
0000
,
0001
0000
0000
0000
,
1000
0000
0000
0000
,
0001
0000
0000
0000
,
1000
0000
0000
0000
,
0001
0000
1000
0000
,
0001
0000
0000
0000
,
1000
0000
0001
0000
,
1000
0000
0000
0000
,
1001
0000
0000
0000
,
1000
0000
0000
0000
,
0001
0000
0000
0000
,
0001
0000
1000
0000
,
1000
0000
0001
0000
,
0001
0000
1000
0000
,
1000
0000
0001
0000
,
0001
0000
1000
0000
,
1001
0000
0000
0000
;
