#TITLE:パラボラ;
#SUBTITLE:;
#ARTIST:パーキッツ;
#TITLETRANSLIT:PARABOLA;
#SUBTITLETRANSLIT:;
#ARTISTTRANSLIT:PARQUETS;
#CREDIT:DigiMindAxel;
#BANNER:PARABOLA.png;
#BACKGROUND:PARABOLA-bg.png;
#LYRICSPATH:PARABOLA.lrc;
#CDTITLE:pop'n music.png;
#MUSIC:PARABOLA.mp3;
#OFFSET:-9.640;
#SAMPLESTART:65.320;
#SAMPLELENGTH:12.000;
#SELECTABLE:YES;
#BPMS:0.000=125.000;
#STOPS:;
#BGCHANGES:-19.500=PARABOLA.avi=1.000=1=1=0,
99999=-nosongbg-=1.000=0=0=0 // don't automatically add -songbackground-
;

//---------------dance-single - ----------------
#NOTES:
     dance-single:
     :
     Easy:
     3:
     0.249,0.281,0.140,0.124,0.000:
0010
0100
0010
0100
,
0010
1000
0010
1000
,
0010
0100
0010
0100
,
0001
0100
0001
0100
,
0001
0000
0000
0000
1000
0000
0000
1000
,
0000
0000
0001
0000
,
1000
0000
0000
0000
0001
0000
0000
0001
,
0000
0000
1000
0000
,
0001
0000
0100
0000
0001
0000
0000
1000
,
0000
0000
1000
0001
,
0200
0000
0302
0000
,
2003
0000
0000
3000
,
0001
0100
0001
1001
,
1000
0100
0010
0001
,
1000
0010
1000
1001
,
0001
0010
0100
1000
,
0001
0100
0001
1001
,
1000
0100
0010
0001
,
2000
0000
3002
0000
,
1003
0100
0010
0001
,
1000
0100
1000
0010
,
0100
0001
0010
0001
,
0100
0010
1000
0100
,
1000
0010
0100
0001
,
1000
1000
0001
0001
,
1000
0010
0100
0001
,
0010
0100
1000
0010
,
0200
0000
0001
0000
,
0302
0000
1000
0000
,
1003
1100
1001
0010
,
0001
2000
0000
3001
,
0001
0011
1001
0100
,
1000
0002
0000
1003
,
0100
0010
0100
1000
,
0001
0010
0100
0010
,
0001
0010
0100
1000
,
0100
0010
0001
1000
,
0001
0011
1001
0010
,
0001
2000
0000
3001
,
0100
1100
1001
0100
,
1000
0002
0000
1003
,
0100
0010
0100
1000
,
0001
0010
0100
0010
,
0002
0000
1003
1001
,
0000
0110
0000
1001
,
0200
0000
0000
0000
,
0000
0000
0000
0000
,
0310
0100
0010
0100
,
0010
0110
0110
1001
,
0100
0010
0001
1000
,
0100
1000
1000
0001
,
0010
0100
1000
0001
,
0010
0001
0001
1000
,
0200
0000
0000
0000
,
0000
0000
0000
0000
,
0320
0000
0000
0000
,
0000
0000
0000
0030
;

//---------------dance-single - ----------------
#NOTES:
     dance-single:
     :
     Medium:
     6:
     0.393,0.351,0.272,0.157,0.000:
1000
1100
0001
0101
,
1000
1100
0001
0101
,
1000
1001
0010
0110
,
0001
1001
0100
0110
,
1000
0001
1000
0001
1000
0000
0000
0001
,
0000
0001
0000
1000
0100
1000
0000
0000
,
0001
1000
0001
1000
0001
0000
0000
1000
,
0000
1000
0000
0001
0010
0001
0000
0000
,
1000
0010
1000
0000
0010
0000
1000
0001
,
0000
0010
0000
0001
0100
0000
0010
0100
,
0010
1000
0010
1000
0020
0000
0000
0000
,
0000
0130
0001
0200
0000
0001
0301
0000
,
0010
0000
1000
0000
0001
0001
0001
1000
,
0000
0010
0000
0100
0001
0100
0001
0000
,
0100
0000
0001
0000
1000
1000
1000
0001
,
0000
0100
0000
0010
1000
0010
1000
0000
,
0001
0000
0010
0000
0001
0001
0001
1000
,
0000
0010
0000
0100
0010
0100
0010
0000
,
2000
0000
0000
0001
3001
0000
1000
0000
,
0001
0000
0010
0001
0000
1000
0000
0000
,
0001
0010
0001
1000
0001
0010
0001
0000
,
1000
0010
1000
0001
1000
0010
1000
0000
,
0001
0010
0001
1000
0001
0010
0001
0000
,
1000
0010
1000
0001
1000
0010
1000
0000
,
0001
0100
0001
1000
0001
0100
0001
0000
,
1000
0100
1000
0001
1000
0100
1000
0000
,
0010
0000
0100
0001
0000
0100
0000
0001
,
2000
0000
3020
0000
,
0230
0000
0000
0000
0000
0301
1000
0001
,
1000
1100
0011
1100
,
0010
0001
1000
0100
0000
1000
0000
1000
,
0001
0011
1100
0011
,
0100
1000
0001
0010
0001
0000
1000
0010
,
1000
0000
0001
0010
0000
0001
0000
0001
,
0000
1000
0100
1000
0000
0010
0100
0000
,
0001
0100
0001
1000
0000
0100
0000
1000
,
0002
0100
0103
0101
,
1001
1100
0011
1100
,
0010
0001
1000
0002
0000
0000
1003
0000
,
1001
0011
1100
0011
,
0100
1000
0001
2000
0000
0000
3001
0000
,
1001
1010
1001
0001
,
1000
0010
0100
0001
0100
0000
0100
0000
,
1001
0000
0101
0000
1001
0000
0001
1000
,
0000
0100
0010
0010
0000
0001
1000
0000
,
0020
0230
0320
0000
,
0000
2030
3002
2003
,
3001
0011
0001
0011
,
1000
0100
1000
0100
1000
0000
1001
0000
,
0100
0001
0100
0001
1000
0000
0001
1000
,
0000
0001
1000
0001
0000
1000
0001
0000
,
1000
0000
0010
1000
0010
1000
0000
0001
,
0000
1000
0100
1000
0001
0000
1001
0000
,
0100
0020
0000
0230
,
0000
0310
1000
0100
,
0010
0002
0000
2003
,
0000
3001
0010
0100
;

//---------------dance-single - ----------------
#NOTES:
     dance-single:
     :
     Hard:
     7:
     0.480,0.400,0.190,0.091,0.033: // measure 1
0001
0100
0001
2000
0000
0000
0001
3002
,  // measure 2
0000
1003
0001
0020
0000
0100
0130
0000
,  // measure 3
1000
0010
1000
0002
0000
1000
0000
2003
,  // measure 4
0000
3001
1000
0020
0000
0100
0130
0000
,  // measure 5
0010
1000
0010
1000
0001
0010
0000
0001
,  // measure 6
0000
0011
0000
0100
1000
0001
0100
0000
,  // measure 7
0100
0001
0100
0001
1000
0100
0000
1000
,  // measure 8
0000
1100
0000
0010
0001
1000
0100
0000
,  // measure 9
0100
1000
0100
1000
0001
0010
0000
0001
,  // measure 10
0000
0101
0000
0010
1000
0001
0010
0000
,  // measure 11
0010
0001
0100
0010
1000
0000
1000
0000
,  // measure 12
0001
1000
0100
0002
0000
0103
1100
0000
,  // measure 13
0100
1000
0010
0100
0001
1000
1000
0100
,  // measure 14
0000
1000
0000
0100
0010
0001
1001
0000
,  // measure 15
0010
0001
0100
0010
1000
0001
0001
0010
,  // measure 16
0000
0001
0000
0010
0100
1000
1001
0000
,  // measure 17
0010
0001
0100
0010
1000
0100
0100
1000
,  // measure 18
0000
0001
0000
0010
0100
1000
1001
0000
,  // measure 19
0001
0100
0001
1000
0100
0010
0001
1000
,  // measure 20
0100
1000
0001
0100
0000
0010
1000
0001
,  // measure 21
1000
0100
0010
0001
0010
1000
0010
0001
,  // measure 22
1000
0100
0010
0100
1000
0001
0010
0100
,  // measure 23
1000
0100
0001
0100
1000
0001
0010
0100
,  // measure 24
1000
0001
0010
0001
1000
0100
0001
0100
,  // measure 25
1000
0001
0010
0100
1000
0010
0100
0001
,  // measure 26
0010
1000
0010
0001
1000
0100
0010
0001
,  // measure 27
0100
0001
0010
0100
0000
1000
0100
0001
,  // measure 28
0200
0000
0000
1000
2000
0000
3300
0000
,  // measure 29
1002
0000
0000
0000
1003
0100
0010
0001
,  // measure 30
1000
0000
0000
0000
1100
0000
0000
0001
1000
0000
0100
0000
1000
0000
0001
0000
,  // measure 31
0100
0001
0010
0100
0000
1000
0010
0100
,  // measure 32
0001
0000
0000
0000
0011
0000
0000
1000
0001
0000
0010
0000
0001
0000
1000
0000
,  // measure 33
0010
1000
0100
0010
0001
0000
1001
0000
,  // measure 34
1000
0000
0100
0010
0001
1000
0010
1000
,  // measure 35
0000
0100
0010
0001
0000
0100
0001
1000
,  // measure 36
0100
0001
0100
1000
0000
1010
0000
0100
,  // measure 37
0001
1000
0100
0001
0100
1000
0001
0000
,  // measure 38
1001
0000
0000
0000
0011
0000
0000
1000
0001
0000
0010
0000
0001
0000
1000
0000
,  // measure 39
0010
1000
0100
0010
0000
0001
0100
0010
,  // measure 40
1000
0000
0000
0000
1100
0000
0000
0001
1000
0000
0100
0000
1000
0000
0001
0000
,  // measure 41
0100
0001
0010
0100
0000
1000
0010
0100
,  // measure 42
0001
0000
0000
0000
0101
0000
0000
1000
0010
0000
0100
0000
0010
0000
1000
0000
,  // measure 43
0001
0010
1000
0010
0001
1000
0010
0000
,  // measure 44
1001
0000
0000
0000
1010
0000
0000
0001
0100
0000
0010
0000
0100
0000
0001
0000
,  // measure 45
0001
0000
1000
0000
0100
0000
1000
0100
1000
0000
0001
0000
0001
0000
0000
0000
,  // measure 46
1000
0000
0010
0000
1000
1000
0001
0010
,  // measure 47
0000
0001
1000
0000
0010
0000
0110
0000
,  // measure 48
1001
0001
0101
1100
,  // measure 49
0001
1000
0010
0100
0001
0000
1001
0000
,  // measure 50
1000
0010
0100
0001
0010
0100
1000
0010
,  // measure 51
0000
0000
0001
0000
0010
0000
0100
0000
1000
0000
0001
0100
0001
0000
1000
0000
,  // measure 52
0001
0100
0010
1000
0100
0010
0001
0100
,  // measure 53
0000
1000
0100
0001
1000
1000
1000
1000
,  // measure 54
0001
0010
0001
0100
0000
0010
0100
0010
,  // measure 55
0000
1000
0100
1000
0000
0001
0100
0001
,  // measure 56
1000
0100
1000
0010
0000
0100
0010
0100
,  // measure 57
0000
0001
0100
0001
0000
1000
0020
0000
,  // measure 58
0030
0000
0000
0000
;

//---------------dance-single - ----------------
#NOTES:
     dance-single:
     :
     Beginner:
     1:
     0.051,0.094,0.000,0.008,0.000:
1000
0000
0000
0000
,
0000
0000
0000
0000
,
0001
0000
0000
0000
,
0000
0000
0000
0000
,
1000
0000
0000
0000
,
0000
0000
0000
0000
,
1000
0000
0000
0000
,
0000
0000
0000
0000
,
0001
0000
0000
0000
,
0000
0000
0000
0000
,
0001
0000
0000
0000
,
0100
0000
0000
0000
,
0001
0000
0000
0000
,
0000
0000
0000
0000
,
1000
0000
0000
0000
,
0000
0000
0000
0000
,
0001
0000
0000
0000
,
0000
0000
0000
0000
,
1000
0000
0000
0000
,
0100
0000
0000
0000
,
1000
0000
0000
0000
,
0001
0000
0000
0000
,
1000
0000
0000
0000
,
0001
0000
0000
0000
,
1000
0000
0000
0000
,
0001
0000
0000
0000
,
1000
0000
0000
0000
,
1000
0000
0000
0000
,
0000
0000
0000
0000
,
0010
0000
0000
0000
,
0100
0000
0000
0000
,
0010
0000
0000
0000
,
0100
0000
0000
0000
,
0010
0000
0000
0000
,
0000
0000
0000
0000
,
1000
0000
0000
0000
,
0001
0000
0000
0000
,
0100
0000
0010
0000
,
0100
0000
0000
0000
,
0010
0000
0100
0000
,
0010
0000
0000
0000
,
1000
0000
0000
0000
,
0001
0000
0000
0000
,
0200
0000
0000
0000
,
0300
0000
0000
0000
,
0100
0000
0000
0000
,
0000
0000
0000
0000
,
0010
0000
0000
0000
,
0000
0000
0000
0000
,
0100
0000
0000
0000
,
0000
0000
0000
0000
,
0001
0000
0000
0000
,
0000
0000
0000
0000
,
1000
0000
0000
0000
,
0000
0000
0000
0000
,
0000
0000
0000
0000
,
0000
0000
0000
1000
;

//---------------dance-single - ----------------
#NOTES:
     dance-single:
     :
     Challenge:
     8:
     0.571,0.541,0.198,0.272,0.211: // measure 1
1000
0100
0001
0100
1000
0000
0100
2000
,  // measure 2
0000
0000
3100
0000
0001
0000
0200
0000
0000
0000
1300
0001
1000
0000
0001
0000
,  // measure 3
1000
0010
0001
0010
1000
0001
0000
2000
,  // measure 4
0000
3100
0001
0200
0000
1300
1001
0000
,  // measure 5
0001
0000
0010
0000
0100
0000
0010
0001
0010
0000
0100
0000
0000
0000
0110
0000
,  // measure 6
0000
0000
1001
0000
0000
0000
0010
0100
0010
0000
1000
0000
0002
0000
0000
0000
,  // measure 7
1003
0000
0100
0000
0010
0000
0100
1000
0100
0000
0010
0000
0000
0000
0110
0000
,  // measure 8
0000
0000
1001
0000
0000
0000
0100
0010
0100
0000
0001
0000
1000
0000
0000
0000
,  // measure 9
0001
0010
1000
0010
0001
0100
1000
0100
,  // measure 10
0001
0000
0010
0000
0100
0000
1000
0001
1000
0000
0100
0000
0010
0000
0000
0000
,  // measure 11
0001
0010
0100
0001
0100
1000
0001
0000
,  // measure 12
1000
0100
0010
0002
0000
0103
0110
0000
,  // measure 13
1000
0000
0100
0000
0010
0000
0001
0100
0010
0000
0100
0000
0001
0000
0101
0000
,  // measure 14
0000
0000
0110
0000
0000
0000
0100
1000
0100
0000
1000
0000
2000
0000
0000
0000
,  // measure 15
3001
0000
0010
0000
0100
0000
1000
0010
0100
0000
0010
0000
1000
0000
1010
0000
,  // measure 16
0000
0000
0110
0000
0000
0000
0010
0001
0010
0000
0001
0000
0002
0000
0000
0000
,  // measure 17
1003
0000
0010
0000
0100
0000
0001
0010
0100
0000
0010
0000
0001
0000
0011
0000
,  // measure 18
0000
0000
1001
0000
0000
0000
0100
0010
0100
0000
0001
0000
0100
0000
0001
0000
,  // measure 19
1000
0100
0001
0100
1000
0010
0001
0010
,  // measure 20
1000
0100
0010
0002
0000
0100
0103
0000
,  // measure 21
0001
0000
1000
0100
1000
0100
1000
0100
1000
0000
0010
0000
0100
0000
0001
0000
,  // measure 22
1000
0000
0001
0100
0001
0100
0001
0100
0001
0000
0010
0000
0100
0000
1000
0000
,  // measure 23
0001
0000
0100
0010
0100
0010
0100
0010
0100
0000
0001
0000
0100
0000
1000
0000
,  // measure 24
0100
0000
0001
1000
0001
1000
0001
1000
0001
0000
0010
0000
1000
0000
0010
0000
,  // measure 25
0001
0000
1000
0010
1000
0010
0100
0001
0100
0000
0001
0000
0010
0000
0100
0000
,  // measure 26
1000
0000
0001
0010
0001
0010
0100
1000
0100
0000
1000
0000
0001
0000
0010
0000
,  // measure 27
0200
0000
1300
0020
0000
0130
0000
0001
,  // measure 28
0010
0100
1000
0100
0010
0000
0010
0000
,  // measure 29
0100
0010
0001
0010
0100
1000
1001
0001
,  // measure 30
1000
0000
0000
1000
0100
0000
0000
0100
0001
0000
1000
0000
0010
0000
0200
0000
,  // measure 31
0000
0001
0001
0302
0000
0013
0100
1000
,  // measure 32
0001
0000
0000
0001
0100
0000
0000
0100
1000
0000
0001
0000
0010
0000
0200
0000
,  // measure 33
0000
0000
1000
0000
1000
0000
1300
0000
0001
0100
0001
0000
1001
0000
0000
0000
,  // measure 34
0201
0000
0310
1000
0100
0001
0100
2000
,  // measure 35
0000
0010
3010
0100
0001
0000
1000
0001
,  // measure 36
0010
1000
0010
0002
0000
0203
0000
0301
,  // measure 37
0010
0000
1000
0000
0010
0000
0001
0000
1000
0010
1000
0010
0100
0001
0100
0001
,  // measure 38
1000
0000
0000
0001
0100
0000
0000
0100
1000
0000
0001
0000
0100
0000
0020
0000
,  // measure 39
0000
1000
1000
2030
0000
3100
0010
0001
,  // measure 40
1000
0000
0000
1000
0100
0000
0000
0100
0001
0000
1000
0000
0100
0000
0020
0000
,  // measure 41
0000
0001
0001
0032
0000
0013
0100
1000
,  // measure 42
0020
0000
0000
0000
0130
0000
0000
0001
1000
0000
0200
0000
0000
0000
0310
0000
,  // measure 43
1000
0010
0000
0001
0000
0010
0100
1000
,  // measure 44
0020
0000
0000
0000
0130
0000
0000
0001
1000
0000
0010
0000
0100
0000
0101
0000
,  // measure 45
0000
0110
0110
0000
0000
1100
1100
0000
,  // measure 46
1000
0100
0010
0001
1000
1000
0001
0200
,  // measure 47
0000
0000
0010
0000
0310
0000
1000
0001
1000
0000
0001
0000
0002
0000
0000
0000
,  // measure 48
1003
0100
0010
0001
1000
1000
0001
0200
,  // measure 49
0000
0000
0010
0000
0310
0000
0110
0000
0110
0000
1000
0001
2000
0000
0000
0000
,  // measure 50
3100
0000
0001
0000
0100
0000
1000
0001
1000
0000
0010
0000
0100
0000
0002
0000
,  // measure 51
0000
0000
1003
0000
0100
0000
0020
0000
0000
0000
0031
0100
0010
0000
1000
0000
,  // measure 52
0010
0000
0001
0000
0010
0000
1000
0001
1000
0000
0100
0000
0010
0000
0002
0000
,  // measure 53
0000
1003
0010
0100
0001
0001
0110
0110
,  // measure 54
1000
0100
0001
0100
0000
1000
0010
0001
,  // measure 55
0000
0000
0001
0000
0010
0000
1000
0000
0000
0000
0100
0010
0100
0000
0010
0000
,  // measure 56
0001
0010
1000
0010
0000
0001
0100
1000
,  // measure 57
0000
1000
0100
0001
0000
0010
0200
0000
,  // measure 58
0300
0000
0000
0000
;
