#TITLE:OVER THE CLOUDS;
#SUBTITLE:;
#ARTIST:Lala Moore;
#TITLETRANSLIT:;
#SUBTITLETRANSLIT:;
#ARTISTTRANSLIT:;
#CREDIT:DigiMindAxel;
#BANNER:OVER THE CLOUDS.png;
#BACKGROUND:OVER THE CLOUDS-bg.png;
#LYRICSPATH:OVER THE CLOUDS.lrc;
#CDTITLE:beatmania IIDX.png;
#MUSIC:OVER THE CLOUDS.mp3;
#OFFSET:-9.760;
#SAMPLESTART:71.815;
#SAMPLELENGTH:12.000;
#SELECTABLE:YES;
#BPMS:0.000=128.000,116.000=125.000,130.000=120.000,132.000=128.000;
#STOPS:;
#BGCHANGES:;

//---------------dance-single - ----------------
#NOTES:
     dance-single:
     :
     Hard:
     8:
     0.515,0.562,0.213,0.169,0.506:
2002
0000
0000
0000
0000
0000
3003
0000
0000
0000
0100
0000
0000
1000
0000
0000
,
0002
0000
0000
0000
0000
0000
0000
0000
0003
0000
0010
0000
0000
0001
0000
0000
,
0200
0000
0000
0000
0000
0000
0301
0000
0000
0000
0100
0000
0000
0001
0000
0000
,
2000
0000
0000
0000
0000
0000
3100
0000
0000
0000
0010
0000
0000
0001
0000
0000
,
0200
0000
0000
0000
0000
0000
0300
0000
0000
0000
0010
0000
0000
1000
0000
0000
,
0200
0000
0000
0000
0000
0000
1300
0000
0000
0000
1000
0000
0000
0001
0000
0000
,
0100
0110
0100
0110
,
0001
0000
0010
0000
0100
0000
1000
0000
0001
0000
0100
0000
0001
1000
0000
0000
,
0010
1000
0000
0010
1000
0000
0010
1000
0000
0010
1000
0000
0001
0000
0000
0000
,
0010
0001
0000
0010
0001
0000
0010
0001
0000
0010
0001
0000
1000
0000
0000
0000
,
0010
0100
0000
0010
0100
0000
0010
0100
0000
0010
0100
0000
0001
0000
0010
0000
,
0100
1000
0100
1000
0100
0000
1001
0000
0000
0000
0100
0000
0010
0100
0000
0000
,
1000
0100
0000
1000
0100
0000
1000
0100
0000
1000
0100
0000
1000
0000
0000
0000
,
0001
0100
0000
0001
0100
0000
0001
0100
0000
0001
0100
0000
0001
0000
0000
0000
,
0100
0010
0000
0100
0010
0000
0100
0010
0000
0100
0010
0000
1000
0000
0100
0000
,
0010
0000
0000
0001
0000
0000
1000
0000
0100
0000
0000
1000
0000
0000
0010
0000
,
0100
0001
0010
0100
1000
0000
0000
0000
,
1001
0000
1000
0000
0001
0100
1000
0000
,
0100
0000
0001
0010
0100
0000
0001
0000
,
0100
0000
1000
0010
0001
0000
0010
0000
,
0100
0000
0001
0010
1000
0000
0010
0001
,
2000
0000
3010
0000
1000
0100
0010
0000
,
0002
0000
1003
0000
0001
0010
0100
0000
,
2000
0000
3001
0000
0010
0100
0010
0000
,
0110
1001
0110
1001
,
0101
0000
0000
0001
0000
0000
0100
0000
0000
0000
0001
1000
0001
0000
1000
0000
,
0100
0000
0000
1000
0000
0000
0100
0000
0000
0000
1000
0001
1000
0000
0001
0000
,
1000
0100
1000
0100
1000
0000
0001
0000
0000
0000
1000
0000
0000
0001
0000
0000
,
0100
0000
0000
1000
0000
0000
0100
0000
0001
0000
1000
0000
0001
1000
0001
0000
,
2002
0000
0000
0000
3000
0000
0000
0000
0203
0000
0000
0000
0000
0000
0310
1000
,
0010
0000
0000
0100
0000
0000
0010
0000
0000
0000
1001
0000
0000
1001
0000
0000
,
1001
0010
0100
0000
1000
0010
0100
0010
,
1000
0000
0100
0000
0001
0000
0100
1000
0100
0000
0000
0000
0000
0000
0000
0000
,
1000
0100
0000
1000
0100
0000
0010
0001
0000
0010
0001
0000
1000
0000
0000
0000
,
0010
0100
0000
0010
0100
0000
0001
1000
0000
0001
1000
0000
0010
0000
0000
0000
,
0100
0001
0000
0100
0001
0000
1000
0010
0000
1000
0010
0000
0100
0000
0001
0000
,
0010
0100
0010
0000
0100
0010
0100
0000
0000
0000
0010
0000
0100
0010
0000
0000
,
0001
0100
0000
0001
0100
0000
0010
0100
0000
0010
0100
0000
0001
0000
0000
0000
,
0100
0010
0000
0100
0010
0000
1000
0100
0000
1000
0100
0000
0010
0000
0000
0000
,
0001
1000
0000
0001
1000
0000
0100
1000
0000
0010
0100
0000
0001
0000
1000
0000
,
0010
0100
0010
0100
0010
0100
0010
0000
1000
0001
1000
0001
1000
0001
1000
0000
,
1001
0000
0000
0001
1000
0000
0100
0000
0010
0000
0200
0000
0000
1000
0000
0000
,
1300
0000
0000
1000
0001
0000
0010
0000
0100
0000
0020
0000
0000
0001
0000
0000
,
0031
0000
0000
0001
1000
0000
0100
0000
0010
0000
0002
0000
0000
1000
0000
0000
,
1003
0010
0000
0110
0000
1001
0010
0100
,
1000
0010
0000
0100
0010
0000
0100
0010
0000
0100
0002
0000
0000
1000
0000
0000
,
1003
0100
0000
0010
0100
0000
0010
0100
0000
0010
0002
0000
0000
1000
0000
0000
,
1003
0001
0000
0010
0100
0000
0010
0100
0000
1000
0020
0000
0000
0100
0000
0000
,
0130
0000
0001
0000
0010
0000
0100
0000
0010
0000
0001
0000
1000
0010
0000
0000
,
1010
0000
1010
0000
0000
0000
0000
0110
0000
0000
0000
0000
0000
0000
0000
0011
,
0000
0000
0000
0000
0000
0000
0000
0000
0000
0000
0100
0000
0000
0100
0000
0000
,
0101
0000
0101
0000
0000
0000
0000
0110
0000
0000
1000
0000
0000
1000
0000
0001
,
0100
0000
0001
0100
0000
1000
0100
0000
1000
0100
0000
0001
1000
0000
0000
0000
;

//---------------dance-single - ----------------
#NOTES:
     dance-single:
     :
     Medium:
     6:
     0.318,0.328,0.098,0.107,0.169:
2000
0000
0000
0000
0000
3001
0000
0000
,
0200
0000
0000
0000
0000
0310
0000
0000
,
2000
0000
0000
0000
0000
3001
0000
0000
,
0020
0000
0000
0000
0000
0130
0000
0000
,
2000
0000
0000
0000
0000
3001
0000
0000
,
0020
0000
0000
0000
0000
0130
0000
0000
,
1000
0001
1000
0001
,
1000
0100
0010
0000
0001
0010
0100
0000
,
1000
0000
0000
0100
0000
0000
1000
0000
0000
0100
0000
0000
1000
0000
0000
0000
,
0100
0000
0000
0010
0000
0000
0100
0000
0000
0010
0000
0000
0100
0000
0000
0000
,
0010
0000
0000
0001
0000
0000
0010
0000
0000
0001
0000
0000
0010
0000
0000
0000
,
0100
0000
0000
0010
0000
0000
0001
0000
0000
0000
1000
0000
1000
0000
0000
0000
,
0001
0000
0000
0100
0000
0000
0001
0000
0000
0100
0000
0000
0001
0000
0000
0000
,
0100
0000
0000
0010
0000
0000
0100
0000
0000
0010
0000
0000
0100
0000
0000
0000
,
0010
0000
0000
1000
0000
0000
0010
0000
0000
1000
0000
0000
0010
0000
0000
0000
,
0200
0001
0302
1000
,
1003
0100
0010
0001
1000
0000
0000
0000
,
1001
0001
1000
0001
,
1000
0010
1000
0010
,
0100
0001
0100
0001
,
1000
0100
0010
0001
,
0100
0010
0100
0010
,
1000
0001
1000
0001
,
1000
0100
0010
0001
,
1001
1001
1001
1001
,
0010
0000
0010
0000
0010
0000
1000
0001
,
0100
0000
0100
0000
0100
0000
0010
1000
,
0002
0000
0000
0013
0000
0000
0100
0000
,
1000
0000
0010
0100
0010
0000
1000
0001
,
2000
0000
3020
0000
,
0230
0000
0000
0000
0000
0000
0000
0000
0300
0000
0001
0000
0000
0001
0000
0000
,
1001
0000
0010
0001
0100
0000
0010
1000
,
0100
0100
0100
0000
,
1000
0000
0000
0001
0000
0000
1000
0000
0000
0001
0000
0000
0100
0000
0000
0000
,
0010
0000
0000
0100
0000
0000
0010
0000
0000
0100
0000
0000
0001
0000
0000
0000
,
0100
0000
0000
0010
0000
0000
0100
0000
0000
0010
0000
0000
1000
0000
0000
0000
,
0100
0010
0001
1000
0000
0001
0001
0000
,
0100
0000
0000
0001
0000
0000
0100
0000
0000
0001
0000
0000
1000
0000
0000
0000
,
0010
0000
0000
1000
0000
0000
0010
0000
0000
1000
0000
0000
0001
0000
0000
0000
,
0010
0000
0000
0100
0000
0000
0010
0000
0000
0100
0000
0000
1000
0000
0000
0000
,
0100
1000
0010
0000
0100
0010
0100
0010
,
1000
0000
0001
0010
0100
0000
0001
0000
,
0100
0000
1000
0100
0010
0000
1000
0000
,
0010
0000
0001
0100
0010
0000
0001
0000
,
0010
1000
0000
0001
0000
1000
1000
0000
,
0001
0000
0000
0100
0000
0000
0010
0000
0000
1000
0000
0000
0001
0000
0000
0000
,
0010
0000
0000
0100
0000
0000
1000
0000
0000
0010
0000
0000
0100
0000
0000
0000
,
0001
0000
0000
1000
0000
0000
0100
0000
0000
0010
0000
0000
0001
0000
0000
0000
,
0100
0001
1000
0000
0100
1000
0010
0000
,
0100
0000
0110
0000
0000
0000
0000
1001
0000
0000
0000
0000
0000
0000
0000
1001
,
0000
0000
0000
0000
,
0010
0000
0110
0000
0000
0000
0000
1001
0000
0000
0000
0000
0000
0000
0000
0000
,
1000
0000
0000
0100
0000
0000
0010
0000
0000
0001
0000
0100
0010
0000
0000
0000
;

//---------------dance-single - ----------------
#NOTES:
     dance-single:
     :
     Easy:
     2:
     0.178,0.211,0.062,0.080,0.000:
1000
0000
0000
0000
,
0001
0000
0000
0000
,
1000
0000
0000
0000
,
0001
0000
0000
0000
,
0100
0000
0000
0000
,
0010
0000
0000
0000
,
0100
0000
0100
0000
,
0200
0000
0000
0000
,
0310
0100
0010
0000
,
1000
0001
1000
0000
,
0001
1000
0001
0000
,
0100
0010
0100
0000
,
0010
1000
0010
0000
,
0100
0001
0100
0000
,
0001
1000
0001
0000
,
0010
0001
0010
0100
,
2000
0000
3002
0000
,
1003
0000
0100
0000
,
1000
0000
0000
0000
,
0001
0000
0010
0000
,
0001
0000
0000
0000
,
0100
0000
0010
0000
,
0100
0000
0000
0000
,
0001
0000
1000
0000
,
0001
0001
1000
1000
,
0010
0100
0010
0000
,
0100
0001
1000
0000
,
0100
1000
0001
0000
,
0100
0010
0100
0010
,
0110
0000
0000
0000
,
0000
0000
0000
0000
,
1001
0000
1000
0000
,
0002
0000
0003
0000
,
1001
1000
0001
0000
,
0010
0001
0010
0000
,
0100
1000
0100
0000
,
0010
0001
0010
0100
,
1000
0001
1000
0000
,
0001
1000
0001
0000
,
0010
0001
0010
0000
,
0100
1000
0100
0010
,
1001
0001
1000
0000
,
0010
1000
0100
0000
,
0010
0001
0100
0000
,
0010
0100
0010
0100
,
1001
0010
0100
0000
,
1000
0100
0010
0000
,
0001
0010
0100
0000
,
1000
0100
0010
0001
,
2002
0000
0000
0000
,
3003
0000
0000
0000
,
2002
0000
0000
3003
,
0020
0000
0000
0130
;

//---------------dance-single - ----------------
#NOTES:
     dance-single:
     :
     Beginner:
     1:
     0.074,0.094,0.062,0.000,0.000: // measure 1
1000
0000
0000
0000
,  // measure 2
1000
0000
0000
0000
,  // measure 3
1000
0000
0000
0000
,  // measure 4
1000
0000
0000
0000
,  // measure 5
0001
0000
0000
0000
,  // measure 6
0001
0000
0000
0000
,  // measure 7
0001
0000
0000
0000
,  // measure 8
0001
0000
0000
0000
,  // measure 9
1001
0000
0000
0000
,  // measure 10
1000
0000
0000
0000
,  // measure 11
0001
0000
0000
0000
,  // measure 12
1000
0000
0000
0000
,  // measure 13
0010
0000
0000
0000
,  // measure 14
0100
0000
0000
0000
,  // measure 15
0010
0000
0000
0000
,  // measure 16
0010
0000
0000
0000
,  // measure 17
0000
0000
0000
0000
,  // measure 18
1001
0000
0000
0000
,  // measure 19
0001
0000
0000
0000
,  // measure 20
1000
0000
0000
0000
,  // measure 21
0001
0000
0000
0000
,  // measure 22
0010
0000
0000
0000
,  // measure 23
0100
0000
0000
0000
,  // measure 24
1000
0000
0000
0000
,  // measure 25
1001
0000
0000
0000
,  // measure 26
0001
0000
0000
0000
,  // measure 27
0001
0000
0000
0000
,  // measure 28
1000
0000
0000
0000
,  // measure 29
1000
0000
0000
0000
,  // measure 30
1001
0000
0000
0000
,  // measure 31
0000
0000
0000
0000
,  // measure 32
0010
0000
0000
0000
,  // measure 33
0100
0000
0000
0000
,  // measure 34
0010
0000
0000
0000
,  // measure 35
0010
0000
0000
0000
,  // measure 36
0010
0000
0000
0000
,  // measure 37
0010
0000
0000
0000
,  // measure 38
0100
0000
0000
0000
,  // measure 39
0100
0000
0000
0000
,  // measure 40
0100
0000
0000
0000
,  // measure 41
0100
0000
0000
0000
,  // measure 42
1001
0000
0000
0000
,  // measure 43
0001
0000
0000
0000
,  // measure 44
1000
0000
0000
0000
,  // measure 45
0001
0000
0000
0000
,  // measure 46
0001
0000
0000
0000
,  // measure 47
1000
0000
0000
0000
,  // measure 48
1000
0000
0000
0000
,  // measure 49
0010
0000
0000
0000
,  // measure 50
1001
0000
0000
0000
,  // measure 51
0000
0000
0000
0000
,  // measure 52
1001
0000
0000
0000
,  // measure 53
0010
0000
0000
0010
;
