#TITLE:オトメルンバ♪;
#SUBTITLE:L.E.D.-G STYLE MIX;
#ARTIST:るるるSYSTEM remixed by L.E.D.-G;
#TITLETRANSLIT:OTOME RUMBA;
#SUBTITLETRANSLIT:;
#ARTISTTRANSLIT:RURURU SYSTEM remixed by L.E.D.-G;
#CREDIT:DigiMindAxel;
#BANNER:OTOME RUMBA L.E.D.-G STYLE MIX.png;
#BACKGROUND:OTOME RUMBA L.E.D.-G STYLE MIX-bg.png;
#LYRICSPATH:OTOME RUMBA L.E.D.-G STYLE MIX.lrc;
#CDTITLE:pop'n music.png;
#MUSIC:OTOME RUMBA L.E.D.-G STYLE MIX.mp3;
#OFFSET:-11.160;
#SAMPLESTART:53.120;
#SAMPLELENGTH:12.000;
#SELECTABLE:YES;
#BPMS:0.000=200.000;
#STOPS:;
#BGCHANGES:;

//---------------dance-single - ----------------
#NOTES:
     dance-single:
     :
     Easy:
     4:
     0.343,0.359,0.109,0.272,0.000:
1000
0100
1000
0100
,
1000
0100
1000
0100
,
1000
0001
1000
0001
,
1000
0001
1000
0001
,
0100
0001
0100
0001
,
1000
0010
1000
0010
,
0100
0000
0100
0000
,
0100
0000
0100
0000
,
0110
0000
0010
0000
,
0100
0000
0001
0000
,
1000
0000
0100
0000
,
0010
0000
0001
0000
,
1000
0000
0001
0000
,
0010
0000
0100
0000
,
1000
0000
0010
0000
,
0100
0000
0000
0000
,
0110
0000
0100
0000
,
0010
0100
0010
0000
,
1000
0000
0001
0000
,
1000
0001
1000
0010
,
0100
0000
0010
0000
,
0100
0000
0001
0000
,
1001
0000
0000
0000
0000
1000
0000
0000
,
1001
0000
0010
0010
,
0020
0000
0130
0000
,
0001
0010
0100
1000
,
0010
0000
0100
0000
,
0010
1000
0100
0010
,
0002
0000
0103
0000
,
0010
1000
0100
0010
,
0001
0001
0001
0001
,
1001
1000
0100
0000
,
1000
0001
0100
0000
,
0000
0010
0100
1000
,
0001
0001
2000
0000
,
3002
0000
0203
0000
,
0310
0110
0000
1000
,
0100
0000
1000
0001
,
0100
0000
0010
1000
,
0100
0010
0001
0000
,
1000
0001
0100
0000
,
0010
0100
0010
1000
,
0000
0100
0010
0001
,
2000
0000
3020
0000
,
0130
0110
0000
0001
,
1000
0000
0010
0100
,
0001
0000
0010
0100
,
1000
0010
1000
0001
,
0100
0001
0010
0100
,
1000
1000
0001
0001
,
2000
0000
0000
3000
,
2001
0000
3200
0000
,
0320
0000
0031
1000
,
0200
0000
2300
0000
,
3020
0000
0130
0001
,
0010
0010
0100
0100
,
1000
1000
0001
0001
,
1001
0000
1001
0000
,
0110
0000
1001
0000
,
2000
0000
0000
0000
,
3200
0000
0000
0000
,
0320
0000
0000
0000
,
0032
0000
0000
0000
,
2003
0000
0000
0000
,
3002
0000
0000
0000
,
0013
0100
1000
0010
,
0100
0010
0100
0000
,
0010
1000
0010
1000
,
0001
1000
0001
1000
,
0001
0100
0001
0100
,
0010
0100
0010
0000
,
1000
0100
0010
0001
,
1000
0001
1000
0001
,
0010
0100
1000
0010
,
0100
0100
0100
0000
,
0210
0000
0320
0000
,
2030
0000
3001
0010
,
0200
0000
2300
0000
,
3002
0000
0103
0001
,
1000
1000
0100
0100
,
0010
0010
0001
0001
,
1000
1000
0010
0100
,
0001
0010
0100
1000
,
0002
0000
0203
0000
,
0320
0000
1030
0100
,
0010
0001
1000
0010
,
0100
0010
0000
0000
,
2000
0000
3002
0000
,
0203
0000
0320
0000
,
1030
0100
0010
0001
,
1000
0010
0100
0001
,
2002
0000
0000
0000
,
0000
3003
0000
0000
;

//---------------dance-single - ----------------
#NOTES:
     dance-single:
     :
     Challenge:
     9:
     0.761,0.759,0.350,0.311,0.229:
1001
0000
0001
0010
0100
0000
0010
0001
,
1000
0000
0010
0100
0001
0010
1000
0010
,
0001
0000
1000
0100
0010
0000
0100
1000
,
0001
0000
0010
0100
1000
0010
0001
0010
,
1000
0000
0000
1000
0000
0000
1000
0000
0100
0000
0000
0100
0000
0000
0100
0000
,
0010
0000
0000
0010
0000
0000
0010
0000
0100
0000
0000
0100
0000
0000
0100
0000
,
1001
0000
0000
1001
0000
0000
1000
0000
0010
0000
0000
0110
0000
0000
0010
0100
,
0010
0000
0000
0101
0000
0000
0001
0000
1000
0000
0000
1001
0000
0000
1000
0000
,
0001
0100
0010
0100
0001
0000
0010
0000
,
0100
0010
0001
0010
0100
0000
1000
0001
,
1000
0100
0010
0100
1000
0020
0000
0100
,
0130
0000
0001
0000
1000
0001
0010
0100
,
2000
0000
0001
3001
0000
1000
0100
0010
,
0002
0000
1000
1003
0000
0001
0100
0010
,
1000
0000
1000
0010
0000
0010
0100
0001
,
0010
0100
0010
0000
,
0001
0010
1000
0010
0001
0000
1000
0000
,
0100
0001
0100
1000
0010
0000
0100
0001
,
1000
0000
1000
0100
0000
0010
0100
1000
,
0001
0000
0010
0000
0100
0010
0001
1000
,
0100
0001
0100
1000
0000
0020
0000
1030
,
0100
0001
0100
1000
0001
0000
1000
0000
,
0100
0100
1100
0000
0000
1100
0000
0100
,
0101
0000
0110
0110
,
0010
1000
0100
0010
0100
1000
0010
0100
,
0001
0100
1000
0001
0010
1000
0001
0100
,
0001
0010
0100
0010
0001
1000
0010
0100
,
0001
0100
1000
0001
0010
1000
0001
0000
,
1001
0000
0001
0010
0100
0010
0001
0100
,
0110
0000
0000
0000
1000
0000
0010
0000
0110
0000
0000
0010
0100
0000
0001
0000
,
1001
1001
1001
1001
,
2100
0000
3001
0010
0100
0001
0000
0100
,
1000
0001
0100
0010
0001
0010
0000
1000
,
0001
0010
0100
1000
0100
0010
0001
1000
,
0010
0000
0100
0000
0001
1000
0001
1000
0001
0000
0000
0000
0100
0000
0000
0000
,
0102
1003
2100
3001
,
0200
0000
0000
0010
0000
0000
0310
0000
2000
0000
0000
0001
0000
0000
3001
0000
,
1000
0100
0010
0000
0010
0100
1000
0001
,
0020
0000
0000
0100
0000
0000
0130
0000
2000
0000
0000
0001
0000
0000
3001
0000
,
1000
0100
0001
0100
1000
0000
0010
0100
,
0000
0100
0001
0010
0100
0000
1100
0000
,
2000
0000
3001
0010
1000
0010
0001
1000
,
0000
0100
0100
0010
0010
0000
0110
0000
,
2100
3001
0102
1003
,
0020
0000
0000
0100
0000
0000
0130
0000
0002
0000
0000
0010
0000
0000
0013
0000
,
0001
1000
0100
0000
0100
1000
0001
0000
,
0020
0000
0000
0100
0000
0000
0130
0000
2000
0000
0000
0001
0000
0000
3001
0000
,
1000
0100
0001
0100
1000
0000
0010
0100
,
0000
0100
0001
0010
0100
0000
0110
0000
,
0100
0010
0001
0100
0010
1000
0010
0100
,
0000
0000
0001
0000
0001
0000
0001
0000
1000
0001
1000
0000
0100
1000
0100
0000
,
2000
0000
3001
0100
2000
0000
3100
0001
,
1000
0000
0000
0000
0100
0000
0010
0000
0001
0000
0100
0010
0100
0010
0100
0000
,
0002
0000
1003
0100
0002
0000
0103
1000
,
0001
0000
0000
0000
0100
0000
0010
0000
1000
0000
0010
0100
0010
0000
0100
0000
,
0102
0000
0000
0100
0000
0000
0103
0000
0020
0000
0000
0100
0000
0000
0130
0000
,
2010
0000
0000
0010
0000
0000
3010
0000
0200
0000
0000
0010
0000
0000
0310
0000
,
1001
0000
0000
1001
0000
0000
0100
0000
0101
0000
0000
0101
0000
0000
0010
0100
,
0010
0000
0000
0110
0000
0000
1000
0000
1001
0000
0000
1001
0000
0000
1000
0000
,
0001
0010
0001
0000
0001
0010
0001
0000
,
1000
0100
1000
0000
1000
0000
1100
0000
,
0100
0010
0100
0000
0100
0010
0100
0000
,
1000
0001
1000
0000
1000
0000
1001
0000
,
0001
0100
0001
0000
0001
0100
0001
0000
,
1000
0010
0100
0000
0001
0000
0101
0000
,
0010
0100
0010
0000
0010
0100
0010
0000
,
0001
0010
0100
1000
0001
0000
0000
0000
,
1000
0100
1000
0001
0100
0001
0010
0100
,
0010
0001
1000
0010
0001
0010
1000
0000
,
0001
0010
0001
1000
0010
1000
0100
0010
,
0100
1000
0001
0100
1000
0100
0001
0000
,
1000
0100
0010
1000
0010
0001
1000
0001
,
0010
0100
0001
0100
1000
0001
1000
0010
,
0100
0100
0001
0010
0100
0100
1000
0010
,
0100
0001
0100
0000
0001
0000
0010
0000
0100
1000
0100
0000
0010
0000
0100
0000
,
2000
0000
3001
0010
2000
0000
3010
0001
,
1000
0000
0000
0000
0100
0000
0010
0000
0001
0000
1000
0000
0010
0100
0010
0000
,
1000
0000
0000
1000
0000
0000
0010
0000
0200
0000
0000
0000
0301
0000
0010
0000
,
0100
0000
0000
0000
0010
0000
0001
0000
1000
0000
0010
0100
0010
0100
0010
0000
,
2000
0000
0000
0100
0000
0000
3100
0000
0020
0000
0000
0001
0000
0000
0031
0000
,
0200
0000
0000
0010
0000
0000
0310
0000
2000
0000
0000
0001
0000
0000
3001
0000
,
0020
0000
0000
0100
0000
0000
0130
0000
2000
0000
0000
0010
0000
0000
3010
0000
,
0200
0000
0000
0001
0000
0000
0301
0000
1000
0000
0100
0000
0010
0001
0010
0000
,
0200
0000
1300
0100
0001
0000
0100
1000
,
0001
0000
0000
0000
0010
0000
0100
0000
1000
0000
0001
1000
0001
1000
0001
0000
,
0100
0000
0000
0100
0000
0000
0001
0000
1000
0000
0000
0000
0001
0000
0010
0000
,
1000
0000
0000
0000
0010
0000
0001
0000
1000
0000
0010
0100
0010
0100
0010
0000
,
1000
1000
0001
0100
1000
0001
0010
1000
,
0001
0001
1000
0100
0001
1000
0010
0001
,
1001
0000
0000
1001
0000
0000
0100
0000
1100
0000
0000
1100
0000
0000
0001
0100
,
0001
0000
0000
0101
0000
0000
0010
0000
0110
0000
0000
0110
0000
0000
1000
0001
,
2000
0000
0002
0003
,
0001
0002
0000
0000
,
3003
0000
0000
0000
;

//---------------dance-single - ----------------
#NOTES:
     dance-single:
     :
     Medium:
     6:
     0.520,0.538,0.179,0.288,0.000:
0001
0010
0100
1000
,
0010
0100
0010
1000
,
0100
0010
0001
1000
,
0010
1000
0010
1000
,
0001
0001
0100
0100
,
0010
0010
1000
1000
,
1001
0000
0000
0001
1000
0000
0000
0100
,
0010
0000
0000
0001
1000
0000
0000
0010
,
0100
0000
0001
0000
1000
0000
0010
0100
,
0010
0000
1000
0000
0100
0000
0010
0100
,
0010
0000
0100
0000
1000
0000
0001
1000
,
0001
0000
0010
0000
0100
0000
0010
0001
,
0010
0000
0100
0000
1000
0000
0100
0010
,
0100
0000
1000
0000
0010
0000
0100
0010
,
0100
0001
0100
0010
,
1000
1000
2000
0000
,
3001
0100
0001
0000
1000
0100
1000
0100
,
1000
0000
0010
0000
0100
0001
0100
0000
,
0001
0000
0010
0000
0100
0000
1000
0001
,
0100
0000
0010
0000
1000
0000
0010
0100
,
0010
1000
0100
0000
0010
0000
0001
0010
,
0001
0100
0010
0000
1000
0000
0001
0000
,
1001
0000
1001
0000
0000
0110
0000
0000
,
0110
0000
0100
0100
,
0100
0001
0100
1000
,
0100
0000
0001
1000
0000
0001
1000
0000
,
0100
0001
0100
1000
,
0010
0000
0100
0001
0000
1000
0100
0000
,
1001
0010
0100
1000
,
0110
0000
0100
0001
0000
1000
0100
0000
,
1001
1001
1001
1001
,
1001
0000
0001
0000
1000
0100
0000
0010
,
0100
0000
1000
0000
0010
0100
0000
0001
,
0010
0000
0100
0000
0010
0001
0000
0010
,
0100
0000
1000
0000
0001
1000
0001
0000
,
2002
3003
2200
3300
,
0100
0110
0010
1000
,
0002
0100
0103
0010
,
2000
0100
3100
0001
,
0100
0010
0100
0010
0100
0000
0001
0000
,
1000
0001
1000
0000
0100
1000
0100
0000
,
2000
0001
3001
0100
,
0010
0100
0010
0100
0010
0000
1000
0000
,
2002
3003
0022
0033
,
0010
0110
0100
0001
,
2000
0100
3100
1000
,
0002
0100
0103
0010
,
1000
0001
1000
0001
1000
0000
0100
1000
,
0100
0000
1000
0001
1000
0000
0010
0000
,
0100
0010
0100
0010
0100
0010
0100
0000
,
0000
0001
1000
0001
1000
0010
0100
0000
,
1001
0000
1000
0100
1000
0000
0100
0010
,
0100
0000
1000
0000
0001
1000
0001
1000
,
0001
0000
0010
0001
0010
0000
0100
0010
,
0100
0000
1000
0000
0010
0100
0001
0000
,
0200
0000
0000
0301
1000
0000
0010
0000
,
0200
0000
0000
0301
1000
0000
0010
0000
,
1001
0000
0000
0001
1000
0000
0000
0100
,
0010
0000
0000
0001
1000
0000
0010
0100
,
0010
0000
0010
0000
,
0010
0000
0000
0000
,
0100
0000
0100
0000
,
0100
0000
0000
0000
,
0010
0000
0010
0000
,
0010
0000
0000
0000
,
0100
0000
0100
0000
,
0100
0001
0010
0100
,
1000
0001
1000
0000
0001
1000
0001
0000
,
0100
0001
0100
0000
0010
1000
0010
0000
,
1000
0100
1000
0000
0001
0010
0001
0000
,
0010
0100
0010
0000
0002
0000
0000
0000
,
1003
0010
1000
0010
0100
0000
0001
0000
,
1000
0000
0100
1000
0001
0000
1000
0000
,
0010
0100
0010
0100
0010
0100
0010
0000
,
1000
0100
0010
0001
1000
0001
1000
0001
,
2000
0000
0000
3010
0100
0000
0001
1000
,
0002
1000
1003
0100
,
0020
0000
0000
0031
1000
0000
0010
0100
,
0020
0000
0100
0000
0130
0001
1000
0000
,
0200
0000
0000
1300
0020
0000
0000
0130
,
0002
0000
0000
0013
0200
0000
0000
1300
,
0002
0000
0000
0103
0020
0000
0000
1030
,
0002
0000
0000
0013
0100
0000
1001
0000
,
2002
3003
2020
3030
,
0100
0001
1000
0000
0010
0100
0010
0100
,
0010
1000
0100
0001
,
0100
0000
1000
0000
0001
1000
0010
0000
,
2000
0000
0000
3010
0200
0000
0000
0301
,
2000
0000
0000
3100
0020
0000
0000
0031
,
1000
0000
0000
0010
0100
0000
0000
0001
,
1000
0000
0000
0100
0010
0000
0001
1000
,
0002
0000
0000
0000
,
0000
0003
0000
0000
;

//---------------dance-single - ----------------
#NOTES:
     dance-single:
     :
     Hard:
     8:
     0.653,0.645,0.280,0.303,0.117: // measure 1
2100
0000
0001
0000
3100
0000
1000
0001
,  // measure 2
0200
0000
0010
0000
0310
1000
0100
0010
,  // measure 3
0002
0000
1000
0000
0103
0000
0001
1000
,  // measure 4
0020
0000
0100
0000
0130
0001
1000
0000
,  // measure 5
0001
0000
0000
0001
0000
0000
0001
0000
1000
0000
0000
1000
0000
0000
1000
0000
,  // measure 6
0100
0000
0000
0100
0000
0000
0100
0000
0010
0000
0000
0010
0000
0000
0010
0000
,  // measure 7
0011
0000
0000
0011
0000
0000
0001
0000
1000
0000
0000
1001
0000
0000
1000
0000
,  // measure 8
0100
0000
0000
1100
0000
0000
1000
0000
0001
0000
0000
1001
0000
0000
0001
0000
,  // measure 9
1000
0100
1000
0100
1000
0000
0100
0010
,  // measure 10
0100
1000
0100
0010
0001
0000
0100
0010
,  // measure 11
0100
0000
0001
0000
0100
0000
1000
0100
,  // measure 12
0001
0000
0100
0000
0010
0000
1000
0010
,  // measure 13
0100
0001
0100
0001
0100
0000
0010
1000
,  // measure 14
0001
0010
0001
0010
0001
0000
0010
0100
,  // measure 15
1000
0000
0001
0100
0010
0000
0001
0000
,  // measure 16
0010
1000
1001
0000
,  // measure 17
0010
0100
0001
0010
0001
0000
0010
0100
,  // measure 18
1000
0001
1000
0001
1000
0000
0010
0100
,  // measure 19
0001
0000
1000
0000
0100
0000
0001
0100
,  // measure 20
1000
0000
0010
0000
0100
0001
0010
0100
,  // measure 21
1000
0001
1000
0001
1000
0000
0100
0010
,  // measure 22
0001
0100
0010
0100
0001
0000
1000
0000
,  // measure 23
0100
0100
0100
0000
0000
0100
0000
0100
,  // measure 24
1001
0000
0020
0230
,  // measure 25
0320
0000
1030
0000
0100
0010
0100
1000
,  // measure 26
0001
0000
0001
0010
0000
0010
0100
0000
,  // measure 27
0010
0001
1000
0000
0100
0010
0100
1000
,  // measure 28
0010
0000
0010
0100
0000
0100
0001
0000
,  // measure 29
2001
0000
0100
0000
3001
0010
0100
0010
,  // measure 30
0002
0000
0100
0000
1003
0010
0100
0000
,  // measure 31
0110
0110
0110
0110
,  // measure 32
1001
0000
1000
0000
0001
0100
0000
1000
,  // measure 33
0100
0000
0001
0000
0100
1000
0000
0100
,  // measure 34
0001
1000
0001
0000
0100
1000
0000
0100
,  // measure 35
0001
0010
0100
1000
0010
0000
0010
0000
,  // measure 36
2002
3003
0202
0303
,  // measure 37
1100
0000
1100
0000
0010
0001
0100
0000
,  // measure 38
0020
1000
0100
1030
,  // measure 39
0001
0010
0100
0000
0010
0001
0010
0000
,  // measure 40
0001
0010
0100
1000
0001
0000
1000
0100
,  // measure 41
0000
0100
1000
0010
0100
0001
0010
0000
,  // measure 42
0002
0000
1003
0100
0000
0010
0100
1000
,  // measure 43
0000
0001
0100
0010
1000
0000
1000
0000
,  // measure 44
2002
3003
2200
3300
,  // measure 45
0101
0000
0101
0000
0010
1000
0100
0000
,  // measure 46
0020
0001
0100
0031
,  // measure 47
1000
0001
0010
0000
0100
0010
0100
0000
,  // measure 48
1000
0100
0010
0001
1000
0000
0100
0010
,  // measure 49
0000
0010
0100
1000
0001
0000
0001
0000
,  // measure 50
1000
0010
0100
0001
0010
0100
1000
0001
,  // measure 51
0000
0001
1000
0100
0010
0001
1000
0000
,  // measure 52
1001
0000
1000
0100
0000
0010
0100
0010
,  // measure 53
0000
0001
0010
0100
1000
0010
0001
0010
,  // measure 54
1000
0001
0100
0001
0000
0010
0100
0010
,  // measure 55
0000
0001
0010
0100
1000
0010
0100
0001
,  // measure 56
1000
0000
0000
1000
0000
0000
1000
0000
0002
0000
0000
0000
0103
0000
0000
0000
,  // measure 57
0001
0000
0000
0001
0000
0000
0001
0000
0200
0000
0000
0000
0310
0000
0000
0000
,  // measure 58
1001
0000
0000
1001
0000
0000
1000
0000
0001
0000
0000
0101
0000
0000
0001
0000
,  // measure 59
1000
0000
0000
1001
0000
0000
1000
0000
0010
0000
0000
1010
0000
0000
0010
0000
,  // measure 60
2000
0001
3001
0010
,  // measure 61
0100
1000
0001
0000
,  // measure 62
0200
0010
0310
1000
,  // measure 63
0100
0001
0100
0000
,  // measure 64
2000
0001
3001
1000
,  // measure 65
0100
0001
0100
1000
,  // measure 66
0020
0100
0130
0001
,  // measure 67
1000
0001
1000
0001
1000
0000
0000
0000
,  // measure 68
0001
0100
0001
0100
1000
0100
1000
0100
,  // measure 69
0001
0010
0100
1000
0001
0000
0001
0000
,  // measure 70
1000
0100
1000
0100
0001
0100
0001
0100
,  // measure 71
1000
0010
0100
0001
2000
0000
0000
0000
,  // measure 72
3001
0100
0001
0100
1000
0100
1000
0100
,  // measure 73
0001
0010
0100
0010
0001
1000
0010
0000
,  // measure 74
1000
0100
1000
0100
0001
0100
0001
0100
,  // measure 75
1000
0010
0100
0001
0010
0100
1000
0001
,  // measure 76
0200
0000
0301
0100
1000
0000
0100
0001
,  // measure 77
2000
0000
0100
0000
3001
1000
0100
0010
,  // measure 78
0002
0000
1003
0100
0001
0000
0100
1000
,  // measure 79
0002
0000
0100
0000
1003
0001
0100
0010
,  // measure 80
1000
0000
0000
1000
0000
0000
1000
0000
0100
0000
0000
0100
0000
0000
0100
0000
,  // measure 81
0010
0000
0000
0010
0000
0000
0010
0000
0001
0000
0000
0001
0000
0000
0001
0000
,  // measure 82
1000
0000
0000
1000
0000
0000
1000
0000
0010
0000
0000
0010
0000
0000
0010
0000
,  // measure 83
0100
0000
0000
0100
0000
0000
0100
0000
0001
0000
0000
0000
1001
0000
0000
0000
,  // measure 84
2002
3003
0202
0303
,  // measure 85
0100
1000
0001
1000
0001
0010
1000
0010
,  // measure 86
0001
0000
0000
0001
0000
0000
0100
0000
0020
0000
0000
0000
1030
0000
0100
0000
,  // measure 87
0020
0000
0001
0000
0130
0001
0100
0010
,  // measure 88
1000
0000
0000
1000
0000
0000
1000
0000
0100
0000
0000
0100
0000
0000
0100
0000
,  // measure 89
0001
0000
0000
0001
0000
0000
0001
0000
0100
0000
0000
0100
0000
0000
0100
0000
,  // measure 90
1000
0000
0000
1100
0000
0000
0100
0000
0010
0000
0000
0011
0000
0000
0001
0000
,  // measure 91
1000
0000
0000
1001
0000
0000
1000
0000
0001
0000
0000
1001
0000
0000
0100
0000
,  // measure 92
0220
0000
0000
0000
,  // measure 93
0000
0330
0000
0000
;

//---------------dance-single - ----------------
#NOTES:
     dance-single:
     :
     Beginner:
     2:
     0.107,0.177,0.078,0.000,0.000:
1000
0000
0000
0000
,
1000
0000
0000
0000
,
0001
0000
0000
0000
,
0001
0000
0000
0000
,
0010
0000
0000
0000
,
0100
0000
0000
0000
,
0010
0000
0000
0000
,
0000
0000
0000
0000
,
0001
0000
0000
0000
,
1000
0000
0000
0000
,
0001
0000
0000
0000
,
1000
0000
0000
0000
,
0100
0000
0000
0000
,
0010
0000
0000
0000
,
0100
0000
0000
0000
,
0010
0000
0000
0000
,
0001
0000
0000
0000
,
0001
0000
0000
0000
,
0001
0000
0000
0000
,
0001
0000
0000
0000
,
1000
0000
0000
0000
,
1000
0000
0000
0000
,
1001
0000
0000
0000
,
1001
0000
0000
0000
,
1000
0000
0000
0000
,
0100
0000
0000
0000
,
1000
0000
0000
0000
,
0100
0000
0000
0000
,
0010
0000
0000
0000
,
0001
0000
0000
0000
,
0010
0000
0000
0000
,
1001
0000
0000
0000
,
0001
0000
0000
0000
,
1000
0000
0000
0000
,
0001
0000
0000
0000
,
0100
0000
0000
0000
,
0100
0000
0000
0000
,
0010
0000
0000
0000
,
0010
0000
0000
0000
,
0100
0000
0000
0000
,
0100
0000
0000
0000
,
0001
0000
0000
0000
,
0001
0000
0000
0000
,
1000
0000
0000
0000
,
1000
0000
0000
0000
,
0001
0000
0000
0000
,
0001
0000
0000
0000
,
0010
0000
0000
0000
,
0100
0000
0000
0000
,
0010
0000
0000
0000
,
0000
0000
0000
0000
,
1001
0000
0000
0000
,
0000
0000
0000
0000
,
1000
0000
0000
0000
,
0000
0000
0000
0000
,
0001
0000
0000
0000
,
1000
0000
0000
0000
,
0001
0000
0000
0000
,
0100
0000
0000
0000
,
0110
0000
0000
0000
,
0000
0000
0000
0000
,
0000
0000
0000
0000
,
0000
0000
0000
0000
,
0010
0000
0000
0000
,
0000
0000
0000
0000
,
0010
0000
0000
0000
,
0010
0000
0000
0000
,
1000
0000
0001
0000
,
1000
0000
0000
0000
,
0001
0000
1000
0000
,
0001
0000
0000
0000
,
1000
0000
0100
0000
,
1000
0000
0000
0000
,
0001
0000
0010
0000
,
0001
0000
0000
0000
,
1000
0000
0000
0000
,
0000
0000
0000
0000
,
0001
0000
0000
0000
,
0000
0000
0000
0000
,
1000
0000
1000
0000
,
1000
0000
0000
0000
,
0001
0000
0001
0000
,
0001
0000
0000
0000
,
0110
0000
0000
0000
,
0000
0000
0000
0000
,
1001
0000
0000
0000
,
0000
0000
0000
0000
,
1001
0000
0000
0000
,
1001
0000
0000
0000
,
0100
0000
0000
0000
,
0010
0000
0000
0000
,
0110
0000
0000
0000
;
