#TITLE:おもちゃばこのロンド;
#SUBTITLE:;
#ARTIST:Dormir;
#TITLETRANSLIT:OMOCHABAKO NO RONDO;
#SUBTITLETRANSLIT:;
#ARTISTTRANSLIT:;
#CREDIT:DigiMindAxel;
#BANNER:OMOCHABAKO NO RONDO.png;
#BACKGROUND:OMOCHABAKO NO RONDO-bg.png;
#LYRICSPATH:OMOCHABAKO NO RONDO.lrc;
#CDTITLE:pop'n music.png;
#MUSIC:OMOCHABAKO NO RONDO.mp3;
#OFFSET:-9.060;
#SAMPLESTART:30.600;
#SAMPLELENGTH:12.000;
#SELECTABLE:YES;
#BPMS:0.000=100.000;
#STOPS:;
#BGCHANGES:;

//---------------dance-single - ----------------
#NOTES:
     dance-single:
     :
     Easy:
     1:
     0.084,0.093,0.000,0.105,0.000: // measure 1
0001
0000
0000
1000
,  // measure 2
0000
0000
0001
0000
,  // measure 3
0000
1000
0000
0000
,  // measure 4
0001
0000
0000
1000
,  // measure 5
0000
0000
0010
0000
,  // measure 6
0000
0100
0000
0000
,  // measure 7
0020
0000
0000
0230
,  // measure 8
0000
0000
0320
0000
,  // measure 9
0000
2030
0000
0000
,  // measure 10
3001
0000
0000
0100
,  // measure 11
0000
0000
0001
0000
,  // measure 12
0000
1000
0000
0000
,  // measure 13
0010
0000
0000
1000
,  // measure 14
0000
0000
0010
0000
,  // measure 15
0000
0100
0000
0000
,  // measure 16
0010
0000
0000
1000
,  // measure 17
0000
0000
0100
0000
,  // measure 18
0000
0010
0000
0000
,  // measure 19
0001
0000
0000
1000
,  // measure 20
0000
0000
0001
0000
,  // measure 21
0000
0000
0000
0000
,  // measure 22
0100
0000
0000
0010
,  // measure 23
0000
0000
0100
0000
,  // measure 24
0000
0010
0000
0000
,  // measure 25
1000
0000
0000
0001
,  // measure 26
0000
0000
1000
0000
,  // measure 27
0000
0001
0000
0000
,  // measure 28
0100
0000
0000
0010
,  // measure 29
0000
0000
2000
0000
,  // measure 30
0000
3200
0000
0000
,  // measure 31
0320
0000
0000
0032
,  // measure 32
0000
0000
0103
0000
,  // measure 33
0000
0010
0000
0000
,  // measure 34
0100
0000
0000
0001
,  // measure 35
0000
0000
1000
0000
,  // measure 36
0000
0001
0000
0000
,  // measure 37
0100
0000
0000
0010
,  // measure 38
0000
0000
0200
0000
,  // measure 39
0000
0320
0000
0000
,  // measure 40
0230
0000
0000
0320
,  // measure 41
0000
0030
1000
0000
,  // measure 42
0000
0100
0000
0000
,  // measure 43
0010
0000
0000
0001
,  // measure 44
0000
0000
0010
0000
,  // measure 45
0000
0100
0000
0000
,  // measure 46
2000
0000
0000
0000
,  // measure 47
0000
3000
0000
0000
;

//---------------dance-single - ----------------
#NOTES:
     dance-single:
     :
     Challenge:
     7:
     0.452,0.392,0.097,0.080,0.177: // measure 1
0001
0000
0001
0010
0100
1000
0010
0000
0000
0000
1000
0000
1000
0000
0001
0010
,  // measure 2
0100
1000
0001
0000
0100
0000
0001
0000
2000
0000
0000
0000
3001
0000
0100
0000
,  // measure 3
1000
0100
0002
0000
1003
0100
0001
0100
,  // measure 4
2000
0000
3001
0010
1000
0010
0002
0000
,  // measure 5
1003
0010
0001
0010
2000
0000
3001
0100
,  // measure 6
1000
0100
0002
0000
1003
0010
0001
0010
,  // measure 7
1000
1000
0001
0100
0100
0110
1000
1000
,  // measure 8
0010
0100
0100
0110
0001
0001
0100
0010
,  // measure 9
0010
0110
1000
1000
0100
0010
0010
0110
,  // measure 10
0001
0000
0000
0010
0001
0000
0010
0000
0100
0000
1000
0000
0100
0000
0100
0000
,  // measure 11
0000
1000
0100
0000
1000
0000
0100
0000
0010
0000
0000
0001
0100
0000
0010
0000
,  // measure 12
0100
0000
0010
0000
1000
0000
1000
0000
0000
0010
1000
0000
0010
0000
0100
0000
,  // measure 13
0001
0000
0000
0010
0001
0000
0100
0000
0010
0000
1000
0000
0100
0000
0100
0000
,  // measure 14
0000
1000
0010
0000
1000
0000
0100
0000
0010
0000
0000
0001
0100
0000
0001
0000
,  // measure 15
0010
0000
0100
0000
1000
0000
1000
0000
0000
0100
1000
0000
0100
0000
0010
0000
,  // measure 16
0001
0010
0010
0011
0000
0001
1000
0100
,  // measure 17
0100
1100
0100
0010
0001
0010
0010
0101
,  // measure 18
0000
0010
1000
0100
0100
1010
0000
0000
,  // measure 19
0001
0001
0010
0100
0100
1000
0010
0000
,  // measure 20
0100
0110
0000
0001
1000
0002
0000
0100
,  // measure 21
0103
0000
0001
2000
0000
0010
3010
0000
,  // measure 22
0100
0000
0001
0010
0001
0000
0100
0000
0010
0000
0100
0000
0010
0000
1000
0100
,  // measure 23
1000
0000
0010
0000
0100
0000
0010
0000
0100
0000
0001
0100
0001
0000
0100
0000
,  // measure 24
0010
0000
0100
0000
0010
0000
1000
0010
1000
0000
0001
0010
0100
1000
0001
0000
,  // measure 25
0100
0000
0001
0100
0001
0000
0100
0000
0010
0000
0100
0000
0010
0000
1000
0010
,  // measure 26
1000
0000
0010
0000
0100
0000
0010
0000
0100
0000
0001
0010
0001
0000
0100
0000
,  // measure 27
0010
0000
0100
0000
0010
0000
1000
0100
1000
0000
0001
0000
0010
0000
0100
0000
,  // measure 28
1000
0000
0010
0100
0001
0000
0100
0000
0001
0000
0010
0000
0001
0000
0100
0010
,  // measure 29
1000
1001
0000
0000
1000
1000
0100
0010
,  // measure 30
0001
1000
0001
0001
0010
0100
1000
0001
,  // measure 31
1000
1000
0010
0100
0001
1000
0001
0001
,  // measure 32
0100
0000
0010
0000
0000
0000
1000
0000
0002
0000
0000
0000
0000
0000
1003
0100
,  // measure 33
1000
0100
0010
0000
0001
0000
0001
0000
0000
1000
0001
0010
0001
0010
0100
0000
,  // measure 34
1000
0000
0000
0010
0100
0000
0001
0000
0010
0000
0100
0000
1000
0000
0001
0000
,  // measure 35
0000
0100
0010
0000
1000
0000
0100
0000
0010
0000
0000
0001
1000
0000
0100
1000
,  // measure 36
0100
1000
0010
0000
0100
0000
0001
0000
0000
1000
0001
0010
0001
0010
0100
0000
,  // measure 37
1000
0000
0000
0010
0100
0000
0001
0000
0010
0000
0100
0000
1000
0000
0001
0000
,  // measure 38
0000
0100
0010
0000
1000
0000
0100
0000
0010
0000
0001
0100
0001
0100
0010
0000
,  // measure 39
0000
1000
0001
0001
1000
1000
0100
0010
,  // measure 40
0001
0010
0010
0011
0000
0100
1000
0100
,  // measure 41
0100
1100
0000
0001
1000
0100
0010
0001
,  // measure 42
0100
1000
0100
0001
0010
0100
0000
1000
,  // measure 43
0001
0010
0100
1000
0100
0001
0100
1000
,  // measure 44
0001
0000
0100
0000
0000
0000
0001
0000
0001
0100
0010
0000
1000
0000
0100
0000
,  // measure 45
0001
0100
1000
0010
0100
0001
0010
0100
,  // measure 46
1000
0000
0001
0100
0001
0000
1000
0000
0000
0000
0010
0000
0100
0000
0001
0100
,  // measure 47
0001
2000
0000
3000
0000
0000
0000
0000
;

//---------------dance-single - ----------------
#NOTES:
     dance-single:
     :
     Hard:
     6:
     0.313,0.317,0.016,0.145,0.036: // measure 1
0001
1000
0100
0010
0000
0001
0001
0010
,  // measure 2
0100
1000
0000
0010
0200
0000
0000
0001
,  // measure 3
0000
0000
0302
0000
0000
1003
0100
0010
,  // measure 4
0002
0000
0000
1000
0000
0000
0203
0000
,  // measure 5
0000
0301
0010
0100
2000
0000
0000
0001
,  // measure 6
0000
0000
3020
0000
0000
0100
0000
0000
,  // measure 7
0130
0100
0001
0100
0100
0010
1000
1000
,  // measure 8
0010
1000
1000
0010
0100
0100
0001
0100
,  // measure 9
0100
0001
0010
0010
0100
1000
1000
0001
,  // measure 10
1001
0000
0010
0100
0000
0000
0001
0100
,  // measure 11
0000
0010
1000
0000
0000
0000
0000
0000
0001
0000
0000
0000
0100
0000
0010
0000
,  // measure 12
0000
0000
0000
0000
1000
0000
0010
0000
0000
0100
0001
0000
0000
0000
0000
0000
,  // measure 13
1000
0000
0010
0100
0000
0000
0001
0100
,  // measure 14
0000
0010
1000
0000
0000
0000
0000
0000
0001
0000
0000
0000
0100
0000
0010
0000
,  // measure 15
0000
0000
0000
0000
1000
0000
0010
0000
0000
0100
0001
0000
0000
0000
0000
0000
,  // measure 16
0100
0100
0100
0200
0000
0000
0310
0010
,  // measure 17
0010
0020
0000
0000
1030
1000
1000
2000
,  // measure 18
0000
0000
3001
0001
0001
0002
0000
0000
,  // measure 19
1003
0100
0010
0001
0010
0100
1000
0000
,  // measure 20
0100
0010
0000
0001
1000
0100
0010
0001
,  // measure 21
0001
0000
0001
0010
0100
1000
1000
0000
,  // measure 22
0020
0000
0000
0130
0001
0100
1000
0000
,  // measure 23
0100
0001
0000
0000
0100
0000
0001
0100
,  // measure 24
1000
0100
0001
0000
0100
0010
0000
0000
,  // measure 25
0200
0000
0000
0310
1000
0100
0010
0000
,  // measure 26
0000
0000
0001
0100
2000
0000
0000
0000
,  // measure 27
3100
0001
2000
0000
0000
3001
0010
0100
,  // measure 28
2000
0000
0000
0000
3010
0100
0002
0000
,  // measure 29
0000
1003
0000
0000
0001
0010
0100
0010
,  // measure 30
0001
0000
0010
0100
0010
0001
0000
0000
,  // measure 31
1000
0100
0010
0100
0000
0000
1000
0100
,  // measure 32
0010
0100
0000
0000
1001
0000
0001
0100
,  // measure 33
0000
0000
0000
0000
0001
0000
0010
0000
0000
0100
1000
0000
0000
0000
0000
0000
,  // measure 34
0001
0000
0100
0010
0000
0000
1000
0100
,  // measure 35
0000
0010
0001
0000
0000
0000
0000
0000
1000
0000
0000
0000
0010
0000
0100
0000
,  // measure 36
0000
0000
0000
0000
0001
0000
0010
0000
0000
0100
1000
0000
0000
0000
0000
0000
,  // measure 37
0001
0000
0100
0010
0000
0000
1000
0100
,  // measure 38
0000
0010
0001
0000
0000
0000
0000
0000
1000
0000
1000
0000
1000
0000
2000
0000
,  // measure 39
0000
0000
3001
0001
0001
0001
0100
0010
,  // measure 40
1000
1000
1000
1000
0010
0100
0001
0001
,  // measure 41
0001
0001
0000
0000
1000
0100
0010
0001
,  // measure 42
0010
0100
1000
0000
0010
0100
0000
0000
,  // measure 43
0001
0010
0100
1000
0010
0100
0001
0000
,  // measure 44
0100
0000
0010
0000
0000
0000
1000
0000
0001
1000
0001
0000
1000
0000
0100
0000
,  // measure 45
0010
0001
1000
0000
0010
0100
0000
0100
,  // measure 46
0001
0010
0100
1000
0000
0001
1000
0100
,  // measure 47
0010
0002
0000
0003
0000
0000
0000
0000
;

//---------------dance-single - ----------------
#NOTES:
     dance-single:
     :
     Beginner:
     1:
     0.040,0.054,0.000,0.000,0.000: // measure 1
0000
0000
0000
0000
,  // measure 2
0000
0000
1000
0000
,  // measure 3
0000
0000
0000
0000
,  // measure 4
0000
0000
0000
0001
,  // measure 5
0000
0000
0000
0000
,  // measure 6
0000
0000
0000
0000
,  // measure 7
1000
0000
0000
0000
,  // measure 8
0000
0000
0010
0000
,  // measure 9
0000
0000
0000
0000
,  // measure 10
1000
0000
0000
0000
,  // measure 11
0000
0000
0001
0000
,  // measure 12
0000
0000
0000
0000
,  // measure 13
0100
0000
0000
0000
,  // measure 14
0000
0000
0001
0000
,  // measure 15
0000
0000
0000
0000
,  // measure 16
1000
0000
0000
0000
,  // measure 17
0000
0000
0001
0000
,  // measure 18
0000
0000
0000
0000
,  // measure 19
1000
0000
0000
0000
,  // measure 20
0000
0000
1000
0000
,  // measure 21
0000
0000
0000
0000
,  // measure 22
0001
0000
0000
0000
,  // measure 23
0000
0000
0001
0000
,  // measure 24
0000
0000
0000
0000
,  // measure 25
0100
0000
0000
0000
,  // measure 26
0000
0000
0010
0000
,  // measure 27
0000
0000
0000
0000
,  // measure 28
0100
0000
0000
0000
,  // measure 29
0000
0000
0001
0000
,  // measure 30
0000
0100
0000
0000
,  // measure 31
0001
0000
0000
1000
,  // measure 32
0000
0000
0010
0000
,  // measure 33
0000
0010
0000
0000
,  // measure 34
0100
0000
0000
0100
,  // measure 35
0000
0000
0010
0000
,  // measure 36
0000
0010
0000
0000
,  // measure 37
1000
0000
0000
1000
,  // measure 38
0000
0000
0001
0000
,  // measure 39
0000
0000
0000
0000
,  // measure 40
1000
0000
0000
0000
,  // measure 41
0000
0000
0001
0000
,  // measure 42
0000
0000
0000
0000
,  // measure 43
0100
0000
0000
0000
,  // measure 44
0000
0000
0010
0000
,  // measure 45
0000
0000
0000
0000
,  // measure 46
0100
0000
0000
0000
;

//---------------dance-single - ----------------
#NOTES:
     dance-single:
     :
     Medium:
     4:
     0.240,0.261,0.129,0.169,0.000: // measure 1
0001
0010
0100
1000
0000
1000
0100
0000
,  // measure 2
0010
0001
0000
0000
0020
0000
0000
0000
,  // measure 3
0000
0032
0000
0000
,  // measure 4
2003
0000
0000
3020
,  // measure 5
0000
0000
0230
0000
,  // measure 6
0000
0302
0000
0000
,  // measure 7
0013
0000
0001
0010
0000
0001
0100
0000
,  // measure 8
0010
0100
0000
0000
0010
0000
1000
0010
,  // measure 9
0000
0100
0010
0000
0100
0001
0000
0000
,  // measure 10
1001
0000
0010
0001
0000
0000
0100
0100
,  // measure 11
0000
0010
0000
0000
1001
0000
0010
1000
,  // measure 12
0000
0000
0010
0010
0000
0100
0000
0000
,  // measure 13
1001
0000
0010
0001
0000
0000
0100
0100
,  // measure 14
0000
0010
0000
0000
1001
0000
0100
1000
,  // measure 15
0000
0000
0010
0010
0000
0100
0000
0000
,  // measure 16
0002
0000
0000
0000
0000
1000
1003
0000
,  // measure 17
0000
0001
0010
0100
2000
0000
0000
0000
,  // measure 18
0000
0001
3001
0000
0000
0000
0000
0000
,  // measure 19
0010
0001
0010
0001
0010
0001
1000
0000
,  // measure 20
0010
1000
0000
0100
2000
0000
0000
0100
,  // measure 21
3100
0000
0020
0000
0000
0001
0031
0000
,  // measure 22
1000
0000
0000
1000
0100
0010
0001
0000
,  // measure 23
0000
1001
0000
0000
0010
0000
0001
0001
,  // measure 24
0010
0100
1000
0000
0000
1001
0000
0000
,  // measure 25
0010
0000
0000
1000
0100
0010
0002
0000
,  // measure 26
0000
0000
0103
0010
0200
0000
0000
0000
,  // measure 27
0301
1000
0001
0000
0000
0001
0010
0100
,  // measure 28
2000
0000
0000
0000
3010
0100
0010
0000
,  // measure 29
0000
1001
0000
0000
2000
0000
0000
0000
,  // measure 30
0000
3200
0000
0000
,  // measure 31
0320
0000
0000
0032
,  // measure 32
0000
0000
0000
0000
0103
0000
0000
0110
,  // measure 33
0000
0000
0001
0001
0000
1001
0000
0000
,  // measure 34
0010
0000
0000
0110
0000
0000
1000
1000
,  // measure 35
0000
1001
0000
0000
0100
0000
0000
0110
,  // measure 36
0000
0000
0001
0001
0000
1001
0000
0000
,  // measure 37
0010
0000
0000
0110
0000
0000
1000
1000
,  // measure 38
0000
1001
0000
0000
0002
0000
0000
0000
,  // measure 39
0000
1000
1003
0000
0000
0001
0010
0100
,  // measure 40
2000
0000
0000
0000
0000
0001
3001
0000
,  // measure 41
0000
0000
0000
0000
1000
1000
0100
0010
,  // measure 42
0000
0001
0100
0000
0100
0001
0000
0000
,  // measure 43
0001
0001
0010
0100
0000
1000
0010
0000
,  // measure 44
0010
1000
0000
0000
1001
0100
0010
0001
,  // measure 45
0010
0100
1000
0000
0100
0010
0000
0001
,  // measure 46
2000
0000
0000
3010
0000
0100
0002
0000
,  // measure 47
0000
0000
0000
0003
0000
0000
0000
0000
;
