#TITLE:螺子之人;
#SUBTITLE:;
#ARTIST:あさき;
#TITLETRANSLIT:NEJI NO HITO;
#SUBTITLETRANSLIT:;
#ARTISTTRANSLIT:Asaki;
#CREDIT:DigiMindAxel;
#BANNER:NEJI NO HITO.png;
#BACKGROUND:NEJI NO HITO-bg.png;
#LYRICSPATH:;
#CDTITLE:ee'MALL.png;
#MUSIC:NEJI NO HITO.mp3;
#OFFSET:-5.040;
#SAMPLESTART:40.420;
#SAMPLELENGTH:12.000;
#SELECTABLE:YES;
#DISPLAYBPM:100.000:170.000;
#BPMS:0.000=170.000,170.000=60.000,178.000=120.000,204.000=129.000,205.000=170.000;
#STOPS:99.500=0.175
,103.000=0.175
,106.500=0.175
,116.000=0.175
,119.500=0.170
,123.000=0.175
;
#BGCHANGES:-14.000=NEJI NO HITO.AVI=1.000=1=1=0,
99999=-nosongbg-=1.000=0=0=0 // don't automatically add -songbackground-
;

//---------------dance-single - ----------------
#NOTES:
     dance-single:
     :
     Beginner:
     2:
     0.099,0.137,0.049,0.000,0.000:
1000
0000
0000
0000
,
0000
0001
0000
0000
,
0000
0000
1000
0000
,
0000
0000
0000
0001
,
0000
0000
0000
0000
,
1000
0000
0000
1000
,
0000
0000
0000
0000
,
1000
0000
0000
0000
,
0000
0001
0000
0000
,
0000
0000
0001
0000
,
1001
0000
0100
0000
,
0000
0000
0100
0000
,
0000
0000
0010
0000
,
0000
0000
0010
0000
,
0000
0000
0000
0100
,
0000
0000
0000
0100
,
0000
0000
0000
0010
,
0000
0000
0000
0010
,
0000
0000
0000
0000
,
1000
0000
0001
0000
,
1000
0000
0000
0000
,
0001
0000
1000
0000
,
0001
0000
0000
0000
,
1001
0000
0000
0000
,
0110
0000
0000
1000
,
0000
0000
0000
0001
0000
0000
0000
0000
,
0000
1000
0000
0000
,
0000
0001
0000
0000
0000
0000
1000
0000
,
0000
1000
0000
1000
,
0000
0000
0001
0000
,
0000
0000
0000
1000
0000
0000
0000
0000
,
0000
0001
0000
1000
,
0000
1000
0000
0001
,
0000
0000
0000
0000
,
0000
0001
0000
1000
,
0000
0000
0010
0000
,
0100
0000
0000
0001
,
0000
1000
0000
0000
,
1001
0000
1000
0000
,
0001
0000
0000
0100
,
0000
0010
0000
0000
,
1000
0000
0001
0000
,
0000
0000
1001
0000
,
0000
0000
0001
0000
,
0000
0000
1000
0000
,
0000
0000
0000
0000
,
0000
0000
0001
0000
,
0000
0000
0000
0000
,
0000
0000
1000
0000
,
0000
0000
0000
0000
,
0000
0000
0010
0000
,
0000
0000
1000
0000
,
0001
0000
0000
0100
,
0000
0010
0000
0000
,
1000
0000
0001
0000
,
0000
0100
0000
0100
;

//---------------dance-single - ----------------
#NOTES:
     dance-single:
     :
     Easy:
     4:
     0.322,0.334,0.294,0.039,0.000:
1001
0000
0001
0000
,
0001
1000
0000
1000
,
0000
1000
0001
0000
,
0001
0000
0001
1000
,
0000
1000
0000
1000
,
0001
0100
0010
0010
,
0010
0100
0100
0001
,
0001
1000
1000
0001
,
0001
0010
0010
0001
,
0001
1000
0100
0010
,
1001
0000
0001
0100
,
0001
0100
0001
1000
,
0000
0010
0000
1001
0000
0000
1000
0000
,
0010
1000
0010
1000
,
0001
0010
0001
1000
,
1000
0001
0001
1000
,
0001
0000
0000
0100
0000
1001
0000
0000
,
1000
0010
1000
0001
,
0000
1001
0000
0000
0001
0000
0100
0000
,
0001
0001
1000
1000
,
0001
0010
0100
1000
,
0001
0001
1000
1000
,
1000
0100
0010
0001
,
0101
0000
0000
0001
0000
0000
0001
0000
,
1010
0000
0000
1000
0000
0000
0100
0000
,
1100
0000
0000
0100
0000
0001
0000
1001
,
0000
0010
1000
1001
,
0000
0100
0000
0001
0000
0100
0000
0100
,
0000
0010
0000
0010
0000
1000
0000
0001
,
0000
1001
0000
0000
0100
0000
0001
0000
,
1001
0000
0000
0010
0000
1000
0000
1001
,
0000
0100
0001
0100
,
0100
0010
0010
1000
,
0001
0200
0000
0000
,
0300
1001
0010
1000
,
0100
0010
0001
0010
,
0100
1000
0100
0001
,
0010
0100
1000
0001
,
1001
1001
0010
1000
,
0100
0010
0001
1001
,
0100
0001
0010
0100
,
1000
1001
0100
0001
,
0010
0100
2002
0000
,
0000
3003
1010
0000
,
0011
0000
0001
0000
1001
0000
0000
0001
,
0000
1000
0000
0001
0000
1000
0000
0001
,
0000
1000
0000
0000
1000
0000
0000
1000
,
0000
0001
0000
1000
0000
0010
0000
1000
,
0000
0001
0000
0000
0001
0000
0000
0001
,
0000
1000
0000
0001
0000
0100
0000
0010
,
0000
0100
0000
0000
0110
0000
0000
1001
,
0000
0000
1001
0011
,
0100
1000
0001
1001
,
1100
0010
0001
1000
,
1001
0011
0100
1000
,
0001
0000
0100
0000
0010
0100
0020
0000
,
0000
0000
0000
0030
;

//---------------dance-single - ----------------
#NOTES:
     dance-single:
     :
     Medium:
     6:
     0.437,0.389,0.500,0.069,0.000:
1001
1000
1000
0001
,
0010
1001
0001
0001
,
1000
0100
1001
1000
,
1000
0001
0010
1001
,
0001
0001
1000
0100
,
1000
0000
0001
1000
0001
0000
0100
0000
,
0101
0100
0101
1000
,
0010
1010
0010
1010
,
0001
1000
1100
1000
,
1100
0000
0010
0000
0001
0000
0010
0001
,
0020
0000
0000
0030
1001
0000
0100
0000
,
0010
0000
0001
0000
1000
0001
0100
0010
,
0000
0110
0000
1001
0000
0000
1000
0100
,
1000
0000
0001
0100
0001
0000
1000
0000
,
0100
0000
0010
0000
0001
0000
0100
0001
,
0010
0000
0110
0000
1001
0000
0010
1000
,
0100
1000
0001
0100
0000
0110
0000
0000
,
1000
0010
0100
0000
0001
0100
0010
1000
,
0000
1001
0000
0000
0010
0100
0010
0000
,
1000
0110
0001
0110
,
1000
0100
0001
0100
1000
0000
1001
0000
,
1000
0110
0001
0110
,
1000
0100
0001
0100
1000
0000
1001
0000
,
1010
0000
0000
1001
0000
0000
0010
0001
,
0100
0000
0000
1001
0000
0000
0010
1000
,
1001
0000
0000
0010
0100
0001
0000
1001
,
0000
0000
1000
0001
0100
0000
0110
0000
,
0000
0001
1000
0100
0000
1010
0000
0100
,
0000
0001
0000
0100
0000
0110
0000
0110
,
0000
0101
0000
0000
0010
1000
0100
0000
,
1001
0000
0000
0100
0001
0010
0000
1001
,
0000
0000
0010
1000
0100
0000
1000
0000
,
0001
0010
1100
0101
,
0101
0220
0000
0000
,
0330
0000
1001
0000
0100
0000
1000
0010
,
0100
0001
1001
0010
,
0001
0100
0010
0000
1000
0000
1001
0000
,
0010
0000
1000
0100
0010
0000
0001
0000
,
1001
0000
0100
0000
0001
0010
0100
0000
,
1000
0000
1001
0000
1000
0000
0001
0010
,
0100
0000
0010
0000
0001
0100
0001
0000
,
1001
0000
1000
0100
0010
0000
0100
1000
,
0100
0010
1001
0000
,
0000
0000
0020
0000
,
0032
0000
2003
0000
3001
0100
0000
0010
,
0000
0100
0000
0010
0000
1000
0000
0100
,
0000
0010
0001
0010
0100
1000
0000
0001
,
0000
1000
0000
0010
0000
0100
0000
0001
,
0000
0010
0100
1000
0010
0100
0000
0010
,
0000
0100
0000
0001
0000
1000
0000
0100
,
0000
0010
0001
0010
1100
0000
0000
0110
,
0000
0000
0000
0000
1001
0000
0100
1000
,
0010
0000
0100
0010
0100
0000
1001
0000
,
0010
0001
0100
0000
0010
0100
0010
0000
,
1001
0000
0010
1000
0001
0000
0100
0010
,
0100
0000
0001
0100
0010
1000
0002
0000
,
0000
0000
0000
0003
;

//---------------dance-single - ----------------
#NOTES:
     dance-single:
     :
     Hard:
     8:
     0.549,0.556,0.520,0.167,0.118: // measure 1
1001
0000
0010
0000
0011
0000
0000
0100
,  // measure 2
1000
0001
1001
0000
0100
0000
1100
0000
,  // measure 3
0000
0010
0001
1000
1001
0000
0100
0000
,  // measure 4
0101
0000
0000
0010
1000
0001
1001
0000
,  // measure 5
0010
0000
1010
0000
0000
0100
0001
1000
,  // measure 6
0001
0000
0100
0000
0010
0000
1000
0000
0001
0000
0000
0000
0100
0000
0000
0100
,  // measure 7
0001
0000
0000
0000
0100
0000
0000
0100
0001
0000
0000
0000
0010
0000
0100
0000
,  // measure 8
1000
0000
0000
1000
0010
0000
0000
0000
1000
0000
0000
1000
0010
0000
0000
0000
,  // measure 9
0100
0000
0001
0000
0010
0000
0000
0001
0010
0000
0000
0000
0010
0000
0000
0001
,  // measure 10
0010
0000
0000
0000
0001
0000
0100
0000
0010
0000
1000
0000
0010
0100
0010
0100
,  // measure 11
0020
0000
0000
0030
1000
0010
0100
0010
,  // measure 12
1000
0100
0010
0001
0100
0010
0100
0001
,  // measure 13
0000
0101
0000
1001
0000
1000
0001
0100
,  // measure 14
0010
0100
0001
0010
0100
1000
0010
0100
,  // measure 15
0010
1000
1100
0000
1001
0000
0001
0010
,  // measure 16
0100
1000
0100
0001
0100
1000
0100
0010
,  // measure 17
0001
1000
0010
0110
0000
1001
0000
0010
,  // measure 18
0001
0010
0100
1000
0010
0100
0010
1000
,  // measure 19
0000
0000
1001
0000
0000
0000
0000
0000
0010
0100
0010
0000
0100
0010
0100
0000
,  // measure 20
0001
1000
0010
0000
0010
1000
0001
0000
,  // measure 21
0001
0010
0100
1000
0100
0001
0100
0000
,  // measure 22
1000
0001
0100
0000
0100
0001
1000
0000
,  // measure 23
1000
0100
0010
0001
0010
1000
0010
0000
,  // measure 24
0101
0000
0000
0001
0000
0000
1000
0000
0000
1000
0000
0000
0010
0000
0100
0000
,  // measure 25
0010
0000
0000
0010
0000
0000
1000
0000
0000
0001
0000
0000
1000
0000
0001
0000
,  // measure 26
2002
0000
3003
0100
0010
0100
0000
2002
,  // measure 27
0000
3003
0010
0100
0010
0000
1001
0000
,  // measure 28
0100
0010
0100
0001
1000
0100
0010
0001
,  // measure 29
1000
0100
0010
0001
0000
0101
0000
0101
,  // measure 30
0000
2002
0000
3003
0010
1000
0100
0000
,  // measure 31
2002
0000
3003
0100
0001
0010
0000
2002
,  // measure 32
0000
3003
0010
1000
0100
1000
0001
0010
,  // measure 33
0100
1000
0001
0010
0100
0000
1010
0000
,  // measure 34
1010
0220
0000
0000
,  // measure 35
0330
0101
1001
1010
,  // measure 36
0010
0001
0100
0010
1010
0000
1001
0000
,  // measure 37
0101
0000
0100
1000
0010
0100
0101
0000
,  // measure 38
1001
0000
1010
0000
0010
0001
0100
0010
,  // measure 39
0100
0010
0100
0000
0001
1000
0001
0000
0011
0000
0000
0000
1001
0000
0000
0000
,  // measure 40
1100
0000
0100
0001
0010
0100
1100
0000
,  // measure 41
1001
0000
0011
0000
0010
1000
0100
0010
,  // measure 42
0011
0000
1001
0000
1100
0000
0100
0001
,  // measure 43
0100
0000
0010
0000
1000
0001
1000
0000
0220
0000
0000
0000
0000
0000
0000
0000
,  // measure 44
0000
0330
1001
0000
,  // measure 45
0101
0000
0001
0001
0001
1000
0000
0100
,  // measure 46
0000
0001
0000
0100
0000
1000
0000
0001
,  // measure 47
0000
0100
0010
0100
0001
0001
0000
0100
,  // measure 48
0000
1000
0000
0100
0000
0001
0000
0010
,  // measure 49
0000
0100
1000
0100
0010
0010
0000
0001
,  // measure 50
0000
0100
0000
0001
0000
0010
0000
1000
,  // measure 51
0000
0010
0001
1000
1100
0000
0000
1001
,  // measure 52
0000
0000
0000
0000
0000
0000
0000
0000
1000
0000
0000
0100
1000
0000
0000
0000
,  // measure 53
1000
0000
0000
0100
1000
0000
0000
0000
0100
0000
0010
0000
1001
0000
0000
0010
,  // measure 54
0001
0000
0000
0000
0001
0000
0000
0010
0001
0000
0000
0000
0010
0000
0100
0000
,  // measure 55
1001
0000
0000
0010
1000
0000
0000
0000
1000
0000
0000
0010
1000
0000
0000
0000
,  // measure 56
0100
0000
0010
0000
0001
0000
1000
0000
0010
0100
0010
0000
2002
0000
0000
0000
,  // measure 57
0000
0000
0000
3003
;

//---------------dance-single - ----------------
#NOTES:
     dance-single:
     :
     Challenge:
     9:
     0.731,0.723,0.608,0.176,0.583:
0001
0001
0010
0100
1000
0010
1000
0100
,
1000
0001
1000
0001
1000
0000
1000
0000
0100
0000
0010
0000
0001
0000
0100
0000
,
0001
0000
0010
0000
0001
1000
0001
1000
0001
0000
0001
0000
0100
0000
0010
0000
,
1000
0000
0100
0000
1000
0000
0010
0000
1000
0001
1000
0001
1000
0000
1000
0000
,
0010
0000
0100
0000
0001
0000
0100
0000
0001
0000
0010
0000
0001
1000
0001
1000
,
0001
0100
0001
0100
0001
0000
0000
0000
1001
0000
0000
0000
1100
0000
0000
0100
,
0010
0000
0000
0010
0001
0000
0000
0001
0010
0000
0000
0010
0100
0000
1000
0000
,
0011
0000
0000
0010
0100
0000
0000
0100
1000
0000
0000
1000
0100
0000
0000
0100
,
0010
0000
0001
0000
1100
0000
0000
0100
0010
0000
0000
0010
0001
0000
0000
0001
,
0100
0000
0000
0100
0010
0000
1000
0000
0100
0000
0010
0000
0001
0100
0001
0100
,
0002
0000
0000
0000
1003
0100
0010
0001
,
0100
0001
0010
1000
0010
0001
0010
0100
,
1000
1010
0000
1001
0000
0010
0100
1000
,
0010
1000
0100
0001
0100
1000
0100
0010
,
0001
0000
1000
0000
1000
0001
1000
0001
1000
0001
1000
0000
0001
0000
0001
0000
,
0010
0100
1000
0010
0100
0010
1000
0010
,
0001
0000
0010
0000
1000
0000
1010
0000
0010
0000
1001
0000
0000
0000
0100
0001
,
0100
0000
0001
0000
0010
0000
0100
0000
1000
0000
0100
0000
1000
0010
1000
0000
,
0000
0000
1001
0000
0100
0010
0100
0010
0100
0000
0001
0100
0001
0100
0001
0000
,
1000
0001
0100
0010
1000
0001
0100
0010
,
1000
0000
0100
0000
0001
0000
0100
0000
1000
0010
1000
0010
0100
0000
0001
0000
,
1000
0000
0001
0000
0010
0001
0010
0000
0001
0000
1000
0000
0100
1000
0100
0000
,
1000
0000
0001
0000
0100
0010
0100
0010
0100
0010
1000
0001
1000
0001
1000
0000
,
1010
0000
0000
1100
0000
0000
1010
0000
0000
1100
0000
0000
1000
0000
0001
0000
,
0101
0000
0000
0011
0000
0000
0101
0000
0000
0011
0000
0000
0001
0000
1000
0000
,
2002
0000
0000
0000
3003
0000
0100
0000
0001
0100
0000
0100
0010
0000
2020
0000
,
0000
0000
3030
0000
0100
0000
0001
0100
0000
0100
0010
0000
0202
0000
0000
0000
,
0303
0000
0010
0000
1000
0010
0000
0010
0100
0000
0001
0100
0001
0100
0001
0000
,
1000
0000
0100
0010
0100
0010
0100
0000
1000
0000
0101
0000
0000
0000
0110
0000
,
0000
0000
0202
0000
0000
0000
0303
0000
0010
0000
1000
0010
0000
0010
0100
0000
,
2002
0000
0000
0000
3003
0000
0010
0000
1000
0010
0000
0010
0100
0000
2200
0000
,
0000
0000
3300
0000
0010
0000
0001
0100
0000
0100
0010
0000
1000
0001
1000
0001
,
1000
0001
1000
0001
0100
0010
0100
0010
0100
0000
0000
0000
1010
0000
0000
0000
,
0011
0000
0000
0000
0010
1000
0010
1000
0010
1000
0010
1000
0010
1000
0010
1000
,
0010
0000
0000
0000
1001
0000
0000
0001
0100
0000
0000
0100
0010
0000
0000
0010
,
1000
0000
0000
1000
0001
0000
0100
0000
1100
0000
0000
1000
0010
0000
0000
0010
,
0100
0000
0000
0100
0001
0000
0000
0001
1000
0000
0010
0000
0011
0000
0000
0001
,
0010
0000
0000
0010
0100
0000
0000
0100
1000
0000
0000
1000
0001
0000
0100
0000
,
0010
0100
0010
0000
0100
0001
0100
0001
1000
0000
0000
1000
0010
0000
0000
0010
,
0100
0000
0000
0100
0001
0000
0000
0001
1000
0000
0010
0000
0101
0000
0000
0001
,
0100
0000
0000
0100
0010
0000
0000
0010
1000
0000
0000
1000
0001
0000
0100
0000
,
1010
0000
0000
1000
0010
0000
0000
0010
0100
0000
0000
0100
0001
0000
0000
0001
,
1000
0000
0010
0000
0100
0010
0100
0000
2002
0000
0000
0000
0000
0000
0000
0000
,
0000
0000
0000
3003
0220
0000
0000
0330
,
0101
0000
0000
0000
1100
0000
1000
0001
1001
0000
0011
0000
0000
0000
1010
0000
,
0000
0011
0000
1010
0000
0011
0000
1010
,
0000
0011
0001
0100
0010
1100
0000
0101
,
0000
1100
0000
0101
0000
1100
0000
0101
,
0000
0000
1000
0100
1000
0000
0010
0000
0100
0000
0101
0000
0000
0000
0110
0000
,
0000
1010
0000
0110
0000
0101
0000
0110
,
0000
1010
0100
0010
1001
0000
0000
0110
,
0000
0000
0000
0000
0000
0000
0000
0000
1001
0000
0000
1000
0010
0000
0000
0010
,
0100
0000
0000
0001
0100
0000
0000
0100
0010
0000
1000
0000
0011
0000
0000
0001
,
0100
0000
0000
0100
0010
0000
0000
1000
0010
0000
0000
0010
0100
0000
0001
0000
,
1100
0000
0000
1000
0010
0000
0000
0010
0100
0000
0000
0001
0100
0000
0000
0100
,
0010
0000
1000
0000
0010
0100
0010
0000
1000
0001
1000
0001
2000
0000
0000
0000
,
0000
0000
0000
3000
;
