#TITLE:Monkey;
#SUBTITLE:;
#ARTIST:モスキート・ミルク;
#TITLETRANSLIT:;
#SUBTITLETRANSLIT:;
#ARTISTTRANSLIT:Mosquito-Milk;
#CREDIT:DigiMindAxel;
#BANNER:Monkey.png;
#BACKGROUND:Monkey-bg.png;
#LYRICSPATH:Monkey.lrc;
#CDTITLE:DMAxel original simfile.png;
#MUSIC:Monkey.mp3;
#OFFSET:-4.100;
#SAMPLESTART:25.240;
#SAMPLELENGTH:12.000;
#SELECTABLE:YES;
#BPMS:0.000=135.890;
#STOPS:;
#BGCHANGES:0.000=Monkey.avi=1.000=1=1=0,
99999=-nosongbg-=1.000=0=0=0 // don't automatically add -songbackground-
;

//---------------dance-single - ----------------
#NOTES:
     dance-single:
     :
     Easy:
     3:
     0.183,0.267,0.100,0.057,0.000:
1000
0000
0000
0000
,
1000
0000
0000
0000
,
0001
0000
0000
0000
,
0001
0000
0000
0000
,
1001
0000
0000
0000
,
1000
0000
0000
0000
,
0001
0000
0000
0000
,
0100
0000
0000
0000
,
0110
0000
0000
0000
,
0010
0000
0000
0000
,
0100
0000
0000
0000
,
0001
0000
0000
0000
,
1001
0000
1000
0000
,
0001
0000
0100
0000
,
0010
0000
1000
0000
,
0100
0000
0010
0000
,
0001
0000
1000
0000
,
0001
0000
0010
0000
,
0100
0000
0010
0000
,
0100
0000
1000
0000
,
0001
0000
0001
0000
,
0000
2002
0000
0000
3003
0000
0000
0000
,
1000
1000
0001
0001
,
1000
1000
0010
0100
,
0001
0010
0100
1000
,
0100
0010
0001
1001
,
0001
0001
1000
1000
,
0001
0001
1000
0010
,
0100
0001
0010
0100
,
1000
0001
1000
1001
,
0001
0010
0100
1000
,
0100
0010
0001
0100
,
0010
1000
0010
0100
,
0001
0010
0100
2002
,
3003
0000
0000
0000
;

//---------------dance-single - ----------------
#NOTES:
     dance-single:
     :
     Hard:
     7:
     0.538,0.461,0.128,0.242,0.128:
1000
0100
0001
0100
0000
1000
0010
0100
,
0000
0010
0100
0001
0010
0100
1000
0000
,
0001
0010
1000
0010
0000
0001
0010
0100
,
0000
0010
0100
1000
0001
0100
0010
0000
,
1000
0001
0001
0010
1000
0010
0001
1000
,
0000
0001
0001
0100
1000
0100
0001
1000
,
0000
0010
0100
0001
0010
0100
1000
0001
,
0200
0310
0110
0000
,
0001
1000
1000
0100
0001
0100
1000
0001
,
0000
0010
0100
1000
0010
0001
0010
1000
,
0000
0001
0001
0010
1000
0010
0001
1000
,
0020
0000
0130
0000
0010
0100
0110
0000
,
1000
0010
0200
0000
0302
0000
1003
0001
,
0010
0100
0010
0001
1000
0010
0200
0000
,
0310
0000
1000
0100
0001
0100
1000
0001
,
0100
0000
0100
0000
0010
0000
1000
0020
0000
0000
1030
0000
0001
0000
0001
0000
,
1000
0100
0020
0000
0032
0000
0203
0000
,
0301
1000
0100
0010
0100
1000
0002
0000
,
1003
0000
0010
0000
0010
0000
1000
0002
0000
0000
0013
0000
0100
0000
1000
0000
,
0001
0000
0100
0000
0100
0000
0001
2000
0000
0000
3100
0000
0010
0000
0001
0000
,
1000
0100
0001
0100
1000
0001
0010
1000
,
0010
0000
0001
0000
0000
1001
0000
0000
1001
0000
0000
0000
0000
0000
0000
0000
,
1000
0000
0100
0000
1000
0000
0001
0100
0000
0000
0010
0000
1000
0000
0100
0000
,
0010
0000
0001
0000
0100
0000
0010
1000
0000
1000
0001
0000
0200
0000
0000
0000
,
0310
0100
0010
1000
0100
0001
0100
1000
,
0010
0100
0010
1000
1001
0000
1001
0000
,
0001
0000
1000
0000
0100
0000
1000
0010
0000
0000
0100
0000
0001
0000
0010
0000
,
0100
0000
1000
0000
0010
0000
0100
0001
0000
0001
1000
0000
0020
0000
0000
0000
,
0130
0010
0100
0001
0010
1000
0010
0001
,
0100
0010
0100
0001
1001
0000
0110
0000
,
1000
0000
0001
0000
0100
0000
0001
1000
0000
0000
0010
0000
0100
0000
0010
1000
,
0000
0000
0001
0000
0010
0000
0001
1000
0000
1000
0010
0000
0200
0000
0000
0000
,
0301
0000
1000
0000
0100
0000
1000
0001
0000
0000
0100
0000
0010
0000
0100
0001
,
0000
0000
1000
0000
0010
0000
1000
0001
0000
0001
0100
0000
0220
0000
0000
0000
,
0330
0000
0000
0000
;

//---------------dance-single - ----------------
#NOTES:
     dance-single:
     :
     Challenge:
     8:
     0.597,0.509,0.471,0.057,0.421: // measure 1
0001
0100
0001
1000
0000
1000
0100
0001
,  // measure 2
0000
0001
0100
1000
0100
0010
0110
0000
,  // measure 3
1000
0010
1000
0001
0000
0001
0010
1000
,  // measure 4
0000
1000
0010
0001
0010
0100
0110
0000
,  // measure 5
1001
0000
0000
0000
0100
0000
0000
0100
0000
0000
0101
0000
0000
0110
0000
0000
,  // measure 6
1001
0000
0000
0000
0010
0000
0000
0010
0000
0000
0110
0000
0000
1010
0000
0000
,  // measure 7
1001
0000
0000
0000
0001
0000
0000
0001
0000
0000
1100
0000
0000
0101
0000
0000
,  // measure 8
1001
0000
0000
0000
1000
0000
0000
1000
0000
0000
0101
0000
0000
1100
0000
0000
,  // measure 9
1001
0000
0000
0000
0001
0000
0000
1000
0000
0000
0110
0000
0000
0110
0000
0000
,  // measure 10
1001
0000
0000
0000
1000
0000
0000
0001
0000
0000
0110
0000
0000
0110
0000
0000
,  // measure 11
1001
0000
0000
0000
0010
0000
0000
0100
0000
0000
1001
0000
0000
1001
0000
0000
,  // measure 12
1000
0100
1000
0001
0000
0000
0010
0000
0100
0000
1000
0000
0001
0000
0000
0000
,  // measure 13
1000
0000
0001
0000
0001
0000
0100
0010
0000
0000
0100
0000
0001
0000
1000
0100
,  // measure 14
1000
0000
0001
0000
0001
0000
0010
0100
0000
0000
0010
0000
0001
0000
0100
0010
,  // measure 15
0100
0000
0001
0000
0001
0000
0010
0100
0000
0000
1000
0000
0100
0000
0010
0100
,  // measure 16
0010
0000
0001
0000
0001
0000
0100
0010
0000
0010
0100
0000
0001
0000
0100
0000
,  // measure 17
0001
0000
1000
0000
1000
0000
0100
0010
0000
0000
0100
0000
1000
0000
0001
0100
,  // measure 18
0001
0000
1000
0000
1000
0000
0010
0100
0000
0000
0001
0000
1000
0000
0100
0010
,  // measure 19
0100
0000
1000
0000
0010
0000
0100
0010
0000
0010
0100
0000
0001
0000
1000
0001
,  // measure 20
1000
0000
0001
0000
0100
0000
0010
0100
0000
0100
0010
0000
1000
0000
0001
1000
,  // measure 21
0001
0000
0010
0000
0100
0000
1000
0001
0000
0001
1000
0000
0010
0000
0100
0010
,  // measure 22
0100
0000
1001
0000
0000
1001
0000
0000
2002
0000
0000
0000
3003
0000
0000
0000
,  // measure 23
1000
0000
0010
0000
0100
0000
0001
1000
0000
1000
0001
0000
0010
0000
0100
0000
,  // measure 24
0010
0000
0001
0000
1000
0000
0010
0100
0000
0100
0010
0000
1000
0000
0100
0000
,  // measure 25
0001
0000
0100
0000
1000
0000
0001
0010
0000
0010
0001
0000
1000
0000
0010
0100
,  // measure 26
0010
1000
0001
0100
0101
0000
1001
0000
,  // measure 27
0001
0000
0100
0000
0010
0000
1000
0001
0000
0001
1000
0000
0100
0000
0010
0000
,  // measure 28
0100
0000
1000
0000
0001
0000
0010
0100
0000
0100
0010
0000
0001
0000
1000
0000
,  // measure 29
0001
0000
0010
0000
0100
0000
1000
0010
0000
0010
0100
0000
0001
0000
1000
0000
,  // measure 30
0001
0010
0100
1000
1100
0000
0110
0000
,  // measure 31
1001
0000
0010
0000
0100
0000
1000
0001
0000
0000
0100
0000
0010
0000
1000
0001
,  // measure 32
0000
0000
0010
0000
0100
0000
1000
0001
0000
0001
0100
0000
0110
0000
0000
0000
,  // measure 33
1000
0000
0010
0000
0100
0000
0001
1000
0000
0000
0100
0000
0010
0000
0001
1000
,  // measure 34
0000
0000
0010
0000
0100
0000
0001
1000
0000
1000
0010
0000
0220
0000
0000
0000
,  // measure 35
0330
0000
0000
0000
;

//---------------dance-single - ----------------
#NOTES:
     dance-single:
     :
     Medium:
     5:
     0.355,0.364,0.228,0.029,0.057:
1001
0100
0010
0001
,
1000
0100
0010
0001
,
0100
0010
0100
0001
,
1000
0010
0100
0010
,
1001
0000
0000
0000
0000
0000
0000
0000
0000
0000
1000
0000
0000
1000
0000
0000
,
1001
0000
0000
0000
0000
0000
0000
0000
0000
0000
0001
0000
0000
0001
0000
0000
,
1001
0000
0000
0000
0000
0000
0000
0000
0000
0000
0100
0000
0000
0100
0000
0000
,
0110
0000
0000
0000
0000
0000
0000
0000
0000
0000
0010
0000
0000
0010
0000
0000
,
0110
0000
0000
0000
0000
0000
0000
0000
0000
0000
1000
0000
0000
1000
0000
0000
,
1001
0000
0000
0000
0000
0000
0000
0000
0000
0000
0001
0000
0000
0001
0000
0000
,
1001
0000
0000
0000
0000
0000
0000
0000
0000
0000
0010
0000
0000
0010
0000
0000
,
0110
0000
0000
0000
0100
0010
0100
0000
,
0001
1000
0001
0000
0010
0000
0100
0000
,
1000
0000
0010
1000
0010
0000
0100
0000
,
0001
0100
0001
0000
1000
0000
0100
0000
,
0010
0001
0010
0000
0100
1000
0100
0000
,
0010
0000
0100
0000
0010
0001
0100
0000
,
0010
0000
1000
0000
0010
0100
0010
0000
,
1000
0000
0001
0000
0010
0001
0010
0000
,
0100
0000
1000
0000
0010
0100
0010
0000
,
1000
0000
0001
0000
0100
0010
0100
0000
,
0000
0000
0001
0000
0000
1000
0000
0000
1001
0000
0000
0000
0000
0000
0000
0000
,
1000
0100
1000
0000
0100
0010
0100
0000
,
0010
0001
0010
0000
0100
1000
0100
0000
,
1000
0100
0010
0001
,
0100
0001
0010
0000
1100
0000
1100
0000
,
0001
0010
0001
0000
0010
0100
0010
0000
,
0100
1000
0100
0000
0010
0001
0010
0000
,
0001
0010
0100
1000
,
0010
0100
0010
0000
0110
0000
0110
0000
,
0100
0001
1000
0100
0000
1000
0100
1000
,
0000
0010
0100
0010
0000
1000
1001
0000
,
0010
1000
0001
0010
0000
0001
0010
0001
,
0000
0100
0010
0100
0000
0001
2002
0000
,
3003
0000
0000
0000
;

//---------------dance-single - ----------------
#NOTES:
     dance-single:
     :
     Beginner:
     1:
     0.079,0.096,0.057,0.000,0.000:
1000
0000
0000
0000
,
0000
0000
0000
0000
,
1000
0000
0000
0000
,
0000
0000
0000
0000
,
1001
0000
0000
0000
,
0001
0000
0000
0000
,
1000
0000
0000
0000
,
0001
0000
0000
0000
,
1000
0000
0000
0000
,
0010
0000
0000
0000
,
0100
0000
0000
0000
,
0001
0000
0000
0000
,
1001
0000
0000
0000
,
0001
0000
0000
0000
,
0010
0000
0000
0000
,
0100
0000
0000
0000
,
1000
0000
0000
0000
,
0001
0000
0000
0000
,
1000
0000
0000
0000
,
1000
0000
0000
0000
,
0001
0000
0000
0000
,
0000
0000
1001
0000
,
0001
0000
0000
0000
,
0010
0000
0000
0000
,
0100
0000
0000
0000
,
1000
0000
0001
0000
,
1000
0000
0000
0000
,
0010
0000
0000
0000
,
0100
0000
0000
0000
,
0001
0000
1000
0000
,
0001
0000
0000
0000
,
0001
0000
0000
0000
,
1000
0000
0000
0000
,
1000
0000
0000
1001
;
