#TITLE:MR.C.C;
#SUBTITLE:;
#ARTIST:N.R.B.;
#TITLETRANSLIT:;
#SUBTITLETRANSLIT:;
#ARTISTTRANSLIT:;
#CREDIT:DigiMindAxel;
#BANNER:MR.C.C.png;
#BACKGROUND:MR.C.C-bg.png;
#LYRICSPATH:;
#CDTITLE:KEYBOARDMANIA.png;
#MUSIC:MR.C.C.mp3;
#OFFSET:-5.560;
#SAMPLESTART:12.740;
#SAMPLELENGTH:12.000;
#SELECTABLE:YES;
#BPMS:0.000=100.000;
#STOPS:;
#BGCHANGES:-8.000=MR.C.C.AVI=1.000=1=1=0,
99999=-nosongbg-=1.000=0=0=0 // don't automatically add -songbackground-
;

//---------------dance-single - ----------------
#NOTES:
     dance-single:
     :
     Easy:
     2:
     0.186,0.192,0.064,0.183,0.000: // measure 1
1000
0000
1000
0000
,  // measure 2
0001
0000
0001
0000
,  // measure 3
2000
0000
3002
0000
,  // measure 4
1003
0000
0100
0000
,  // measure 5
0010
0000
0001
0000
,  // measure 6
2000
0000
3002
0000
,  // measure 7
2003
0000
3002
0000
,  // measure 8
1003
0100
1000
0100
,  // measure 9
0001
0100
0001
0100
,  // measure 10
2000
0000
3000
0000
,  // measure 11
0002
0000
0003
0000
,  // measure 12
1000
0001
1000
0001
,  // measure 13
0100
0001
0100
0001
,  // measure 14
2000
0000
3010
0000
,  // measure 15
0010
0100
0010
0000
,  // measure 16
1000
0001
2000
0000
,  // measure 17
3100
0010
0001
0000
,  // measure 18
1000
0001
2000
0000
,  // measure 19
3100
0010
0001
0000
,  // measure 20
2000
0000
3002
0000
,  // measure 21
2003
0000
3002
0000
,  // measure 22
1003
0100
1000
0100
,  // measure 23
0001
0100
0001
0100
,  // measure 24
1000
0100
0010
0001
,  // measure 25
2000
0000
0000
0000
,  // measure 26
3002
0000
0000
0000
,  // measure 27
1003
0000
0000
0000
,  // measure 28
1001
0000
0000
0000
,  // measure 29
0010
0100
0010
0100
,  // measure 30
0001
0100
0001
0100
,  // measure 31
1000
0100
0001
0010
,  // measure 32
0100
0100
0110
0000
,  // measure 33
1000
1000
1001
0000
,  // measure 34
0010
0010
0110
0000
,  // measure 35
0001
0010
0100
1000
,  // measure 36
0001
0001
1001
0110
;

//---------------dance-single - ----------------
#NOTES:
     dance-single:
     :
     Hard:
     8:
     0.542,0.480,0.258,0.140,0.634: // measure 1
1000
1000
0001
0001
0100
1000
0100
0001
,  // measure 2
0100
0100
0010
0010
1000
0100
0001
0100
,  // measure 3
2200
0000
0000
3300
0022
0000
0000
0033
,  // measure 4
1000
0100
1000
0000
0001
0010
0001
0000
1000
0000
0100
0000
0001
0000
0100
0000
,  // measure 5
1000
0010
1000
0000
0001
0100
0001
0000
1000
0000
0100
0000
0001
0000
0100
0000
,  // measure 6
2200
0000
0000
3300
0022
0000
0000
0033
,  // measure 7
2010
0000
0010
3000
0102
0000
0100
0003
,  // measure 8
1000
0000
0100
0000
0001
0100
1000
0000
0010
0100
0010
0100
0000
0001
1000
0000
,  // measure 9
0001
0000
0100
0000
1000
0100
0001
0000
0100
0010
0100
0010
0000
1000
0001
0000
,  // measure 10
1000
0100
0010
0001
0010
0000
0001
0010
0000
0001
0000
1000
0000
0010
1000
0000
,  // measure 11
0001
0010
0100
1000
0100
0000
1000
0100
0000
1000
0000
0001
0000
0100
0001
0000
,  // measure 12
0100
0010
0100
0000
0001
1000
0001
0000
0010
0000
1000
0000
0010
0001
0010
0000
,  // measure 13
0001
1000
0001
0000
0100
0010
0100
0000
0001
0000
0100
0000
1000
0100
0001
0000
,  // measure 14
0100
0010
0100
0010
0100
0000
0001
0010
0100
1000
0000
1001
0000
1001
0000
0000
,  // measure 15
0100
0000
0100
0000
0010
2000
0000
0000
0001
0000
0000
3001
0000
1001
0000
0000
,  // measure 16
1000
0000
0100
0000
0010
0000
0001
0000
1000
0100
0000
0101
0000
1001
0000
0000
,  // measure 17
0001
1000
0001
1000
0001
1000
0001
0000
1000
0100
0000
1100
0000
1001
0000
0000
,  // measure 18
0001
0000
0010
0000
0100
0000
1000
0000
0001
0100
0000
1100
0000
1001
0000
0000
,  // measure 19
1000
0001
0000
0001
0000
0100
0010
0100
0001
0000
1000
0000
1001
0000
0000
0000
,  // measure 20
0001
0000
0010
0001
0000
0010
0000
0000
0001
0000
0010
0001
0000
0001
0000
0000
,  // measure 21
1000
0000
0100
1000
0000
0100
0000
0000
1000
0000
0100
1000
0000
0100
1000
0000
,  // measure 22
0001
0010
0001
0010
0100
0000
0100
0000
1000
0000
0100
0000
0001
0000
0100
0000
,  // measure 23
1000
0100
1000
0100
0010
0000
0010
0000
0001
0000
0100
0000
1000
0000
0100
0000
,  // measure 24
0001
0100
0001
0100
0010
0000
0010
0000
1000
0000
0001
0000
1001
0000
0000
0000
,  // measure 25
0001
0010
0100
1000
0010
0000
1000
0010
0000
0010
0000
0000
0000
0000
0000
0000
,  // measure 26
1000
0100
0010
0001
0100
0000
0001
0100
0000
0100
0000
0000
0000
0000
0000
0001
,  // measure 27
0000
0001
0100
0010
0000
0100
0010
0100
0000
0010
1000
0100
0000
1100
0000
0000
,  // measure 28
0000
1000
0010
0100
0000
0010
0100
0010
0000
0100
0001
0010
0000
0011
0000
0000
,  // measure 29
0000
1000
0001
0000
0001
1000
0000
0010
0000
0010
0100
0000
0001
1000
0001
0000
,  // measure 30
0000
0001
1000
0000
1000
0001
0000
0100
0000
0100
0010
0000
1000
0001
1000
0000
,  // measure 31
0001
0010
0100
1000
0100
1000
0100
0000
1000
0100
0010
0001
0010
0001
0010
0000
,  // measure 32
0100
1000
0100
0000
0001
0000
0001
0000
0100
0000
1000
0001
0000
1001
0000
0000
,  // measure 33
0100
0001
0100
0000
1000
0000
1000
0000
0100
0000
0001
1000
0000
1001
0000
0000
,  // measure 34
0100
1000
0100
0000
0001
0000
0001
0000
0100
0000
1000
0001
0000
1001
0000
0000
,  // measure 35
2200
0000
0000
0000
0000
0000
0000
3300
,  // measure 36
0010
0000
0001
0000
1000
0010
0000
0000
0100
0000
0100
0000
1001
0000
0000
0000
;

//---------------dance-single - ----------------
#NOTES:
     dance-single:
     :
     Medium:
     6:
     0.361,0.327,0.064,0.107,0.091: // measure 1
1000
1000
0100
0100
0010
0010
0001
0001
,  // measure 2
1000
1000
0100
0100
0010
0010
0001
0001
,  // measure 3
2000
0000
3002
0000
,  // measure 4
1003
1000
0010
0010
0100
0100
0001
0001
,  // measure 5
1000
1000
0010
0010
0100
0100
0001
0001
,  // measure 6
2000
0000
3002
0000
,  // measure 7
2003
0001
3002
1000
,  // measure 8
1003
1000
0100
0100
0001
0001
0100
0100
,  // measure 9
1000
1000
0010
0010
0001
0001
0010
0010
,  // measure 10
2000
0000
0000
3001
0000
0000
0000
0000
,  // measure 11
0002
0000
0000
1003
0000
0000
0001
1000
,  // measure 12
0001
0001
0100
0100
1000
1000
0100
0100
,  // measure 13
0001
0001
0010
0010
1000
1000
0010
0010
,  // measure 14
0001
0010
0100
1000
0001
0010
0001
0000
,  // measure 15
1000
0000
0100
0000
0001
0000
0000
0000
1001
0000
0000
0001
0000
0001
0000
0000
,  // measure 16
1000
0000
0100
0000
0010
0000
0001
0000
0100
0000
0000
0101
0000
0000
0000
0000
,  // measure 17
0001
0000
0010
0000
0100
0000
1000
0000
0010
0000
0000
1010
0000
0000
0000
0000
,  // measure 18
0001
0000
0100
0000
0010
0000
1000
0000
0100
0000
0000
1100
0000
0000
0000
0000
,  // measure 19
1000
0010
0100
0001
0010
0000
1001
0000
,  // measure 20
0001
0001
0001
0001
,  // measure 21
1000
1000
1000
1000
,  // measure 22
0001
0001
0010
0100
1000
0100
0001
0100
,  // measure 23
1000
1000
0010
0100
0001
0100
1000
0100
,  // measure 24
0001
0001
0010
0100
1000
0100
0010
0000
,  // measure 25
0002
1000
0000
1003
,  // measure 26
2000
0000
0000
0000
0001
0000
0000
0000
0000
0000
0000
0000
3001
0000
0000
0010
,  // measure 27
0000
0000
0000
0001
0000
0000
0000
0010
0000
0000
0000
0100
0000
0000
0000
1000
,  // measure 28
0000
0000
0000
0010
0000
0000
0000
0100
0000
0000
0000
0001
0000
0000
0000
0000
,  // measure 29
1000
1000
0100
0100
0001
0001
0100
1000
,  // measure 30
0100
0001
0001
0010
0010
1000
1000
0010
,  // measure 31
0001
0010
0100
1000
0001
0010
0100
1000
,  // measure 32
0001
0000
0001
0000
1000
0000
1000
0000
0010
0000
0100
0010
0000
0000
0000
0000
,  // measure 33
1000
0000
1000
0000
0001
0000
0001
0000
0100
0000
0010
0100
0000
0000
0000
0000
,  // measure 34
0001
0000
0001
0000
1000
0000
1000
0000
0010
0000
0100
0010
0000
0000
0000
0000
,  // measure 35
1000
0100
0010
0001
0010
0100
1000
0100
,  // measure 36
0001
0000
0100
0000
1000
0010
0000
0000
0100
0000
0000
0000
0110
0000
0000
0000
;

//---------------dance-single - ----------------
#NOTES:
     dance-single:
     :
     Challenge:
     9:
     0.675,0.595,0.290,0.043,1.000: // measure 1
0001
0010
0001
0000
0010
0001
0000
1000
0000
1000
0001
0000
0100
0000
0010
0000
,  // measure 2
1000
0100
1000
0000
0100
1000
0000
0001
0000
0001
1000
0000
0010
0000
0100
0000
,  // measure 3
0001
0010
0100
1000
0001
0000
0000
0000
1000
0100
0010
0001
1000
0000
0000
0000
,  // measure 4
0001
0100
0001
0000
1000
0100
0000
1000
0000
0010
0100
0001
0010
0001
0010
0000
,  // measure 5
0001
0100
0001
0000
1000
0100
0000
1000
0000
0010
0100
0001
0010
0001
0010
0000
,  // measure 6
0001
0010
0100
1000
0001
0000
0000
0000
1000
0100
0010
0001
1000
0000
0000
0000
,  // measure 7
0001
0010
0100
1000
0100
1000
0100
0000
1000
0100
0010
0001
0010
0001
0010
0001
,  // measure 8
0000
0100
0010
0100
0010
0100
0001
0010
0100
1000
0100
0010
0000
0001
1000
0001
,  // measure 9
0000
0100
0010
0100
0010
0100
0001
0010
0100
1000
0100
0010
0000
0001
1000
0001
,  // measure 10
0010
0100
1000
0010
0100
0000
0001
0200
0000
0001
0000
0001
0000
0301
1000
0100
,  // measure 11
0010
0001
0100
0010
0100
0000
0001
0200
0000
0001
0000
0001
0000
0301
1000
0100
,  // measure 12
0000
1000
0001
0000
0001
0100
0000
0010
0000
0010
1000
0100
0010
0001
0100
0010
,  // measure 13
0000
1000
0001
0000
0001
0100
0000
0010
0000
0010
1000
0100
0010
0001
0100
0010
,  // measure 14
0000
1000
0100
0001
0100
1000
0100
0010
0001
1000
0100
1000
0000
1000
0000
0001
,  // measure 15
0100
0000
0100
0000
0010
1000
0000
0000
0001
0000
0001
1000
0000
1001
0000
0000
,  // measure 16
0001
0010
0001
0010
0100
1000
0100
1000
0100
0001
0000
1100
0000
1001
0000
0001
,  // measure 17
1000
0100
1000
0100
0010
0001
0010
0001
0100
1000
0100
0001
0000
1001
0000
0001
,  // measure 18
1000
0010
1000
0010
0100
0001
0100
0001
0010
1000
0000
0011
0000
1001
0000
1000
,  // measure 19
0001
0010
0000
0001
0000
0001
0010
0100
1000
0000
0001
0000
1001
0000
0000
0100
,  // measure 20
1000
0000
0100
1000
0000
0001
0000
0100
0001
0000
0100
0001
0000
1000
0000
0010
,  // measure 21
1000
0000
0010
1000
0000
0001
0000
0010
0001
0000
0010
0001
0000
0100
0010
0000
,  // measure 22
1000
0100
1000
0100
0010
0000
0110
0000
0001
0000
1001
0000
0001
0010
0100
1000
,  // measure 23
0001
0010
0001
0010
0100
0000
0110
0000
1000
0000
1001
0000
0001
0000
0000
0000
,  // measure 24
1000
0010
1000
0010
0100
0000
0110
0000
0001
0000
1001
0000
1100
0000
0000
0000
,  // measure 25
1000
0100
0010
0001
0100
0000
0010
1000
0000
2000
0000
0000
0001
0000
0001
3001
,  // measure 26
0000
0010
0100
1000
0010
0100
0010
1000
0000
2000
0000
0000
0001
0000
0001
3001
,  // measure 27
0000
1000
0100
0001
0000
0100
1000
0001
0000
0010
0100
1000
0000
1001
0000
0000
,  // measure 28
1000
0001
0100
1000
0000
0100
0001
1000
0000
0100
0010
0001
0000
1001
0000
0000
,  // measure 29
0001
0100
0001
0000
1000
0100
0000
1000
0000
1000
0010
0100
0001
0010
0100
0000
,  // measure 30
1000
0010
1000
0000
0001
0010
0000
0001
0000
0001
0100
0010
1000
0100
0010
0000
,  // measure 31
0001
0100
0001
0100
0010
1000
0010
1000
0001
0010
0001
0010
0100
1000
0100
1000
,  // measure 32
0001
0010
0100
0000
1010
0000
1010
0000
0010
0000
0100
0001
0000
1001
0000
0000
,  // measure 33
1000
0100
0010
0000
0101
0000
0101
0000
0100
0000
0010
1000
0000
1001
0000
0000
,  // measure 34
0001
0010
0100
0000
1010
0000
1010
0000
0100
0000
0100
0001
0000
1001
0000
0000
,  // measure 35
1000
0100
1000
0100
0010
0001
0010
0001
1000
0010
1000
0010
0100
0001
0100
0001
,  // measure 36
1000
0000
0010
0000
0100
0010
0000
0000
0100
0000
0110
0000
1001
0000
0000
0000
;

//---------------dance-single - ----------------
#NOTES:
     dance-single:
     :
     Beginner:
     1:
     0.068,0.096,0.054,0.000,0.000: // measure 1
1000
0000
0000
0000
,  // measure 2
1000
0000
0000
0000
,  // measure 3
1001
0000
0000
0000
,  // measure 4
0001
0000
0000
0000
,  // measure 5
0001
0000
0000
0000
,  // measure 6
1001
0000
1000
0000
,  // measure 7
0001
0000
1000
0000
,  // measure 8
0001
0000
0000
0000
,  // measure 9
1000
0000
0000
0000
,  // measure 10
0010
0000
0000
0000
,  // measure 11
0010
0000
0000
0000
,  // measure 12
1000
0000
0000
0000
,  // measure 13
0001
0000
0000
0000
,  // measure 14
1000
0000
0000
0000
,  // measure 15
1000
0000
0000
0000
,  // measure 16
0001
0000
0000
0000
,  // measure 17
1000
0000
0000
0000
,  // measure 18
0001
0000
0000
0000
,  // measure 19
0001
0000
0000
0000
,  // measure 20
0100
0000
0000
0000
,  // measure 21
0100
0000
0000
0000
,  // measure 22
0010
0000
0000
0000
,  // measure 23
0100
0000
0000
0000
,  // measure 24
0010
0000
0000
0000
,  // measure 25
1001
0000
0000
0000
,  // measure 26
1000
0000
0000
0000
,  // measure 27
1001
0000
0000
0000
,  // measure 28
0001
0000
0000
0000
,  // measure 29
1000
0000
0000
0000
,  // measure 30
0001
0000
0000
0000
,  // measure 31
1000
0000
0000
0000
,  // measure 32
1000
0000
0000
0000
,  // measure 33
0001
0000
0000
0000
,  // measure 34
0001
0000
0000
0000
,  // measure 35
1000
0000
0000
0000
,  // measure 36
0001
0000
0000
1001
;
