#TITLE:ムーンライト伝説;
#SUBTITLE:;
#ARTIST:新谷さなえ;
#TITLETRANSLIT:MOONLIGHT DENSETSU;
#SUBTITLETRANSLIT:;
#ARTISTTRANSLIT:SANAE SHINTANI;
#CREDIT:DigiMindAxel;
#BANNER:MOONLIGHT DENSETSU.png;
#BACKGROUND:MOONLIGHT DENSETSU-bg.png;
#LYRICSPATH:MOONLIGHT DENSETSU.lrc;
#CDTITLE:pop'n music.png;
#MUSIC:MOONLIGHT DENSETSU.mp3;
#OFFSET:-4.200;
#SAMPLESTART:17.217;
#SAMPLELENGTH:12.000;
#SELECTABLE:YES;
#BPMS:0.000=140.000,118.000=138.000,123.000=137.000,127.000=140.000;
#STOPS:;
#BGCHANGES:;

//---------------dance-single - ----------------
#NOTES:
     dance-single:
     :
     Easy:
     2:
     0.166,0.214,0.169,0.109,0.000:
1000
0000
0001
0000
,
1000
0000
0000
0000
,
0010
0000
0100
0000
,
0010
0000
0000
0000
,
2000
0000
0001
0000
,
3001
0000
0000
0000
,
0001
0000
0010
0000
0100
0000
0000
1000
,
0000
1001
0000
0000
,
0001
0000
1000
0000
,
0001
0000
0000
0000
,
1000
0000
0001
0000
,
1000
0000
0000
0000
,
0010
0000
0100
0000
,
0010
0000
0000
0000
,
0100
0000
0010
0000
,
0100
0000
0000
0000
,
1001
0000
1000
0000
,
0100
0100
0000
0000
,
1001
0000
0001
0000
,
0010
0010
0000
0000
,
1001
0000
1000
0000
,
0001
0001
0000
0000
,
1000
0000
0100
0000
0010
0000
0000
0001
,
0000
0000
0000
0000
,
2002
0000
0000
0000
,
3003
0000
0000
0000
,
0220
0000
0000
0000
,
0330
0000
0000
0000
,
2002
0000
0000
0000
,
3003
0000
1001
0000
,
1001
0000
0110
0000
,
0100
0010
0000
0000
,
1001
0000
1000
0000
,
0100
0100
0000
0000
,
1001
0000
0001
0000
,
0010
0010
0000
0000
,
1001
0000
1000
0000
,
0010
0010
0000
0000
,
1000
0000
0100
0000
0010
0000
0000
0001
,
0000
0000
0000
0000
,
0001
0000
0010
0000
0100
0000
0000
1000
,
0000
0000
0000
0010
,
0100
0000
0000
0000
,
0000
2002
0000
0000
,
0000
3003
0000
0000
;

//---------------dance-single - ----------------
#NOTES:
     dance-single:
     :
     Hard:
     7:
     0.465,0.428,0.423,0.085,0.006: // measure 1
1000
0010
0100
0001
0000
0100
0001
0000
,  // measure 2
1000
0000
1001
0000
0000
0100
0010
0100
,  // measure 3
0001
0010
0100
1000
0000
0100
0001
0100
,  // measure 4
1000
0000
1001
0000
0000
0010
0100
0010
,  // measure 5
1000
1000
1000
0000
0001
0001
0001
0000
,  // measure 6
1000
0000
1001
0000
0000
1000
0100
0010
,  // measure 7
0001
0000
0101
0000
1100
0000
0000
1100
,  // measure 8
0000
1001
0000
0000
,  // measure 9
1000
0010
1000
0010
0100
0001
0100
0001
,  // measure 10
1000
1001
0101
0001
,  // measure 11
0001
0100
0001
0100
0010
1000
0010
1000
,  // measure 12
0001
1001
1100
1000
,  // measure 13
1000
0100
1000
0100
0010
0001
0010
0001
,  // measure 14
1000
1001
0011
0001
,  // measure 15
0001
0010
0001
0010
0100
1000
0100
1000
,  // measure 16
0000
0001
0010
0100
1000
0001
0100
0010
,  // measure 17
1000
0100
1000
0010
0100
0001
0010
0001
,  // measure 18
1000
1001
0011
0001
,  // measure 19
0001
0010
0001
0100
0010
1000
0100
1000
,  // measure 20
0001
1001
1100
1000
,  // measure 21
0001
0100
0001
0010
0100
1000
0010
1000
,  // measure 22
0001
1001
0101
0001
,  // measure 23
1000
0000
1100
0000
0101
0000
0000
0102
,  // measure 24
0000
1000
1000
1003
,  // measure 25
0020
0100
0000
0100
,  // measure 26
0130
0001
0010
0100
,  // measure 27
1000
0001
1000
0010
,  // measure 28
0100
0001
1000
0001
,  // measure 29
0200
0010
0000
0010
,  // measure 30
0310
0000
0000
0000
1001
0000
0000
0000
1000
0000
0000
1000
0000
0000
1000
0000
,  // measure 31
0001
0010
0001
0000
0100
0010
0000
1000
,  // measure 32
0100
1000
0010
0100
0000
0000
0001
0000
,  // measure 33
0001
0100
0010
1000
0100
1000
0001
0010
,  // measure 34
0001
1001
1100
1000
,  // measure 35
1000
0010
0100
0001
0010
0001
1000
0100
,  // measure 36
1000
1001
0011
0001
,  // measure 37
0001
0010
0100
1000
0010
0100
0010
1000
,  // measure 38
0100
0000
1001
0000
0000
0001
0100
1000
,  // measure 39
0100
0000
0101
0000
1100
0000
0000
2100
,  // measure 40
0000
0001
0001
3001
,  // measure 41
0100
0000
0110
0000
0101
0000
0000
1002
,  // measure 42
0000
0000
1000
0000
1003
0010
0100
0001
,  // measure 43
1000
0000
1000
0000
1000
0001
0010
0100
,  // measure 44
0000
2002
0000
0000
,  // measure 45
0000
3003
0000
0000
;

//---------------dance-single - ----------------
#NOTES:
     dance-single:
     :
     Challenge:
     8:
     0.579,0.508,0.242,0.133,0.163:
0001
0000
0010
0000
0001
0000
1000
0010
1000
0000
0010
0000
0100
0000
0000
0000
,
1001
0000
1001
0000
0000
1000
0100
0010
,
0001
0000
0010
0000
0001
0000
1000
0010
1000
0000
0010
0000
0100
0000
0001
0000
,
1000
0000
1001
0000
0000
0001
0010
0100
,
1000
0100
0001
0100
1000
0010
0001
0010
,
1000
0000
0000
0000
1001
0000
0000
0000
0000
0000
0000
0001
1000
0000
1000
0000
,
0001
0010
0001
1000
0010
1010
0000
0110
,
0000
2001
0001
3001
,
0001
0100
0001
0100
0001
1000
0100
1000
,
0010
0000
0000
0100
0010
0000
1000
0001
2000
0000
0000
0000
3001
0000
0000
0000
,
1000
0010
1000
0010
1000
0001
0010
0001
,
0100
0000
0000
0010
0100
0000
0001
1000
0001
0000
0010
0000
0100
0000
1000
0000
,
0001
0010
0100
0010
0001
1000
0100
1000
,
0001
0000
0000
0100
0010
0000
1000
0001
2000
0000
0000
0000
3001
0000
0000
0000
,
1000
0100
0010
0100
1000
0001
0100
0001
,
1000
0001
0100
1000
0100
0001
0010
0100
,
1000
0000
0010
0000
1000
0000
0001
0010
0001
0000
0100
0000
0010
0000
0100
0000
,
0001
0000
0000
0100
0010
0000
1000
0001
2000
0000
0000
0000
3001
0000
0100
0000
,
0001
0000
0100
0000
0001
0000
1000
0100
1000
0000
0010
0000
0100
0000
0010
0000
,
1000
0000
0000
0010
0100
0000
0001
1000
0002
0000
0000
0000
1003
0000
0100
0000
,
1000
0000
0100
0000
1000
0000
0001
0100
0001
0000
0100
0000
0001
0000
0010
0000
,
0100
0000
1000
0000
0001
0000
0100
0010
0100
0000
0001
0000
0100
0000
1000
0000
,
0100
0000
0101
0000
1000
0100
0010
1001
,
0000
1000
1000
0001
0001
0010
0100
1000
,
0100
1100
0100
1001
,
0001
0000
0010
0100
1000
0010
0100
0000
,
0001
0010
0100
0000
1000
0100
0010
0001
,
2000
0001
0100
3001
,
0100
0101
0100
0101
,
1000
0000
0001
1000
0001
0000
0000
0000
0100
0000
0000
0100
0000
0000
0100
0000
,
0001
0100
1000
0100
0010
1000
0100
0001
,
0100
0010
0001
1000
0000
0000
1001
0000
,
0001
0000
0100
0000
0001
0000
1000
0100
1000
0000
0010
0000
0100
0000
0010
0000
,
1000
0000
0000
0010
0100
0000
0001
0010
0002
0000
0000
0000
1003
0000
0100
0000
,
1000
0000
0100
0000
1000
0000
0001
0100
0001
0000
0100
0000
0010
0000
0100
0000
,
0001
0000
0000
0100
0010
0000
1000
0100
2000
0000
0000
0000
3001
0000
0010
0000
,
0100
0010
0001
1000
0100
1000
0010
0100
,
0001
0000
0010
0000
0100
0000
1000
0001
2000
0000
0000
0000
3001
0000
0000
0000
,
0101
0000
1100
0000
0001
0010
0000
1001
,
0000
0001
0100
0001
0100
1000
0100
0001
,
0100
0000
1100
0000
0001
0010
0000
1001
,
0000
0000
1000
0000
0100
0000
1000
0000
0001
0100
0001
0000
0010
0000
0100
0000
,
1000
0000
1000
0000
1000
0001
0010
0100
,
0000
2002
0000
0000
,
0000
3003
0000
0000
;

//---------------dance-single - ----------------
#NOTES:
     dance-single:
     :
     Beginner:
     1:
     0.045,0.078,0.036,0.000,0.000:
1000
0000
0000
0000
,
0000
0000
0000
0000
,
0001
0000
0000
0000
,
0000
0000
0000
0000
,
1000
0000
0000
0000
,
0000
0000
0000
0000
,
0010
0000
0000
0000
,
0000
0000
0000
0000
,
0100
0000
0000
0000
,
0000
0000
0000
0000
,
0001
0000
0000
0000
,
0000
0000
0000
0000
,
1000
0000
0000
0000
,
0000
0000
0000
0000
,
0001
0000
0000
0000
,
0000
0000
0000
0000
,
1001
0000
0000
0000
,
0000
0000
0000
0000
,
1000
0000
0000
0000
,
0000
0000
0000
0000
,
0001
0000
0000
0000
,
0000
0000
0000
0000
,
0100
0000
0000
0000
,
0000
0000
0000
0000
,
0001
0000
0000
0000
,
0000
0000
0000
0000
,
1000
0000
0000
0000
,
0000
0000
0000
0000
,
1000
0000
0000
0000
,
0000
0000
0001
0000
,
0000
0000
0000
0000
,
0000
0000
0000
0000
,
1001
0000
0000
0000
,
0000
0000
0000
0000
,
1000
0000
0000
0000
,
0000
0000
0000
0000
,
0001
0000
0000
0000
,
0000
0000
0000
0000
,
1000
0000
0000
0000
,
0000
0000
0000
0000
,
0010
0000
0000
0000
,
0000
0000
0000
0000
,
0100
0000
0000
0000
,
0000
1001
0000
0000
;

//---------------dance-single - ----------------
#NOTES:
     dance-single:
     :
     Medium:
     4:
     0.297,0.321,0.327,0.085,0.000:
0001
0000
1000
0100
0000
1000
0100
0000
,
1000
1001
0000
0000
,
1000
0000
0001
0010
0000
0001
0010
0000
,
0001
1001
0000
0000
,
0001
0100
1000
0100
,
0001
1001
0000
0000
,
1000
0000
1000
0000
0001
0010
0000
0001
,
0000
1001
0000
0000
,
1000
0001
1000
0001
,
1000
1000
1001
0000
,
0010
0100
0010
0100
,
0010
0110
0000
0000
,
0001
1000
0001
1000
,
0001
1001
0000
0000
,
0100
0010
0100
0010
,
0100
0001
0010
0100
,
1001
1000
0001
0100
,
0110
0110
0000
0000
,
1001
0001
1000
0100
,
0110
0110
0000
0000
,
1000
0100
0010
0001
,
1001
1001
0000
1000
,
0001
0000
0010
0000
0100
0000
0000
2100
,
0000
0001
0001
3001
,
0200
0000
0000
0301
,
1000
0001
0010
0000
,
0100
1000
0010
0100
,
0020
0000
0000
1030
,
0002
0000
0000
1003
,
0000
0000
2000
0000
,
0000
3001
0000
0000
0100
0000
0000
0001
,
1000
0001
1000
0001
0000
0000
0000
0000
,
1001
1000
0001
0100
,
0110
0110
0000
0000
,
1001
0001
1000
0100
,
0110
0110
0000
0000
,
1001
0100
0010
0001
,
0110
1001
0000
1100
,
0001
0000
0010
0000
0100
0010
0000
0001
,
0000
0000
0000
0001
,
1000
0000
0100
0000
0010
0100
0000
1000
,
0000
0000
0000
0000
0001
0000
0001
1000
,
0001
0000
0000
0000
0000
0100
0010
1000
,
0000
2002
0000
0000
,
0000
3003
0000
0000
;
