#TITLE:みずうみの記憶;
#SUBTITLE:;
#ARTIST:Dormir;
#TITLETRANSLIT:MIZUUMI NO KIOKU;
#SUBTITLETRANSLIT:;
#ARTISTTRANSLIT:;
#CREDIT:DigiMindAxel;
#BANNER:MIZUUMI NO KIOKU.png;
#BACKGROUND:MIZUUMI NO KIOKU-bg.png;
#LYRICSPATH:;
#CDTITLE:pop'n music.png;
#MUSIC:MIZUUMI NO KIOKU.mp3;
#OFFSET:-7.016;
#SAMPLESTART:56.887;
#SAMPLELENGTH:12.000;
#SELECTABLE:YES;
#BPMS:0.000=72.502,8.000=110.000,80.000=106.000,81.500=100.000,83.000=95.500,84.000=90.500,84.500=88.500,85.000=91.000,87.500=95.000,89.125=197.000,92.500=212.000,99.000=220.000,161.000=110.000,167.000=220.000,233.000=110.000,242.000=220.000,260.000=110.000,266.000=220.000;
#STOPS:;
#BGCHANGES:;

//---------------dance-single - ----------------
#NOTES:
     dance-single:
     :
     Easy:
     4:
     0.242,0.350,0.127,0.153,0.000: // measure 1
1000
0002
1003
0002
,  // measure 2
1003
0002
0013
0100
,  // measure 3
1000
0000
0000
0001
0000
0000
1000
0000
,  // measure 4
0000
0001
0000
0000
2000
0000
0000
0000
,  // measure 5
0000
3020
0000
0000
,  // measure 6
0230
0000
0000
0301
,  // measure 7
0000
1001
0000
0000
0001
0000
0000
1000
,  // measure 8
0000
0000
0001
0000
0000
1000
0000
0000
,  // measure 9
0001
0000
0000
0010
0000
0000
0100
0000
,  // measure 10
0000
1000
0000
0000
0100
0000
0000
0010
,  // measure 11
0000
0000
0001
0000
0000
1001
0000
0000
,  // measure 12
1000
0000
0000
0001
1000
0000
0001
0000
,  // measure 13
0000
1000
0000
0000
1001
0000
0000
1000
,  // measure 14
0001
0000
1000
0000
0000
0001
0000
0000
,  // measure 15
0010
0000
0000
0100
0000
0000
1000
0000
,  // measure 16
0000
0100
0000
0000
0010
0000
0000
0001
,  // measure 17
0000
0000
1001
0000
0000
1000
0000
0000
,  // measure 18
1001
0000
0000
0001
0000
0000
1001
0000
,  // measure 19
0000
1000
0000
0000
0010
0000
0000
0110
,  // measure 20
0000
0000
0100
0000
0000
0001
0000
0000
,  // measure 21
1000
0000
0000
0100
0000
0000
0010
0000
,  // measure 22
0000
0001
0000
0000
2002
0000
0000
0000
,  // measure 23
3003
1001
0000
0001
,  // measure 24
1000
0000
1000
0001
,  // measure 25
0000
0001
1000
0000
,  // measure 26
1000
0100
0000
1000
,  // measure 27
0001
0000
0001
0010
,  // measure 28
0000
0000
0000
0000
,  // measure 29
0000
0000
0001
1000
,  // measure 30
0001
0000
0000
1001
,  // measure 31
0000
0001
0100
0000
,  // measure 32
0001
1000
0000
1000
,  // measure 33
0010
0000
1000
0001
,  // measure 34
0000
0001
0010
0000
,  // measure 35
0001
1000
0000
1000
,  // measure 36
0010
0000
0100
0001
,  // measure 37
0000
0001
1000
0000
,  // measure 38
0001
0010
0000
0100
,  // measure 39
1000
0000
0001
0100
,  // measure 40
0000
0010
1000
0000
,  // measure 41
0001
0000
0002
0000
0000
2003
0000
0000
,  // measure 42
3002
0000
0000
2003
0000
0000
3010
0000
,  // measure 43
0100
0000
0001
1000
,  // measure 44
0000
1001
0000
0000
,  // measure 45
1001
0000
0000
1000
,  // measure 46
0001
0000
0000
0000
,  // measure 47
0000
0010
0000
0001
,  // measure 48
0010
0000
0100
1000
,  // measure 49
0000
1000
0001
0000
,  // measure 50
0001
0100
0000
0100
,  // measure 51
0010
0000
0010
1000
,  // measure 52
0000
0000
0001
0000
,  // measure 53
0000
1000
0000
0000
,  // measure 54
0000
0000
0000
1000
,  // measure 55
0000
0001
0100
0000
,  // measure 56
0100
0010
0000
0010
,  // measure 57
1000
0000
1000
0010
,  // measure 58
0000
0100
0001
0000
,  // measure 59
0001
0000
1000
0000
0000
0001
0000
0000
,  // measure 60
1000
0000
0000
0100
0000
0000
0001
0000
,  // measure 61
0000
0100
0000
0000
1000
0000
0000
0000
,  // measure 62
0000
1001
0000
0000
,  // measure 63
0100
0000
0000
2000
,  // measure 64
0000
0000
3001
0000
,  // measure 65
0000
2000
0000
0000
,  // measure 66
3200
0000
0000
0320
0000
0000
0032
0000
,  // measure 67
0000
2003
0000
0000
3001
0000
0100
0000
,  // measure 68
0001
1000
0100
0010
,  // measure 69
1001
0000
0000
1001
;

//---------------dance-single - ----------------
#NOTES:
     dance-single:
     :
     Medium:
     6:
     0.433,0.496,0.187,0.229,0.000: // measure 1
0001
0100
0020
0000
1030
0010
0200
0000
,  // measure 2
0301
0100
0020
0000
1030
0100
0010
0000
,  // measure 3
0001
1000
0000
1000
0001
0000
0001
0100
,  // measure 4
0010
1000
0000
0000
1000
0010
0000
0220
,  // measure 5
0000
0330
0001
0100
0000
0220
0000
0330
,  // measure 6
1000
0010
1000
0001
0010
0100
2000
0000
,  // measure 7
0000
3001
0000
0000
0001
1000
0000
1000
,  // measure 8
0001
0000
0001
0100
0010
1000
0000
0000
,  // measure 9
0001
0100
0000
0220
0000
0330
1000
0010
,  // measure 10
0000
0220
0000
0330
0001
1000
0001
1000
,  // measure 11
0001
0010
0200
0000
0000
1300
0000
0000
,  // measure 12
1001
0000
1000
0010
1000
0000
1100
0000
,  // measure 13
1000
0010
0100
0001
1001
0000
0001
0100
,  // measure 14
0001
0000
0011
0000
0001
0100
0010
1000
,  // measure 15
1001
0000
1000
0010
0100
0001
1001
0000
,  // measure 16
0001
0010
0100
1000
1001
0000
1000
0100
,  // measure 17
0010
0001
1000
1000
0001
0010
0100
0000
,  // measure 18
1000
0001
1000
0100
0010
0000
0001
0100
,  // measure 19
0001
0010
0100
0000
1000
0010
1000
0100
,  // measure 20
0010
0000
0001
0010
0100
1000
1000
0000
,  // measure 21
0001
0100
0001
1000
0010
1000
0001
0100
,  // measure 22
0001
0010
0100
0000
1000
0010
0100
0010
,  // measure 23
0100
0010
1001
0000
1000
0000
1000
0000
,  // measure 24
0010
0100
0001
1000
,  // measure 25
0001
0001
0100
0010
,  // measure 26
1000
0001
0000
0001
,  // measure 27
1000
0100
0010
0001
,  // measure 28
1000
0000
1000
0001
,  // measure 29
1000
0001
1000
0100
,  // measure 30
0010
0001
0100
0110
,  // measure 31
0000
0001
0001
0010
,  // measure 32
0100
1000
0000
1000
,  // measure 33
1000
0100
0010
0001
,  // measure 34
0000
0001
0100
0001
,  // measure 35
1000
0000
0010
0100
0010
0000
1000
0000
,  // measure 36
0001
0000
1000
0000
0001
0000
0100
0010
,  // measure 37
0100
0001
1000
0001
,  // measure 38
1000
0000
0010
0100
0010
0100
0010
0000
,  // measure 39
1000
0000
0001
0000
1000
0000
0010
0100
,  // measure 40
0010
0100
0010
0000
1000
0000
0100
0000
,  // measure 41
0010
0000
0002
0010
0000
0013
0100
1000
,  // measure 42
0200
1000
0000
1300
0100
0010
1001
0000
,  // measure 43
0100
0001
0100
0000
0001
0000
0001
0000
,  // measure 44
1000
0100
0010
0001
,  // measure 45
1001
0000
0000
1001
,  // measure 46
0001
0001
0010
0100
,  // measure 47
1000
0020
0000
1030
,  // measure 48
0100
0010
0001
0200
,  // measure 49
0000
0301
0010
0100
,  // measure 50
1000
0020
0000
1030
,  // measure 51
0100
0010
0001
0200
,  // measure 52
0000
0001
0000
0001
,  // measure 53
0000
0301
1000
0100
,  // measure 54
0010
0001
1000
1001
,  // measure 55
0000
0001
0100
0010
,  // measure 56
1000
1001
0000
1000
,  // measure 57
0010
0100
0001
1001
,  // measure 58
0000
0001
0010
0100
,  // measure 59
1000
0000
1002
0000
0000
2003
0000
0000
,  // measure 60
3002
0000
0000
0023
0000
0000
2030
0000
,  // measure 61
0000
3200
0000
0000
0301
0000
0010
0000
,  // measure 62
0100
1000
0100
0010
,  // measure 63
0001
0100
0010
2000
,  // measure 64
0000
0000
3100
0010
,  // measure 65
0001
0200
0000
0000
,  // measure 66
0301
0001
0000
1000
1000
0000
0001
0001
,  // measure 67
0000
1000
1000
0000
0010
0000
0100
0010
,  // measure 68
0100
0000
0001
0100
0001
0000
1000
0000
,  // measure 69
0110
0000
0000
1001
;

//---------------dance-single - ----------------
#NOTES:
     dance-single:
     :
     Hard:
     8:
     0.549,0.641,0.441,0.136,0.098: // measure 1
0001
0000
0000
0001
1000
0000
0001
1000
0001
0000
0000
0100
0010
0000
0100
0010
,  // measure 2
0100
0000
0000
0001
1000
0000
0001
1000
0001
0000
0100
0000
0110
0000
0000
0000
,  // measure 3
0001
0100
0001
1000
0001
0100
0001
0010
,  // measure 4
0100
0000
2000
0000
0000
0000
0000
0000
3001
0000
0100
0000
0000
0001
0200
0000
,  // measure 5
0000
0000
0310
0000
1000
0000
0010
0000
0000
1000
0020
0000
0000
0000
0130
0000
,  // measure 6
0001
0100
0001
0010
0100
0010
0002
0000
,  // measure 7
1000
1003
0000
0000
1000
0010
0100
0001
,  // measure 8
0100
0010
1000
0010
0100
0001
0000
0000
,  // measure 9
1000
0000
0010
0000
0000
1000
0020
0000
0000
0000
0130
0000
0001
0000
0100
0000
,  // measure 10
0000
0001
0200
0000
0000
0000
0301
0000
0010
0000
0100
0000
1000
0000
0100
0000
,  // measure 11
0010
0001
0200
0000
0010
0310
0000
0000
,  // measure 12
1000
0001
1000
0000
1000
0000
1010
0000
1010
0000
0100
0000
0001
0000
0010
0000
,  // measure 13
0100
1010
0100
0001
1002
0000
1000
1003
,  // measure 14
0010
0000
0010
0000
1000
0001
0000
0100
0001
0000
1000
0000
0100
0000
0010
0000
,  // measure 15
0001
1000
0000
0010
1000
0000
0001
0000
0010
0000
0100
0000
1000
0001
0000
1000
,  // measure 16
0100
0000
1000
0000
0100
0000
0010
0000
0001
1000
0000
0001
0010
0000
0001
0000
,  // measure 17
0010
0000
0100
0000
1000
0001
1000
0000
0001
0000
0011
0000
0101
0000
0000
0000
,  // measure 18
0001
1000
0001
0000
1000
0000
1100
0000
1010
0000
0000
0000
1000
0001
1000
0000
,  // measure 19
0010
0000
0110
0000
0101
0000
0000
0000
0001
1000
0001
0000
0100
0000
0110
0000
,  // measure 20
1010
0000
1000
0100
0010
0001
1000
0000
,  // measure 21
0001
0010
0100
1000
0100
0010
1000
0010
,  // measure 22
0001
0010
0100
0000
1001
1000
0001
0001
,  // measure 23
1000
1000
1001
0000
0001
0100
0001
0000
,  // measure 24
0100
0000
1001
0000
1000
0010
1000
0000
,  // measure 25
0010
0000
1001
0000
0001
0100
0001
0000
,  // measure 26
0100
0010
1000
0100
,  // measure 27
0001
0100
1000
0010
,  // measure 28
0100
0010
0100
0000
0001
0000
1000
0000
,  // measure 29
0001
0000
1001
0000
0100
0010
0100
0000
,  // measure 30
0001
0101
0101
1001
,  // measure 31
0000
0000
1000
0100
1000
0000
0001
0000
,  // measure 32
1000
0000
0001
0010
0001
0000
1000
0000
,  // measure 33
0001
0000
0010
0000
0100
0000
1000
0001
,  // measure 34
1000
0010
0100
0001
,  // measure 35
0100
0000
0010
0100
0010
0000
1000
0010
,  // measure 36
1000
0000
0001
0000
0001
0100
0001
0000
,  // measure 37
1000
0000
1000
0010
1000
0000
0001
0000
,  // measure 38
0001
0100
0001
0000
0010
0000
0100
0000
,  // measure 39
1000
0000
1000
0010
1000
0000
0100
0000
,  // measure 40
0010
0000
0001
0000
0001
0100
0001
0000
,  // measure 41
1000
0001
1000
1000
0000
1000
0100
0010
,  // measure 42
0001
0001
0000
0001
0010
0100
1001
0000
,  // measure 43
0010
1000
0010
0000
0110
0000
0110
0000
,  // measure 44
1001
0101
0101
1100
,  // measure 45
1001
0000
0000
1001
,  // measure 46
1000
0010
1000
0000
1100
0000
1010
0000
,  // measure 47
1001
0000
1001
0000
0010
0000
0001
0100
,  // measure 48
0001
0010
0100
1001
,  // measure 49
0100
0000
1000
0010
1000
0000
0100
0000
,  // measure 50
0010
0000
1001
0000
0010
0000
0001
0100
,  // measure 51
0001
0010
0100
1001
,  // measure 52
1000
1000
0010
0100
,  // measure 53
0001
0000
1001
0000
0001
0010
0001
0000
,  // measure 54
0011
0101
1001
1001
,  // measure 55
0010
0000
1000
0100
1000
0000
0010
0000
,  // measure 56
0101
0000
1001
0000
0100
0000
0001
0010
,  // measure 57
0001
0100
1010
1001
,  // measure 58
0010
0000
1000
0100
1000
0000
0010
0000
,  // measure 59
0101
0000
1002
0000
0010
0023
0000
0000
,  // measure 60
0230
1000
0000
2300
0000
0000
3002
0100
,  // measure 61
0000
0203
0000
0300
1001
0000
0100
0000
,  // measure 62
0010
0001
1000
0100
,  // measure 63
0001
0100
1000
0002
,  // measure 64
0000
0003
1001
0010
,  // measure 65
0100
2000
0000
3000
,  // measure 66
1001
0001
0100
1000
1000
0100
0001
0001
,  // measure 67
0010
1000
1000
0010
0001
0000
0100
0001
,  // measure 68
0100
0001
0100
0000
0001
0010
0100
1000
,  // measure 69
0010
0000
0000
1001
;

//---------------dance-single - ----------------
#NOTES:
     dance-single:
     :
     Beginner:
     1:
     0.053,0.087,0.008,0.000,0.000: // measure 1
0001
0000
0000
0000
,  // measure 2
1000
0000
0000
0000
,  // measure 3
0001
0000
0000
0000
,  // measure 4
0000
0000
0001
0000
,  // measure 5
0000
0000
0000
0000
,  // measure 6
1000
0000
0000
0000
,  // measure 7
0000
0000
1000
0000
,  // measure 8
0000
0000
0000
0000
,  // measure 9
0100
0000
0000
0000
,  // measure 10
0000
0000
0100
0000
,  // measure 11
0000
0000
0000
0000
,  // measure 12
1001
0000
0000
0000
,  // measure 13
0000
0000
0010
0000
,  // measure 14
0000
0000
0000
0000
,  // measure 15
0010
0000
0000
0000
,  // measure 16
0000
0000
0100
0000
,  // measure 17
0000
1000
0000
0000
,  // measure 18
0001
0000
0000
1000
,  // measure 19
0000
0000
0001
0000
,  // measure 20
0000
1000
0000
0000
,  // measure 21
1000
0000
0000
0000
,  // measure 22
0000
0000
0000
0000
,  // measure 23
0000
1000
0000
0000
,  // measure 24
0000
0000
0000
0000
,  // measure 25
0000
0000
0000
0000
,  // measure 26
0000
0000
0000
0000
,  // measure 27
0000
0000
0000
0000
,  // measure 28
0000
0000
0000
0000
,  // measure 29
0000
0000
0000
0000
,  // measure 30
0000
0000
0000
0001
,  // measure 31
0000
0000
0000
0000
,  // measure 32
0000
0000
0000
0000
,  // measure 33
0000
0000
0000
0000
,  // measure 34
0000
0000
0000
0000
,  // measure 35
0000
1000
0000
0000
,  // measure 36
0000
0000
0000
0010
,  // measure 37
0000
0000
0000
0000
,  // measure 38
0000
1000
0000
0000
,  // measure 39
0000
0000
0000
0000
,  // measure 40
0000
0000
0000
0000
,  // measure 41
0000
0001
0000
0000
,  // measure 42
0100
0000
0000
0001
,  // measure 43
0000
0000
0000
0000
,  // measure 44
0000
1000
0000
0000
,  // measure 45
0000
0000
0000
0001
,  // measure 46
0000
0000
0000
0000
,  // measure 47
0000
1000
0000
0000
,  // measure 48
0000
0000
0000
0100
,  // measure 49
0000
0000
0000
0000
,  // measure 50
0000
1000
0000
0000
,  // measure 51
0000
0000
0000
0000
,  // measure 52
0000
0000
0000
0000
,  // measure 53
0000
0000
0000
0000
,  // measure 54
0000
0000
0000
0001
,  // measure 55
0000
0000
0000
0000
,  // measure 56
0000
0010
0000
0000
,  // measure 57
0000
0000
0000
0001
,  // measure 58
0000
0000
0000
0000
,  // measure 59
0000
1000
0000
0000
,  // measure 60
0000
0000
0000
0001
,  // measure 61
0000
0000
0001
0000
,  // measure 62
0000
0000
0000
0000
,  // measure 63
1000
0000
0000
0000
,  // measure 64
0000
0000
0001
0000
,  // measure 65
0000
0000
0000
0000
,  // measure 66
1000
0000
0000
1000
,  // measure 67
0000
0000
1000
0000
,  // measure 68
0000
0000
0000
0000
,  // measure 69
0000
0000
0000
1000
;

//---------------dance-single - ----------------
#NOTES:
     dance-single:
     :
     Challenge:
     9:
     0.715,0.846,0.704,0.068,0.271: // measure 1
1000
0000
0001
0010
0100
1000
0001
0010
0100
0000
1000
0100
0010
0001
1000
0100
,  // measure 2
0010
0000
0001
0010
0100
1000
0001
0010
0100
1000
0010
0100
0010
1000
0001
0000
,  // measure 3
1000
0000
1000
0100
1000
0000
0001
0000
0001
0010
0001
0000
1000
0000
0100
0000
,  // measure 4
0010
0000
0002
0000
1000
0000
1003
0000
0010
0000
0100
0000
0000
0001
0100
0001
,  // measure 5
0010
0100
1000
0010
0100
0000
0010
0000
0000
1000
0010
1000
0100
0010
0001
0100
,  // measure 6
0010
1000
1000
0001
0010
0100
1000
0001
,  // measure 7
0001
0000
0110
0000
0000
0000
0000
1000
0001
0000
0001
0010
0001
0000
1000
0000
,  // measure 8
1000
0100
1000
0000
0001
0000
0010
0000
0100
0000
2000
0000
0001
0000
3001
0000
,  // measure 9
0100
0000
0010
0000
0000
1000
0100
1000
0100
0010
0001
0100
0010
0000
0100
0000
,  // measure 10
0000
0001
0010
0001
0010
0100
1000
0010
0100
0000
0001
0000
0001
0000
1000
0000
,  // measure 11
0100
0010
0001
0110
0110
1001
0000
0000
,  // measure 12
0100
0010
0100
0000
1010
0000
0011
0000
0011
0000
1001
0000
0001
0010
0001
1000
,  // measure 13
0001
0000
0101
0000
0101
0000
1100
0000
1001
0000
1000
0010
1000
0000
0100
0000
,  // measure 14
0010
0000
0100
0000
1000
0010
0100
0010
1000
0000
0010
1000
0010
0000
1001
0000
,  // measure 15
0001
0100
0010
0100
0001
0000
0100
0001
0100
0000
1001
0000
1000
0010
0100
0010
,  // measure 16
1000
0000
0010
1000
0010
0000
1001
0000
0001
0100
0010
0100
0001
0000
0100
0001
,  // measure 17
0100
0000
1001
0000
1000
0100
0010
0000
0101
0000
1100
0000
1001
0000
0000
0000
,  // measure 18
0001
0010
0100
0000
1010
0000
0011
0000
1001
0000
0000
0000
1000
0010
0100
0001
,  // measure 19
0100
0000
0101
0000
1001
0000
0000
0000
0001
0100
0010
1000
0010
0000
1010
0000
,  // measure 20
1001
0000
0001
0010
0100
1000
0001
0000
,  // measure 21
1000
0010
0100
0001
0100
1000
0100
0001
,  // measure 22
0010
0000
1000
0000
0010
0000
0000
0000
1001
0000
1000
0100
1000
0000
1100
0000
,  // measure 23
0101
0101
1001
0000
1000
0010
1000
0000
,  // measure 24
0010
0000
0100
0010
0100
0010
0100
0000
,  // measure 25
0001
0000
0100
0010
0100
0010
0100
0000
,  // measure 26
0101
0000
1001
0000
1000
0010
0100
0010
,  // measure 27
1000
0000
1000
0000
0001
0100
0010
0100
,  // measure 28
0001
0010
0100
0000
1010
0000
0100
0000
,  // measure 29
0001
0000
1001
0000
0010
0100
0010
0000
,  // measure 30
1010
0110
0101
1001
,  // measure 31
0001
0100
0001
0010
0001
0000
0101
0000
,  // measure 32
1001
0000
1000
0010
0100
0010
1000
0000
,  // measure 33
1010
0000
1001
0000
0001
0010
0100
0010
,  // measure 34
0001
0000
0101
0000
1001
0000
1000
0100
,  // measure 35
0010
0100
1000
0001
1000
0001
0010
0100
,  // measure 36
1000
0001
1000
0001
0010
0100
1000
0001
,  // measure 37
1000
0001
0010
0100
1000
0001
1000
0001
,  // measure 38
0010
0100
1000
0100
0010
0001
1000
0000
,  // measure 39
0001
0100
0001
0010
0100
1000
0010
0100
,  // measure 40
0001
1000
0010
0100
0001
0010
0100
1000
,  // measure 41
0010
0000
0100
0000
0001
0000
0001
0000
0000
0000
0100
0010
0100
0001
0010
0100
,  // measure 42
1000
0000
1000
0000
0000
0000
0010
0100
0010
1000
0100
0010
0001
0000
0000
0000
,  // measure 43
1000
0100
1000
0000
1100
0000
1100
0000
,  // measure 44
1001
0101
0101
1100
,  // measure 45
1001
0010
0100
1001
,  // measure 46
0001
0100
0001
0000
0011
0000
0101
0000
,  // measure 47
1001
0000
1001
0000
1000
0010
1000
0100
,  // measure 48
1000
0010
1000
0000
1100
0000
1001
0000
,  // measure 49
0001
0100
0001
0010
0001
0100
0001
0000
,  // measure 50
0101
0000
1001
0000
1000
0100
1000
0010
,  // measure 51
1000
0100
1000
0000
1010
0000
1001
0000
,  // measure 52
0001
0100
0001
0000
0101
0000
0110
0000
,  // measure 53
1010
0000
1001
0000
1000
0010
1000
0000
,  // measure 54
1100
1010
1001
1001
,  // measure 55
0100
0010
0100
0001
0100
0010
0100
0000
,  // measure 56
0101
0000
1001
0000
0010
0100
0010
1000
,  // measure 57
0010
0100
0010
0000
1010
0000
1001
0000
,  // measure 58
0100
0001
0100
0010
0100
0001
0100
0000
,  // measure 59
0101
0000
1001
0100
0020
0001
0031
0000
,  // measure 60
0200
1000
1300
0100
0010
0000
0001
0010
,  // measure 61
0200
1000
1300
0000
1001
0000
0100
0001
,  // measure 62
0100
0000
0001
0100
0010
1000
0010
0000
,  // measure 63
1001
0100
0001
0120
,  // measure 64
0000
1030
1001
0010
,  // measure 65
1000
0210
0000
0301
,  // measure 66
1001
0000
1000
0000
0010
0000
0010
0100
0010
0000
0100
0000
0100
0010
0100
0000
,  // measure 67
0001
0010
0100
1000
0001
0000
0100
0010
,  // measure 68
0100
0001
0010
0100
1000
0100
0001
0100
,  // measure 69
2000
0000
0000
3001
;
