#TITLE:魅せられて;
#SUBTITLE:~エーゲ海のテーマ;
#ARTIST:MAKI;
#TITLETRANSLIT:MISERARETE;
#SUBTITLETRANSLIT:~AEGEAN UMI NO THEME;
#ARTISTTRANSLIT:;
#CREDIT:DigiMindAxel;
#BANNER:MISERARETE ~AEGEAN UMI NO THEME.png;
#BACKGROUND:MISERARETE ~AEGEAN UMI NO THEME-bg.png;
#LYRICSPATH:MISERARETE ~AEGEAN UMI NO THEME.lrc;
#CDTITLE:pop'n music.png;
#MUSIC:MISERARETE ~AEGEAN UMI NO THEME.mp3;
#OFFSET:-8.660;
#SAMPLESTART:39.922;
#SAMPLELENGTH:12.000;
#SELECTABLE:YES;
#BPMS:0.000=117.000;
#STOPS:;
#BGCHANGES:;

//---------------dance-single - ----------------
#NOTES:
     dance-single:
     :
     Easy:
     2:
     0.179,0.228,0.156,0.073,0.000:
1001
1000
1001
0001
,
0010
0100
0010
0100
,
1000
0001
1000
0001
,
0200
0000
0000
0000
,
0320
0000
0000
0000
,
1030
0000
0000
0000
,
0001
0000
0000
0000
,
1000
0000
0000
0000
,
0001
0000
0000
1000
,
1000
0100
1000
0100
,
1000
0001
1000
0001
,
0100
0001
0100
0001
,
1000
0100
0010
0001
,
1001
0000
0110
0000
,
1001
0001
1000
0001
,
1000
0000
0000
0000
,
0110
0000
0010
0000
,
0100
0000
0001
0000
,
1000
0001
1000
0000
,
0110
0000
0010
0000
,
0110
0000
0100
0000
,
0002
0000
0000
0000
,
2003
0000
0000
0000
,
3002
0000
0000
0000
,
2003
0000
0000
0000
,
3001
0010
0100
1000
,
0110
0000
0000
0000
,
0001
1000
0001
1000
,
0001
0100
0001
0100
,
0010
1000
0010
1000
,
0100
0000
0010
0001
,
0100
0000
0010
1000
,
0100
0000
0010
0001
,
1000
0000
0100
1000
,
0001
0000
1001
0000
,
0001
0001
1000
1000
,
1001
0000
0000
0000
,
0110
0000
0000
0000
,
1001
0000
0000
0000
,
0120
0000
1000
1030
,
1001
0000
0000
0000
;

//---------------dance-single - ----------------
#NOTES:
     dance-single:
     :
     Medium:
     5:
     0.333,0.353,0.249,0.259,0.083:
0100
1000
0100
0000
0010
0001
0010
0000
,
0001
1000
0001
1000
0001
1000
0001
0000
,
0100
0010
0100
0010
0100
0010
0100
0000
,
0101
0000
0000
0000
0000
0000
0000
0100
,
1100
0000
0000
0000
0000
0000
0000
0001
,
1002
0000
1000
0000
,
2003
0000
0100
0000
,
3020
0000
0100
0000
,
0230
0000
0000
0000
0301
0000
1000
0001
,
1001
0000
0100
0001
0100
0000
0010
1000
,
0100
0000
0010
0001
0100
0000
0010
1000
,
0010
0000
1000
0100
0010
0000
0001
0010
,
0100
0000
1000
0010
0100
0001
0010
0000
,
1100
0000
0011
0000
,
0010
0001
0010
0001
1000
0100
2000
0000
0000
3002
0000
0000
,
2003
0000
0000
3000
,
0110
0110
0101
0101
,
1100
1100
0010
0001
,
0100
0001
0010
0100
1000
0000
0100
0010
,
0100
0000
1000
0001
1000
0000
0100
0010
,
0100
0000
1000
0001
0200
0000
0301
0000
,
0200
0010
0010
0310
,
0020
1000
1000
1030
,
0020
0100
0100
0130
,
0200
0001
0001
0301
,
1000
0100
0010
0001
1000
0100
0010
0001
,
0220
0000
0000
0330
,
0101
0101
1100
1100
,
0110
0110
0001
1000
,
0100
1000
0100
0010
0001
0000
0100
0001
,
2000
0000
0000
0001
3001
0000
1000
0010
,
0200
0000
0000
0001
0301
0000
0100
0010
,
0200
0000
0000
0010
0020
0000
0330
0000
,
0020
0000
0000
0100
0200
0000
0330
0000
,
1001
0000
0110
0000
,
0010
1000
0010
1000
0010
1000
0001
0100
0001
0100
0001
0100
,
0002
0000
0000
0003
,
2200
0000
0000
3300
,
0022
0000
0000
0033
,
0110
0000
0000
0000
0000
0000
0001
0100
0001
0100
0010
1000
,
0010
0000
0000
0000
;

//---------------dance-single - ----------------
#NOTES:
     dance-single:
     :
     Hard:
     8:
     0.567,0.685,0.114,0.633,0.347: // measure 1
1000
0000
1000
0100
0010
0000
0000
0000
0001
0000
0001
0100
0010
0000
0000
0000
,  // measure 2
1000
0100
1000
0000
0100
1000
0100
0000
0010
0001
0010
0000
0001
0010
0001
0000
,  // measure 3
1000
0010
1000
0000
0010
1000
0010
0000
0100
0001
0100
0000
0001
0100
0001
0000
,  // measure 4
2002
0000
0000
0000
0000
3003
0000
0110
,  // measure 5
0220
0000
0000
0000
0000
0330
0000
1001
,  // measure 6
1002
0000
0203
0000
0320
0000
1030
0100
,  // measure 7
0001
0100
1000
0000
0100
0010
0001
0000
,  // measure 8
0100
0001
2000
0000
3020
0000
0130
0001
,  // measure 9
0200
0000
0320
0000
1000
0000
1030
0001
,  // measure 10
0011
1000
0100
0001
0100
1000
0010
0010
,  // measure 11
0100
0000
0001
0100
0001
1000
0000
0100
0000
1000
0100
1000
0001
0000
0100
0000
,  // measure 12
0010
0000
1000
0000
0010
0000
0001
0000
0010
0000
1000
0001
1000
0000
0010
0000
,  // measure 13
0200
0001
0301
0000
2000
0100
3100
0010
,  // measure 14
0202
0000
0000
0303
2200
0000
0000
3300
,  // measure 15
1000
0000
0001
0000
1000
0000
0001
0000
0010
0000
0100
0000
1000
0000
0000
1000
0000
0000
0001
0000
0000
0001
0000
0000
,  // measure 16
0110
0000
0001
0001
0100
0100
1000
1000
,  // measure 17
0001
0010
0100
0010
0001
0100
0010
0100
,  // measure 18
0001
0100
1000
0100
0001
0010
0100
1000
,  // measure 19
0001
1000
0100
0001
0200
0000
1300
0001
,  // measure 20
0100
0001
0100
0000
0000
0000
0010
0100
0010
0000
1000
0000
0001
0000
1000
0000
,  // measure 21
0010
1000
0010
0000
0000
0000
0100
0010
0100
0000
0001
0000
1000
0000
1000
0000
,  // measure 22
0002
0203
0302
0203
0302
0203
0302
0203
,  // measure 23
2300
3200
2300
3200
2300
3200
2300
3200
,  // measure 24
0302
0023
0032
0023
0032
0023
0032
0023
,  // measure 25
2030
3020
2030
3020
2030
3020
2030
3020
,  // measure 26
0031
0000
0000
0100
0000
0000
0010
0000
0000
0100
0000
0000
0001
0000
0000
0000
0000
0000
1000
0000
0000
0000
0000
0000
0001
0000
0000
0000
0100
0000
0000
0000
0001
0000
0000
0000
1000
0000
0000
0000
0100
0000
0000
0000
0010
0000
0000
0000
,  // measure 27
0001
0000
1000
1000
0100
0100
0001
0001
,  // measure 28
1000
0100
0010
0100
1000
0010
0100
0010
,  // measure 29
1000
0100
0001
0100
1000
0010
0001
0010
,  // measure 30
1000
0000
0001
0000
0010
0000
0100
0000
1000
0000
0010
0000
0100
0000
0001
1000
,  // measure 31
0002
0000
0000
0000
0103
0000
0001
0000
2000
0000
0000
0000
3000
0001
0010
0001
,  // measure 32
2000
0000
0000
0000
3010
0000
1000
0000
0002
0000
0000
0000
0003
1000
0010
1000
,  // measure 33
0002
0000
1003
0001
0200
0000
0310
0000
,  // measure 34
2001
0000
0000
0000
3001
0000
0010
0000
0200
0000
0000
0000
1300
0001
0100
0010
,  // measure 35
2000
0000
3000
0000
2002
0000
0000
3003
,  // measure 36
0001
0100
0001
0100
0010
1000
0010
1000
0100
0010
0001
1000
,  // measure 37
0010
0000
0100
0001
0000
0001
0000
1000
0000
1000
0010
0000
0100
0000
0010
0000
,  // measure 38
1000
0100
0000
0100
0000
0010
0000
0010
0000
0001
1000
0000
0100
0000
0010
0000
,  // measure 39
0001
0100
0001
1000
0000
1000
0000
0010
0000
0100
0010
0000
1000
0000
0001
0000
,  // measure 40
1000
0000
0000
0100
0000
0000
1000
0000
0000
0001
0000
0000
0000
0000
0000
0100
0000
0000
0000
0000
0000
0100
0000
0000
0010
0000
0000
0000
1000
0000
0000
0000
0100
0000
0000
0000
0010
0000
0000
0000
0001
0000
0000
0000
0010
0000
0000
0000
,  // measure 41
0100
0000
0000
0000
;

//---------------dance-single - ----------------
#NOTES:
     dance-single:
     :
     Beginner:
     1:
     0.084,0.124,0.145,0.000,0.000:
1001
0000
0001
0000
,
1000
0000
0001
0000
,
1000
0000
0010
0000
,
0100
0000
0000
0000
,
0110
0000
0000
0000
,
0010
0000
0000
0000
,
0000
0000
0000
0000
,
1000
0000
0000
0000
,
0001
0000
0000
0000
,
1001
0000
0000
0000
,
1000
0000
0000
0000
,
0001
0000
0000
0000
,
0001
0000
0000
0000
,
1001
0000
0001
0000
,
1001
0000
0000
0000
,
1001
0000
0000
0000
,
0001
0000
0000
0000
,
0000
0000
0000
0000
,
0001
0000
0000
0000
,
0001
0000
0000
0000
,
1000
0000
0000
0000
,
1000
0000
0000
0000
,
0010
0000
0000
0000
,
0100
0000
0000
0000
,
0010
0000
0000
0000
,
1000
0000
0000
0000
,
1001
0000
0000
0000
,
1001
0000
0000
0000
,
0000
0000
0000
0000
,
0001
0000
0000
0000
,
1000
0000
0000
0000
,
0001
0000
0000
0000
,
1000
0000
0000
0000
,
0001
0000
0000
0000
,
0110
0000
0100
0000
,
0100
0000
0000
0000
,
1001
0000
0000
0000
,
1001
0000
0000
0000
,
1001
0000
0000
0000
,
1001
0000
0000
0000
,
1001
0000
0000
0000
;

//---------------dance-single - ----------------
#NOTES:
     dance-single:
     :
     Challenge:
     9:
     0.588,0.539,0.156,0.166,0.752: // measure 1
1010
0000
0010
1000
0100
0000
0000
0000
0101
0000
0100
0001
0010
0000
0000
0000
,  // measure 2
0001
0010
0001
0010
0100
0010
0100
0000
1000
0010
1000
0100
0010
0100
0010
0000
,  // measure 3
0001
1000
0001
1000
0100
0010
0100
0000
1000
0001
1000
0001
0010
0100
0010
0000
,  // measure 4
1002
0000
0000
0000
0000
0100
0000
0100
0000
0103
0000
0000
0000
0000
0101
0000
,  // measure 5
2100
0000
0000
0000
0000
0100
0000
0100
0000
3100
0000
0000
0000
0000
1100
0000
,  // measure 6
1002
0000
0000
0000
0000
1003
0000
0100
0000
0010
0000
0001
0100
0000
0010
0000
,  // measure 7
2000
0000
0000
0000
0000
3001
0000
0010
0000
0100
0000
1000
0010
0000
0100
0000
,  // measure 8
0002
0000
0000
0000
0000
1003
0000
0010
0000
0100
0000
0001
0010
0000
0100
0000
,  // measure 9
2000
0000
0000
0000
0000
3001
0000
0100
0000
0010
0000
1000
0010
0000
0010
0000
,  // measure 10
0110
0000
0010
0100
0000
0001
0000
0010
0000
0001
0000
1000
0100
0000
1000
0000
,  // measure 11
0001
0000
0100
0010
0000
1000
0000
0100
0000
1000
0000
0001
0100
0000
0001
0000
,  // measure 12
1000
0000
0100
1000
0000
0001
0000
0010
0000
0100
0000
1000
0010
0000
0100
0000
,  // measure 13
0001
0000
0100
0001
0000
1000
0000
0100
0000
0010
0000
0001
0100
0000
0010
0000
,  // measure 14
1000
0010
1000
0010
1000
0010
1000
0100
0010
0001
0010
0001
0010
0001
0010
0100
,  // measure 15
1000
0010
0100
0000
0001
0010
0100
0000
1000
0001
0100
0001
1000
0100
1000
0100
,  // measure 16
0010
0000
0000
0000
0000
0000
0000
0000
0001
1000
0001
1000
0001
1000
0001
0000
,  // measure 17
1001
0000
0000
0010
1000
0000
0001
0000
0010
0000
0000
0100
0010
0000
0001
0000
,  // measure 18
0100
0000
0000
0010
1000
0000
0100
0000
0010
0000
0000
0100
1000
0000
0100
0000
,  // measure 19
0010
0001
0010
1000
0020
0000
0031
1000
,  // measure 20
0100
0010
0100
0010
0000
0000
0001
0010
0001
0010
0001
0100
0000
0010
1000
0100
,  // measure 21
1000
0100
1000
0010
0000
1000
0001
0100
0001
0000
0100
0000
0010
0000
1000
0000
,  // measure 22
0001
0010
1000
0010
0001
0010
1000
0010
,  // measure 23
0001
0100
1000
0100
0001
0100
1000
0100
,  // measure 24
0001
0010
0100
0001
0100
1000
0001
1000
,  // measure 25
0001
0100
0010
0001
0010
1000
0001
0100
,  // measure 26
0001
1000
0001
1000
0001
0000
1000
0100
0010
0000
0001
0100
0010
0000
0100
0010
,  // measure 27
0100
0000
0000
0000
0000
0000
0000
0000
0001
1000
0001
1000
0001
1000
0001
0000
,  // measure 28
1001
0000
0000
1000
0001
0000
0100
0000
1000
0000
0000
0100
0001
0000
0010
0000
,  // measure 29
0100
0000
0000
0010
0001
0000
1000
0000
0100
0000
0000
0001
0100
0000
1000
0000
,  // measure 30
0001
0000
0000
0010
0100
0000
1000
0000
0010
0000
0100
0000
0001
0010
0100
1000
,  // measure 31
0002
0000
0000
0000
1003
0000
0110
0000
2000
0000
0000
0000
3001
1000
0100
0010
,  // measure 32
0002
0000
0000
0000
1003
0000
0110
0000
0002
0000
0000
0000
1003
0001
0100
0010
,  // measure 33
2000
0000
0000
0000
3001
0000
0110
0000
1000
0000
0000
0100
0010
0000
0001
0000
,  // measure 34
2000
0000
0000
0000
3001
0000
0010
0000
0100
0000
0000
1000
0001
0010
0100
1000
,  // measure 35
0002
0000
0003
0000
2200
0000
0000
3300
,  // measure 36
0100
0100
1000
0010
0010
0100
0001
0001
0100
0010
0010
0100
,  // measure 37
0001
1000
0100
1000
0000
0001
0000
0001
0000
0001
1000
0100
0010
0000
0100
0000
,  // measure 38
1000
0001
0100
0001
0000
1000
0000
1000
0000
1000
0001
0010
0100
0000
0010
0000
,  // measure 39
0001
0010
0100
1000
0000
0010
0000
1000
0000
0010
0100
0001
0010
0000
0100
0000
,  // measure 40
1000
0000
0000
0100
0000
0000
0010
0000
0000
0001
0000
0000
0000
0000
0000
0100
0000
0000
0000
0000
0000
0001
0000
0000
1000
0000
0000
0000
1000
0000
0000
0000
0001
0000
0000
0000
0001
0000
0000
0000
1000
0000
0000
0000
1000
0000
0000
0000
,  // measure 41
0110
0000
0000
0000
;
