#TITLE:真夜中の彷徨;
#SUBTITLE:;
#ARTIST:田中敬一;
#TITLETRANSLIT:MAYONAKA NO HOUKOU;
#SUBTITLETRANSLIT:;
#ARTISTTRANSLIT:TOSHIKAZU TANAKA;
#CREDIT:DigiMindAxel;
#BANNER:MAYONAKA NO HOUKOU.png;
#BACKGROUND:MAYONAKA NO HOUKOU-bg.png;
#LYRICSPATH:;
#CDTITLE:DMAxel original simfile.png;
#MUSIC:MAYONAKA NO HOUKOU.mp3;
#OFFSET:-6.220;
#SAMPLESTART:63.350;
#SAMPLELENGTH:12.000;
#SELECTABLE:YES;
#BPMS:0.000=104.950;
#STOPS:;
#BGCHANGES:;

//---------------dance-single - ----------------
#NOTES:
     dance-single:
     :
     Hard:
     7:
     0.416,0.416,0.436,0.014,0.089: // measure 1
0000
0000
0000
0000
0000
0000
0000
1010
,  // measure 2
0000
0010
0001
1000
0100
0100
0000
0101
,  // measure 3
0000
0100
1000
0001
0010
0010
0000
1010
,  // measure 4
0000
0010
0001
1000
0100
0100
0000
1001
,  // measure 5
0000
0001
0100
0110
0000
0110
0000
1100
,  // measure 6
0000
0100
0001
1000
1000
0010
0000
0011
,  // measure 7
0000
0010
1000
0001
0001
0100
0000
1100
,  // measure 8
0000
0100
0001
1000
0010
0010
0000
1001
,  // measure 9
0000
0000
0000
0110
0000
0110
0001
0000
,  // measure 10
0011
0000
0100
0000
1000
0000
0001
0000
0000
0000
1000
0000
0001
0000
0010
0100
,  // measure 11
0000
0000
1000
0000
0001
0000
0010
0100
0000
0000
1000
0000
0001
0000
0010
0100
,  // measure 12
1000
0010
0100
0001
0000
0100
0001
0011
,  // measure 13
0000
0000
0000
0110
0000
0110
1000
0000
,  // measure 14
1100
0000
0010
0000
0001
0000
1000
0000
0000
0000
0001
0000
1000
0000
0100
0010
,  // measure 15
0000
0000
0001
0000
1000
0000
0100
0010
0000
0000
0001
0000
1000
0000
0100
0010
,  // measure 16
0001
0100
0010
1000
0000
0010
1000
1100
,  // measure 17
0000
0000
0000
0110
0000
0110
0001
1000
,  // measure 18
1001
0000
1000
0010
1000
0000
0001
0000
0010
0000
0100
1000
0100
0000
1000
0000
,  // measure 19
0001
0000
0100
0001
0100
0000
0001
0000
0100
0000
1000
0000
0110
0000
0001
0000
,  // measure 20
1001
0000
0001
0100
0001
0000
1000
0000
0100
0000
0010
0001
0010
0000
1001
0000
,  // measure 21
0000
0000
0000
0000
0000
0000
0101
0000
0000
0000
1100
0000
0000
1100
0000
0000
,  // measure 22
1010
0000
0100
0000
0001
0000
1000
0000
0000
0000
0001
0000
1000
0000
0100
0010
,  // measure 23
0000
0000
0001
0000
1000
0000
0100
0010
0000
0000
0001
0000
1000
0000
0100
0010
,  // measure 24
0001
0100
0010
1000
0000
0010
1000
1100
,  // measure 25
0000
0000
0000
0110
0000
0110
0001
0000
,  // measure 26
0101
0000
0010
0000
1000
0000
0001
0000
0000
0000
1000
0000
0001
0000
0010
0100
,  // measure 27
0000
0000
1000
0000
0001
0000
0010
0100
0000
0000
1000
0000
0001
0000
0010
0100
,  // measure 28
1000
0010
0100
0001
0000
0100
0001
0011
,  // measure 29
0000
0000
0000
0110
0000
0110
1000
0000
,  // measure 30
1001
0010
0100
1000
0100
0001
0100
1000
,  // measure 31
0001
0000
0010
0000
0100
0000
0010
0000
0100
0000
0010
0000
0001
0000
1000
0001
,  // measure 32
1000
0100
0010
0001
0010
1000
0010
0001
,  // measure 33
1000
0100
0010
0001
0001
0001
0000
1001
,  // measure 34
0000
0100
0010
0001
0010
1000
0010
0001
,  // measure 35
1000
0000
0100
0000
0010
0000
0100
0000
0010
0000
0100
0000
1000
0000
0001
1000
,  // measure 36
0001
0010
0100
1000
0100
0001
0100
1100
,  // measure 37
0000
0001
1000
0100
0010
1010
0000
1001
,  // measure 38
0000
0001
1000
0100
0010
0100
0000
1020
,  // measure 39
0000
1030
0001
0010
0100
0010
0001
2000
,  // measure 40
0000
3001
0010
1000
0010
0001
0000
1100
,  // measure 41
0000
0000
0000
0110
0000
0101
0100
1001
,  // measure 42
0000
0100
0010
0001
0010
1000
0000
0011
,  // measure 43
0000
0010
1000
0001
1000
0100
0010
0100
,  // measure 44
0000
1000
0010
0100
0001
1000
0010
0011
,  // measure 45
0000
0000
0000
1100
0000
1010
0010
1001
,  // measure 46
0000
0001
1000
0100
0010
0100
0000
1010
,  // measure 47
0000
0000
1000
0000
0001
0000
0010
0000
0100
0000
0010
0001
0010
0001
0010
0000
,  // measure 48
0000
1001
1000
0100
0001
0100
0000
1100
,  // measure 49
0000
0010
0001
1000
0000
1010
0000
1001
,  // measure 50
0000
1000
0001
0010
0100
0010
0000
0101
,  // measure 51
0000
0000
0001
0000
1000
0000
0010
0100
0010
0100
0010
0000
1000
0000
1100
0000
,  // measure 52
0000
0000
0010
0001
0010
0000
0100
0000
1000
0000
0010
0000
0000
0000
1010
0000
,  // measure 53
0000
0100
0001
0101
0000
1000
1100
0000
,  // measure 54
1001
0000
0000
0000
;

//---------------dance-single - ----------------
#NOTES:
     dance-single:
     :
     Medium:
     5:
     0.302,0.284,0.114,0.057,0.004:
0000
0000
0000
0000
0000
0000
0000
1001
,
0000
1000
0010
0000
1000
0000
0001
0010
,
0000
0001
0100
0000
0001
0000
1000
0100
,
0000
1000
0010
0000
1000
0000
0001
0020
,
0000
0000
0031
1000
0000
0100
0000
1001
,
0000
0001
0100
0001
0100
0001
0000
1000
,
0000
1000
0100
1000
0100
1000
0000
0001
,
0000
0001
0010
0001
0010
0001
0000
1001
,
0000
1000
0000
0001
0000
0101
0000
0000
,
1000
0100
0010
0001
0000
1000
0001
1000
,
0000
1000
0001
1000
0000
1000
0100
1000
,
0001
0010
0100
1000
0000
0001
1000
1001
,
0000
0000
0000
0001
0000
1000
0001
0000
,
0001
0010
0100
1000
0000
0001
1000
0001
,
0000
0001
1000
0001
0000
0001
0010
0001
,
1000
0100
0010
0001
0000
1000
0001
1001
,
0000
0000
0000
1000
0000
0001
1000
0000
,
0010
1000
0010
1000
0010
0100
0001
0100
,
0001
1000
0100
1000
0100
0010
0001
0000
,
0100
0001
0100
0001
1000
0100
1000
0001
,
0000
0000
0000
0000
0000
0000
0100
0000
0000
0000
0100
0000
0000
0010
0000
0000
,
0100
0001
0010
0100
0000
1000
0100
0001
,
0000
1000
0100
0001
0000
0100
0001
1000
,
1000
0100
0010
0001
0000
1000
0001
1001
,
0000
0000
0000
0001
0000
1000
0010
0000
,
0010
1000
0100
0010
0000
0001
0010
1000
,
0000
0001
0010
1000
0000
0010
1000
0001
,
0001
0010
0100
1000
0000
0001
1000
1001
,
0000
0000
0000
0100
0000
0100
0010
0000
,
0200
0000
0001
0000
0001
0000
0301
2000
,
0000
0000
3001
0010
0000
0001
0010
0100
,
2000
0000
0010
0000
0010
0000
3010
0200
,
0000
0000
0000
0301
0010
0100
0000
0000
,
0020
0000
1000
0000
1000
0000
1030
0002
,
0000
0000
0000
0103
0000
0100
0001
1000
,
0200
0000
1000
0000
1000
0000
1300
0001
,
0000
0000
0000
0100
0001
1001
0000
1001
,
0000
1000
0100
0010
,
0001
0100
1000
0010
,
0100
0000
0001
0000
0010
0000
1000
0001
,
0000
0000
0000
0100
0000
0100
0100
1001
,
0000
0001
0010
0100
,
1000
0100
0001
0100
,
0010
0000
1000
0000
0010
0000
0001
1000
,
0000
0000
0000
1001
0000
0001
0001
0001
,
0000
0000
1000
0010
1000
0001
0010
0001
,
0000
0000
0001
0100
0001
1000
0100
1000
,
0000
0000
1000
0100
1000
0001
0100
0001
,
0000
0000
1000
0100
0000
0100
0000
1001
,
0000
0001
0100
0001
1000
0100
0000
1000
,
0000
1000
0010
1000
0001
0010
0000
1001
,
0000
0000
1001
0000
0001
0100
0001
1000
,
0000
0100
1000
0001
0000
1000
0001
0000
,
1001
0000
0000
0000
;

//---------------dance-single - ----------------
#NOTES:
     dance-single:
     :
     Easy:
     2:
     0.170,0.170,0.114,0.014,0.000:
0000
0000
0000
0000
,
0000
1000
0000
0001
,
0000
1000
0000
0010
,
0000
0000
0100
0000
0000
0000
0001
1000
,
0000
0000
0000
1001
0000
0000
0000
1001
,
0000
0001
0000
0100
,
0000
0010
0000
1000
,
0000
0000
0001
0000
0000
0000
1000
0001
,
0000
0000
0000
1001
0000
0000
0001
0000
,
1000
0100
0000
0100
,
0000
0100
1000
0001
,
0010
0000
0000
0000
0000
0000
0001
1000
,
0000
0000
0000
0000
,
0100
1000
0000
0001
,
0000
0001
0000
0001
,
1000
0000
0010
0000
0000
0000
0010
0100
,
0000
0000
0000
0110
0000
0000
0000
0000
,
1000
0001
1000
0001
,
1000
0001
1000
0001
,
0100
0000
0010
0000
0100
0000
0000
0110
,
0000
0000
0000
1001
0000
0000
0000
0000
,
1000
0001
0000
0001
,
0000
0001
0000
0100
,
0010
0000
1000
0000
0000
0000
1000
0001
,
0000
0000
0000
0110
0000
0000
0000
0000
,
0001
1000
0000
1000
,
0000
1000
0000
0010
,
0100
0000
0001
0000
0000
0000
0001
1000
,
0000
0000
0000
0110
0000
0000
0110
0000
,
0001
1000
0001
1000
,
0001
1000
0010
0100
,
0001
0100
0001
0100
,
0001
0000
1000
0000
0010
0000
0000
1001
,
0000
0001
1000
0001
,
1000
0001
1000
0010
,
1000
0010
1000
0010
,
0100
0000
0001
0000
0100
0000
0000
1001
,
0000
1000
0100
0000
,
0100
1000
0100
0000
,
0010
0000
0001
0000
0010
0000
0000
1001
,
0000
0000
0000
0000
0000
0100
0000
0110
,
0000
0001
0010
0000
,
0010
0001
0010
0000
,
0100
0000
1000
0000
0100
0000
0000
1001
,
0000
0000
0000
0000
0100
0000
0010
0100
,
0000
0001
1000
0000
,
1000
0001
1000
0000
,
1000
0000
0001
0000
0100
0000
0000
0020
,
0000
0000
0000
1030
0000
0000
0000
1001
,
0000
1000
0001
0000
,
0001
1000
0001
0000
,
0001
0000
1000
0000
0010
0000
0000
0200
,
0000
0000
0000
0301
0000
1000
0001
0000
,
1001
0000
0000
0000
;

//---------------dance-single - ----------------
#NOTES:
     dance-single:
     :
     Beginner:
     1:
     0.071,0.076,0.071,0.000,0.000:
0000
0000
0000
0000
,
0000
1000
0000
0000
,
0000
0001
0000
0000
,
0000
1000
0000
0000
,
0000
0001
0000
0000
,
0000
0100
0000
0000
,
0000
0010
0000
0000
,
0000
1000
0000
0000
,
0000
0001
0000
0000
,
1001
0000
0000
0100
,
0000
0100
0000
0000
,
1001
0000
0000
0010
,
0000
0000
0000
0000
,
1001
0000
0000
0010
,
0000
0010
0000
0000
,
1001
0000
0000
0100
,
0000
0000
0000
0000
,
1000
0000
0001
0000
,
1000
0000
0001
0000
,
1000
0000
0001
0000
,
0000
0000
0000
0000
,
1001
0000
0000
1000
,
0000
1000
0000
0000
,
1001
0000
0000
0010
,
0000
0000
0000
0000
,
1001
0000
0000
1000
,
0000
1000
0000
0000
,
1001
0000
0000
0100
,
0000
0000
0000
0000
,
0001
0000
0000
0000
,
1000
0000
0000
0000
,
0001
0000
0000
0000
,
1000
0000
0000
0000
,
0100
0000
0000
0000
,
0010
0000
0000
0000
,
0100
0000
0000
0000
,
0010
0000
0000
0000
,
0000
0001
0000
0000
,
0000
1000
0000
0000
,
0000
0001
0000
0000
,
0000
1000
0000
0000
,
0000
0100
0000
0000
,
0000
0010
0000
0000
,
0000
0001
0000
0000
,
0000
1000
0000
0000
,
0000
0001
0000
0000
,
0000
0010
0000
0000
,
0000
0100
0000
0000
,
0000
1000
0000
0000
,
0000
0001
0000
0000
,
0000
1000
0000
0000
,
0000
1001
0000
1000
,
0000
0001
0000
0000
,
1001
0000
0000
0000
;
