#TITLE:まほろば;
#SUBTITLE:;
#ARTIST:HHH+H;
#TITLETRANSLIT:MAHOROBA;
#SUBTITLETRANSLIT:;
#ARTISTTRANSLIT:;
#CREDIT:DigiMindAxel;
#BANNER:MAHOROBA.png;
#BACKGROUND:MAHOROBA-bg.png;
#LYRICSPATH:MAHOROBA.lrc;
#CDTITLE:beatmaniaIIDX.png;
#MUSIC:MAHOROBA.mp3;
#OFFSET:-8.440;
#SAMPLESTART:16.408;
#SAMPLELENGTH:12.000;
#SELECTABLE:YES;
#BPMS:0.000=149.000;
#STOPS:;
#BGCHANGES:-21.000=MAHOROBA.AVI=1.000=1=1=0,
99999=-nosongbg-=1.000=0=0=0 // don't automatically add -songbackground-
;

//---------------dance-single - ----------------
#NOTES:
     dance-single:
     :
     Easy:
     3:
     0.249,0.269,0.087,0.191,0.000: // measure 1
1000
0001
1000
0001
,  // measure 2
2000
0000
0000
0000
,  // measure 3
3001
1000
0002
0000
,  // measure 4
0203
0000
0000
0000
,  // measure 5
0300
0000
0000
0000
,  // measure 6
0001
1000
0001
0000
,  // measure 7
0100
0010
0100
0001
,  // measure 8
1000
0001
1000
0000
,  // measure 9
0010
0100
0010
1000
,  // measure 10
0001
0010
0100
0000
,  // measure 11
1000
0001
1000
0100
,  // measure 12
0010
0001
1000
0002
,  // measure 13
2000
0000
0000
0000
,  // measure 14
3003
0000
0000
0000
,  // measure 15
0010
0100
0010
0100
,  // measure 16
0001
0010
0100
1000
,  // measure 17
0010
0100
0010
0100
,  // measure 18
0001
0010
0100
1000
,  // measure 19
0100
0010
0001
1000
,  // measure 20
0010
0100
0010
1000
,  // measure 21
0001
0010
0100
1000
,  // measure 22
2002
0000
0000
3003
,  // measure 23
0020
0000
0000
0000
,  // measure 24
0230
0000
0000
0000
,  // measure 25
0320
0000
0000
0000
,  // measure 26
2030
0000
0000
0000
,  // measure 27
3001
0010
0001
0010
,  // measure 28
0000
0001
0010
0100
,  // measure 29
2000
0000
0000
0000
,  // measure 30
3010
0010
0010
0010
,  // measure 31
1001
0100
1000
0100
,  // measure 32
1000
0100
0010
0001
,  // measure 33
0010
0001
0010
0001
,  // measure 34
0010
0100
1000
0010
,  // measure 35
0200
0000
0000
0000
,  // measure 36
0310
0000
0000
0000
,  // measure 37
1001
0000
0000
0000
,  // measure 38
0100
0000
0000
0000
,  // measure 39
1001
0000
0000
0000
,  // measure 40
1001
0000
0000
0002
,  // measure 41
2000
0000
0000
3003
,  // measure 42
0220
0000
0000
0330
,  // measure 43
0220
0000
0000
0000
,  // measure 44
0330
0000
0000
0000
,  // measure 45
2002
0000
0000
3003
,  // measure 46
1001
0010
0001
0010
,  // measure 47
0001
0010
0100
1000
,  // measure 48
0100
1000
0100
1000
,  // measure 49
0100
0010
0001
0100
,  // measure 50
0001
0100
0001
0010
,  // measure 51
0100
1000
0100
0010
,  // measure 52
0001
0100
0010
1000
,  // measure 53
0020
0000
0000
0000
,  // measure 54
0130
0100
0010
0010
,  // measure 55
1000
0100
0010
0001
,  // measure 56
0010
0010
0100
0100
,  // measure 57
1000
0010
0100
0001
,  // measure 58
0010
0010
0001
0001
,  // measure 59
1000
1000
0100
0100
,  // measure 60
0010
0010
0001
0001
,  // measure 61
0010
0100
1000
0001
,  // measure 62
0000
0000
0000
0000
,  // measure 63
1001
0000
0000
0000
;

//---------------dance-single - ----------------
#NOTES:
     dance-single:
     :
     Hard:
     8:
     0.468,0.462,0.165,0.217,0.152: // measure 1
0001
0001
1000
1000
,  // measure 2
0010
0000
0000
0010
0000
0000
0010
0000
0100
0000
0000
0000
0001
0000
0000
0000
,  // measure 3
0110
0000
0000
0000
1000
0000
0000
0000
0010
0000
0000
0010
0000
0000
0020
0000
,  // measure 4
0200
0000
0000
0000
0000
0000
0000
0330
,  // measure 5
0000
1000
0000
0000
1001
0000
0000
0000
0001
0000
1000
0000
0001
0000
0000
0000
,  // measure 6
1000
0010
0100
0010
1000
0100
0010
0100
,  // measure 7
1000
0000
0000
1000
0000
0000
1000
0000
0001
0000
0100
0000
0100
0000
0000
0000
,  // measure 8
0001
0100
0010
0100
0001
0010
0100
0010
,  // measure 9
0001
0000
0000
0001
0000
0000
0001
0000
1000
0000
0000
0000
1001
0000
0000
0000
,  // measure 10
0001
0100
0010
0100
0001
0010
0100
0010
,  // measure 11
0001
0000
0000
0001
0000
0000
0001
0000
1000
0000
0010
0000
0010
0000
0000
0000
,  // measure 12
1000
0000
0010
0000
0100
0000
0010
0000
1000
0000
0000
0001
0000
0000
0200
0000
,  // measure 13
0020
0000
0000
0330
,  // measure 14
0000
0001
0000
0000
1001
0000
0000
0000
1000
0000
0001
0000
1000
0000
0000
0000
,  // measure 15
0010
0100
0010
1000
0100
0001
0100
1000
,  // measure 16
0001
0100
0010
0100
0001
0010
0100
1000
,  // measure 17
0010
0100
0010
1000
0100
0001
0100
1000
,  // measure 18
0001
0000
0000
0100
0000
0010
0000
0100
0000
0001
0000
1000
0000
0001
0000
0000
,  // measure 19
0100
0010
0100
0001
0010
1000
0010
0001
,  // measure 20
1000
0010
0100
0010
1000
0100
0010
0001
,  // measure 21
0100
0010
0100
0001
0010
1000
0010
0001
,  // measure 22
2000
0001
0001
3001
,  // measure 23
1001
0100
0010
0001
,  // measure 24
0100
1000
0100
0001
,  // measure 25
0200
0010
0310
1000
,  // measure 26
0020
0100
0130
0001
,  // measure 27
1001
0010
0100
1000
,  // measure 28
0100
0001
0100
1000
,  // measure 29
0020
0100
0130
0001
,  // measure 30
2000
0001
0001
3001
,  // measure 31
2001
0000
0100
0000
3100
0010
0100
0000
,  // measure 32
1000
0001
1000
0000
0001
0000
1001
0000
,  // measure 33
0002
0000
0010
0000
0013
0100
0010
0000
,  // measure 34
0001
1000
0001
0000
0010
0100
1000
0002
,  // measure 35
2000
0000
0000
3003
,  // measure 36
1100
0000
0000
0000
,  // measure 37
2001
0000
0000
0001
0000
0000
0002
0000
0000
0000
0000
0000
3003
0000
0000
0000
,  // measure 38
0011
0000
0000
0000
,  // measure 39
1002
0000
0000
1000
0000
0000
2000
0000
0000
0000
0000
0000
3003
0000
0000
0000
,  // measure 40
1000
0000
0000
0010
0000
0000
0100
0000
0001
0000
0000
0000
1001
0000
0000
0000
,  // measure 41
0220
0000
0000
0330
,  // measure 42
0001
0000
0000
0100
0000
0000
0010
0000
1000
0000
0000
0000
1000
0000
0000
0000
,  // measure 43
2001
0000
0000
0000
0000
0000
0000
0000
0001
0000
0000
0001
0000
0000
3001
0000
,  // measure 44
0000
0100
0000
0000
0101
0000
0000
0000
1000
0000
0100
0000
0010
0000
0001
0000
,  // measure 45
0000
0100
0000
0000
0101
0000
0000
0000
1000
0000
0100
0000
0010
0000
0000
0000
,  // measure 46
0001
0010
0100
1000
0001
0000
0100
0010
,  // measure 47
0100
0001
0010
1000
0010
0100
1000
0000
,  // measure 48
0001
0010
0100
1000
0001
0000
0100
0010
,  // measure 49
0100
0000
0000
0001
0000
0000
1000
0000
0100
0000
0000
0000
1001
0000
0000
0000
,  // measure 50
1000
0100
0010
0001
1000
0000
0010
0100
,  // measure 51
0010
1000
0100
0001
0100
0010
0001
0000
,  // measure 52
1000
0000
0100
0000
0010
0000
0001
0000
0100
0000
0000
0010
0000
0000
2000
0000
,  // measure 53
0002
0000
0000
3003
,  // measure 54
0001
0100
0010
0100
0001
0010
1000
0010
,  // measure 55
0001
1000
0100
0001
0100
1000
0001
0001
,  // measure 56
0100
0010
0100
0001
0010
1000
0010
0001
,  // measure 57
1000
0000
0000
0010
0000
0100
0000
0010
0000
1000
0000
0001
0000
1000
0000
0000
,  // measure 58
0001
0100
0010
0100
0001
0010
1000
0010
,  // measure 59
0001
1000
0100
0001
0100
1000
0001
0001
,  // measure 60
0100
0010
0100
0001
0010
1000
0010
0001
,  // measure 61
1000
0000
0000
0010
0000
0100
0000
0010
0000
1000
0000
0001
0000
1000
0000
0000
,  // measure 62
2000
0000
0000
3000
,  // measure 63
2002
0000
0000
3003
;

//---------------dance-single - ----------------
#NOTES:
     dance-single:
     :
     Challenge:
     9:
     0.596,0.598,0.251,0.165,0.481: // measure 1
1000
0000
1000
0000
0001
0000
0001
0100
,  // measure 2
1000
0000
0000
1000
0000
0000
0100
0000
0001
0000
0000
0000
1001
0000
0000
0000
,  // measure 3
1000
0000
0100
0000
0010
0000
0001
0000
1000
0000
0000
0100
0000
0000
0001
0000
,  // measure 4
0220
0000
0000
0000
0000
0000
0000
0330
,  // measure 5
0000
1100
0000
0000
1100
0000
0000
0000
0010
0000
0001
0000
1000
0000
0000
0000
,  // measure 6
0001
0100
0001
0000
0100
0000
0001
1000
0000
0001
1000
0000
0100
0000
0010
0000
,  // measure 7
0100
0000
0000
1000
0000
0000
0001
0000
0010
0000
0001
0000
1000
0010
0000
0000
,  // measure 8
1000
0010
1000
0000
0010
0000
1000
0001
0000
1000
0001
0000
0010
0000
0100
0000
,  // measure 9
0010
0000
0000
0001
0000
0000
1000
0000
0100
0000
0000
0000
1001
0000
0000
0000
,  // measure 10
0001
0010
0001
0000
0010
0000
0001
1000
0000
0001
1000
0000
0100
0000
0010
0000
,  // measure 11
0100
0000
0000
1000
0000
0000
0001
0000
0100
0000
0001
0000
1000
0100
0000
0000
,  // measure 12
1000
0100
1000
0000
0001
0000
0010
0000
0100
0000
0000
1000
0000
0000
0002
0000
,  // measure 13
0200
0000
0000
0000
0000
0000
0000
0303
,  // measure 14
0000
0101
0000
0000
0101
0000
0000
0000
0010
0000
1000
0000
0001
0000
0000
0000
,  // measure 15
1000
0000
0100
1000
0100
1000
0100
0000
0010
0000
0001
0000
1000
0010
0000
0100
,  // measure 16
0010
0000
0100
0000
0001
0000
0010
0100
0000
0010
0100
0000
1000
0000
1000
0000
,  // measure 17
0001
0000
0010
0001
0010
0001
0010
0000
0100
0000
1000
0000
0001
0100
0000
0010
,  // measure 18
0100
0000
0010
1000
0000
0100
0000
0010
0000
0001
0000
0010
0000
0100
1000
0000
,  // measure 19
0001
0000
0100
0001
0100
0001
0100
0000
0010
0000
1000
0000
0001
0100
0000
0010
,  // measure 20
0100
0000
0010
0000
1000
0000
0100
0010
0000
0100
0010
0000
0001
0000
0001
0000
,  // measure 21
1000
0000
0010
1000
0010
1000
0010
0000
0100
0000
0001
0000
1000
0010
0000
0100
,  // measure 22
0010
0000
0100
0001
0000
0010
0000
0100
0000
1000
0000
0100
0000
0010
0001
0000
,  // measure 23
1000
0100
1000
0000
0010
0100
0010
0000
,  // measure 24
1000
0100
1000
0001
0010
0100
1000
0001
,  // measure 25
0200
0310
1001
1000
,  // measure 26
0020
0000
0130
0000
1001
0000
0001
0001
,  // measure 27
0001
0010
0001
0000
0100
0010
0100
0000
,  // measure 28
0001
0010
0001
1000
0100
0010
0001
1000
,  // measure 29
0020
0130
1001
1000
,  // measure 30
0002
1000
1000
1003
,  // measure 31
1001
0000
1100
0000
0010
0001
0100
0000
,  // measure 32
0010
0100
0010
0000
1001
0000
0011
0000
,  // measure 33
0100
1000
0010
0000
0100
0010
0100
0001
,  // measure 34
0020
0000
0100
0000
0130
1000
0001
0000
,  // measure 35
2002
0000
0000
3003
,  // measure 36
0102
0100
0100
0003
,  // measure 37
1001
0000
0000
1000
0000
0000
1000
0000
0001
0000
0000
0000
0000
0000
0000
0000
,  // measure 38
2010
0010
0010
3000
,  // measure 39
1001
0000
0000
0001
0000
0000
0001
0000
1000
0000
0000
0000
0000
0000
0000
0000
,  // measure 40
1100
0000
0000
1100
0000
0000
1000
0000
0001
0000
0000
0000
1001
0000
0000
0000
,  // measure 41
0220
0000
0000
0330
,  // measure 42
0101
0000
0000
0101
0000
0000
0001
0000
1000
0000
0000
0000
1000
0000
0000
0000
,  // measure 43
1002
0000
0000
0000
0000
0000
0000
0000
0010
0000
0000
0010
0000
0000
0013
0000
,  // measure 44
0000
1100
0000
0000
1001
0000
0000
0000
1000
0000
0100
0000
0001
0000
0100
1000
,  // measure 45
0000
0001
0000
0000
0101
0000
0000
0000
0010
0000
1000
0000
0001
0000
0000
0000
,  // measure 46
1000
0010
1000
0000
0010
0000
1000
0000
0001
0010
0001
0000
0010
0001
0010
0000
,  // measure 47
0100
1000
0000
0100
1000
0000
0001
0000
0010
0000
0100
0000
1000
0001
0000
0000
,  // measure 48
0100
0001
0100
0000
0001
0000
0010
0000
0100
1000
0100
0000
1000
0100
1000
0000
,  // measure 49
0001
0100
0000
0001
0100
0000
0001
0000
0010
0000
0100
0000
1000
0001
1000
0000
,  // measure 50
0001
0100
0001
0000
0100
0000
0001
0000
1000
0100
1000
0000
0100
1000
0100
0000
,  // measure 51
1000
0001
0000
1000
0001
0000
0010
0000
0100
0000
1000
0000
0010
0100
0000
0000
,  // measure 52
0001
0000
0010
0000
0100
0000
1000
0000
0010
0000
0000
0100
0000
0000
0002
0000
,  // measure 53
2000
0000
0000
3003
,  // measure 54
1000
0000
0001
0100
0001
0100
0001
0000
0010
0000
0100
0000
1000
0010
0000
0100
,  // measure 55
0010
0000
0100
0000
0001
0000
0010
0100
0000
0010
0100
0000
1000
0000
1000
0000
,  // measure 56
0001
0000
1000
0010
1000
0010
1000
0000
0100
0000
0010
0000
0001
0100
0000
0010
,  // measure 57
0100
0000
0010
1000
0000
0100
0000
0010
0000
0001
0000
0100
0000
0010
1000
0000
,  // measure 58
0001
0000
1000
0100
1000
0100
1000
0000
0001
0000
0100
0000
0001
0100
0000
0010
,  // measure 59
0100
0000
0010
0000
1000
0000
0100
0010
0000
0100
0010
0000
0001
0000
0001
0000
,  // measure 60
1000
0000
0001
0010
0001
0010
0001
0000
1000
0000
0010
0000
1000
0010
0000
0100
,  // measure 61
0010
0000
0100
0001
0000
0010
0000
0100
0000
1000
0000
0001
0000
0100
0010
0000
,  // measure 62
1000
0100
0010
0001
1000
0100
0010
0001
,  // measure 63
2000
0000
0000
3000
;

//---------------dance-single - ----------------
#NOTES:
     dance-single:
     :
     Beginner:
     1:
     0.068,0.107,0.061,0.000,0.000: // measure 1
0000
0000
0000
0000
,  // measure 2
0000
0000
0000
0000
,  // measure 3
0000
0000
0000
0000
,  // measure 4
0000
0000
0000
0000
,  // measure 5
0000
0000
0000
0000
,  // measure 6
1000
0000
0000
0000
,  // measure 7
0001
0000
0000
0000
,  // measure 8
1000
0000
0000
0000
,  // measure 9
0001
0000
0000
0000
,  // measure 10
1001
0000
0000
0000
,  // measure 11
0010
0000
0000
0000
,  // measure 12
0100
0000
0000
0000
,  // measure 13
0010
0000
0000
0000
,  // measure 14
0000
0000
0000
0000
,  // measure 15
1000
0000
0000
0000
,  // measure 16
0100
0000
0000
0000
,  // measure 17
1000
0000
0000
0000
,  // measure 18
0001
0000
0000
0000
,  // measure 19
0010
0000
0000
0000
,  // measure 20
0001
0000
0000
0000
,  // measure 21
1000
0000
0000
0000
,  // measure 22
0001
0000
0000
0000
,  // measure 23
1000
0000
0000
0000
,  // measure 24
0000
0000
0000
0000
,  // measure 25
0100
0000
0000
0000
,  // measure 26
0000
0000
0000
0000
,  // measure 27
1001
0000
0000
0000
,  // measure 28
0000
0000
0000
0000
,  // measure 29
0010
0000
0000
0000
,  // measure 30
1001
0000
0000
0000
,  // measure 31
1000
0000
0000
0000
,  // measure 32
0001
0000
0000
0000
,  // measure 33
1000
0000
0000
0000
,  // measure 34
0001
0000
0000
0000
,  // measure 35
1001
0000
0000
0000
,  // measure 36
1000
0000
0000
0000
,  // measure 37
0000
0000
0000
0000
,  // measure 38
1000
0000
0000
0000
,  // measure 39
0000
0000
0000
0000
,  // measure 40
0001
0000
0000
0000
,  // measure 41
0000
0000
0000
0000
,  // measure 42
0001
0000
0000
0000
,  // measure 43
0000
0000
0000
0000
,  // measure 44
0000
0000
0000
0000
,  // measure 45
0010
0000
0000
0000
,  // measure 46
1001
0000
0000
0000
,  // measure 47
0100
0000
0000
0000
,  // measure 48
0010
0000
0000
0000
,  // measure 49
0100
0000
0000
0000
,  // measure 50
0001
0000
0000
0000
,  // measure 51
1000
0000
0000
0000
,  // measure 52
0001
0000
0000
0000
,  // measure 53
1001
0000
0000
0000
,  // measure 54
0100
0000
0000
0000
,  // measure 55
0010
0000
0000
0000
,  // measure 56
0100
0000
0000
0000
,  // measure 57
0010
0000
0000
0000
,  // measure 58
1000
0000
0000
0000
,  // measure 59
0001
0000
0000
0000
,  // measure 60
1000
0000
0000
0000
,  // measure 61
0010
0000
0000
0000
,  // measure 62
0000
0000
0000
0000
,  // measure 63
1001
0000
0000
0000
;

//---------------dance-single - ----------------
#NOTES:
     dance-single:
     :
     Medium:
     5:
     0.364,0.403,0.165,0.199,0.017: // measure 1
0001
0000
0001
0000
1000
0000
1000
0001
,  // measure 2
2000
0000
0000
3010
,  // measure 3
0110
0000
0001
0000
2000
0000
0000
0001
,  // measure 4
0002
0000
0000
3003
,  // measure 5
0000
0100
0000
0000
0100
0000
0000
0000
0100
0000
0010
0000
0100
0000
0000
0000
,  // measure 6
1001
0000
0100
0000
1000
0000
0100
1000
,  // measure 7
0010
0100
0010
0000
1000
0001
1000
0000
,  // measure 8
0100
0010
0001
1000
,  // measure 9
1002
1000
1000
1003
,  // measure 10
1001
0000
0010
0000
0001
0000
0010
0001
,  // measure 11
0100
0010
0100
0000
0001
1000
0001
0000
,  // measure 12
0010
0100
1000
0001
,  // measure 13
0220
0000
0000
0330
,  // measure 14
0000
0010
0000
0000
0010
0000
0000
0000
0010
0000
0100
0000
0010
0000
0000
0000
,  // measure 15
1000
0001
1000
0001
1000
0100
1000
0000
,  // measure 16
0010
0100
0010
1000
,  // measure 17
0001
1000
0001
1000
0001
0010
0001
0000
,  // measure 18
0100
0010
0100
0001
,  // measure 19
1000
0100
1000
0100
1000
0001
1000
0000
,  // measure 20
0010
0100
0010
0100
,  // measure 21
0001
0010
0001
0010
0001
1000
0001
0000
,  // measure 22
1002
1000
2000
0003
,  // measure 23
3001
0100
0001
0100
,  // measure 24
0001
1000
0100
0010
,  // measure 25
0002
0000
1003
0000
,  // measure 26
0020
0000
0130
0000
,  // measure 27
0110
1000
0100
0010
,  // measure 28
0001
0100
0010
1000
,  // measure 29
0002
0000
1003
0000
,  // measure 30
2002
0000
0000
3003
,  // measure 31
0110
0001
0010
0100
,  // measure 32
1000
0010
0100
0001
,  // measure 33
1000
0001
1000
0001
,  // measure 34
0010
0100
1000
0001
,  // measure 35
2002
0000
0000
3003
,  // measure 36
1100
0000
0000
0000
,  // measure 37
1001
0000
0000
0000
,  // measure 38
0011
0000
0000
0000
,  // measure 39
1001
0000
0000
0000
,  // measure 40
2002
0000
0000
3003
,  // measure 41
0200
0000
0000
0000
,  // measure 42
0320
0000
0000
0000
,  // measure 43
0130
0000
0000
0000
,  // measure 44
0000
0001
0000
0000
0001
0000
0000
0000
0001
0000
1000
0000
0001
0000
0000
0000
,  // measure 45
0000
1000
0000
0000
1000
0000
0000
0000
1000
0000
0001
0000
1000
0000
0000
0000
,  // measure 46
1001
0000
0001
0000
1000
0000
0010
0100
,  // measure 47
0010
1000
0001
0000
1000
0100
0010
0000
,  // measure 48
1001
0000
1000
0000
0001
0000
0100
0010
,  // measure 49
0100
0001
1000
0000
0001
0010
0100
0000
,  // measure 50
1001
0000
0001
0000
1000
0000
0010
0100
,  // measure 51
0001
1000
0001
0000
0010
0100
1000
0000
,  // measure 52
0010
0100
0010
0100
0002
0000
1000
0000
,  // measure 53
2000
0000
0000
3003
,  // measure 54
0001
0100
0010
0100
0001
1000
0001
0000
,  // measure 55
0100
0010
0100
0000
0010
0100
0010
0000
,  // measure 56
1000
0010
0100
0010
1000
0001
1000
0000
,  // measure 57
0010
0100
0020
0000
1000
0000
1030
0000
,  // measure 58
1000
0010
0100
0010
1000
0001
1000
0000
,  // measure 59
0010
0100
0010
0000
0100
0010
0100
0000
,  // measure 60
0001
0100
0010
0100
0001
1000
0001
0000
,  // measure 61
1001
0000
0001
0010
0100
1000
0010
0100
,  // measure 62
0002
0000
0000
0000
,  // measure 63
1003
0000
0000
0000
;
