#TITLE:Lost my music;
#SUBTITLE:(TV ver.);
#ARTIST:ENOZ featuring 涼宮ハルヒ;
#TITLETRANSLIT:;
#SUBTITLETRANSLIT:;
#ARTISTTRANSLIT:ENOZ featuring HARUHI SUZUMIYA;
#CREDIT:DigiMindAxel;
#BANNER:Lost my music (TV ver.).png;
#BACKGROUND:Lost my music (TV ver.)-bg.png;
#LYRICSPATH:Lost my music (TV ver.).lrc;
#CDTITLE:DMAxel original simfile.png;
#MUSIC:Lost my music (TV ver.).mp3;
#OFFSET:-7.900;
#SAMPLESTART:50.440;
#SAMPLELENGTH:12.000;
#SELECTABLE:YES;
#BPMS:0.000=200.000;
#STOPS:;
#BGCHANGES:;

//---------------dance-single - ----------------
#NOTES:
     dance-single:
     :
     Easy:
     3:
     0.239,0.318,0.165,0.224,0.000:
2002
0000
0000
3003
,
0200
0000
0000
0300
,
0020
0000
0000
0030
,
0100
0000
0001
1000
,
0001
0000
0100
0000
,
0001
0000
0100
0000
,
0010
0000
1000
0000
,
0010
0000
1000
0000
,
0001
0000
1000
0000
,
0001
0000
0010
0000
,
0100
0000
1000
0000
,
0010
0000
0100
0000
,
0001
0000
0100
0000
,
0010
0000
0100
0000
,
0020
0000
0100
0000
,
0130
0000
0001
1000
,
0001
0000
1000
0000
,
0001
0000
0010
0000
,
0001
0000
0010
0000
,
0100
0000
1000
0000
,
2001
0000
0000
0000
,
3001
0000
1000
0000
,
0002
0000
0000
0000
,
1003
0000
0001
0000
,
2000
0000
0000
0000
,
3020
0000
0000
0030
,
0200
0000
0000
0000
,
0301
0000
1000
0000
,
1001
0000
0000
0000
,
0010
0000
0001
0000
,
0010
0000
0000
0000
,
0100
0000
1000
0000
,
0100
0000
0000
0000
,
1000
0000
0001
0000
,
1000
0000
0000
0000
,
2002
0000
0000
3003
,
0002
0000
0000
0000
,
1003
0010
0100
0010
,
2000
0000
0000
3000
,
1001
0000
0001
0100
,
0010
0100
0001
0000
,
1000
0000
0001
0000
,
1000
0000
1000
0000
,
1000
0000
0000
0000
,
0002
0000
0000
0000
,
1003
0100
0010
0100
,
2000
0000
0000
0000
,
3001
0000
1000
0000
,
0001
0100
0001
0000
,
1000
0010
1000
0000
,
0020
0000
0000
0000
,
0130
0000
0000
0000
,
1001
0000
1001
0000
,
1001
0000
1001
0000
,
0010
0000
0100
0000
,
0010
0000
0000
0000
,
1001
0000
1001
0000
,
1001
0000
1001
0000
,
0100
0000
0010
0000
,
0100
0000
0000
2002
,
3003
0000
0000
0000
;

//---------------dance-single - ----------------
#NOTES:
     dance-single:
     :
     Medium:
     5:
     0.387,0.459,0.141,0.141,0.000:
2000
0000
0000
3001
,
0200
0000
0000
0301
,
0020
0000
0000
0031
,
1000
0001
0110
0110
,
2000
0000
3010
0100
,
0001
0010
0100
1000
,
0001
0000
0001
1000
,
0100
0010
0001
1000
,
0010
0000
0010
0100
,
0001
0010
0100
1000
,
0100
0010
0000
0010
,
0001
0010
0000
0100
,
1000
0010
0100
0100
,
0001
0010
0100
1000
,
0020
0000
0000
0100
,
0130
0000
0001
1000
,
1001
0000
0000
0010
,
0001
0010
0100
1000
,
0100
0000
0010
0000
,
0100
0000
1000
0000
0001
1000
0001
0000
,
1001
0000
1000
0001
,
0010
0100
1000
0010
,
0100
0000
0100
0010
,
0100
0001
0010
0100
,
1000
0010
0100
0000
,
0001
0100
0010
0000
,
1000
0100
0001
0000
,
0100
1000
0001
0000
,
1001
0000
1000
0001
,
0010
0100
1000
0010
,
0200
0000
0000
0001
,
0301
0000
1000
0100
,
0010
0001
0100
0000
,
0010
1000
0100
0000
,
0010
0001
0010
0100
,
1000
1001
0001
1001
,
2000
0000
0000
3001
,
0100
1000
0100
0001
,
0200
0000
0000
0010
,
0310
0000
1000
0100
,
0010
0001
1000
0010
,
0100
0001
0100
1000
,
0100
0001
1000
0000
,
0100
0000
0010
0000
0001
1000
0001
1000
,
0002
0000
0000
0100
,
0103
0001
0010
0100
,
2000
0000
0000
0010
,
3010
0000
1000
0100
,
0010
0001
1000
0010
,
0100
0001
0010
1000
,
0010
0001
1000
0000
,
0001
1000
0000
0001
1000
0000
0001
0000
,
1000
1100
1000
1100
,
0001
0010
0100
1000
,
0010
0100
0010
0000
0100
0010
0100
0000
,
0001
0010
0100
1000
,
0001
0101
0001
0101
,
1000
0010
0100
0001
,
1000
0000
1000
0000
0001
0100
0000
0010
,
0000
1000
0001
1000
0001
0000
2002
0000
,
3003
0000
0000
0000
;

//---------------dance-single - ----------------
#NOTES:
     dance-single:
     :
     Hard:
     8:
     0.668,0.601,0.483,0.448,0.000: // measure 1
0002
1000
0000
1003
,  // measure 2
0020
0100
0000
0130
,  // measure 3
0001
2000
0000
0001
,  // measure 4
3001
0000
1000
0000
0010
0100
0010
1000
,  // measure 5
0001
0000
1001
0000
0001
0100
0010
0000
,  // measure 6
2000
3200
0302
0103
,  // measure 7
1000
0100
0010
0000
0100
1000
0001
0000
,  // measure 8
0201
2300
3200
0301
,  // measure 9
1000
0010
0100
0000
0001
0010
0100
0000
,  // measure 10
0010
0001
0100
0000
0001
0010
0100
1000
,  // measure 11
0010
0100
0010
0000
1000
0200
0000
0000
,  // measure 12
0310
0001
1000
0000
0001
0200
0000
0000
,  // measure 13
0310
1000
0001
0000
1000
0010
0100
0000
,  // measure 14
0002
0203
2300
3100
,  // measure 15
0001
0010
0100
1000
0100
0010
0001
0000
,  // measure 16
0200
0000
0001
0000
0310
1000
0100
0000
,  // measure 17
1001
0000
1100
0000
0010
1000
0100
0000
,  // measure 18
1001
0000
0101
0000
0010
0001
0100
0000
,  // measure 19
0001
0010
0100
0000
0010
0001
1000
0010
,  // measure 20
0200
0000
0302
0000
1003
0100
0001
0100
,  // measure 21
2000
0100
0001
3100
,  // measure 22
1000
0001
0010
0100
1000
0010
0100
0000
,  // measure 23
0002
1000
0100
1003
,  // measure 24
0001
1000
0010
0100
0001
0010
0100
0000
,  // measure 25
1000
0000
1100
0000
0010
0100
1000
0000
,  // measure 26
0001
0000
0011
0000
0100
0010
0001
0000
,  // measure 27
1000
0000
1010
0000
0100
0010
1000
0000
,  // measure 28
0001
0000
0101
0000
0010
0001
0100
0000
,  // measure 29
1001
0000
0001
1000
0020
0000
0230
0000
,  // measure 30
0301
0010
0100
1000
0001
0000
0101
0000
,  // measure 31
2001
0100
3001
1001
,  // measure 32
1000
0100
0010
0001
1000
0000
1100
0000
,  // measure 33
1001
0000
0001
0100
0020
0000
2030
0000
,  // measure 34
3001
0010
0100
0000
0010
0001
0100
0000
,  // measure 35
1002
0100
1003
1001
,  // measure 36
1000
0100
0001
0100
1000
0001
0010
0001
,  // measure 37
0100
1010
0100
1010
,  // measure 38
0100
0000
0001
0010
1000
0010
0001
0100
,  // measure 39
0010
0101
0010
0101
,  // measure 40
0110
0000
1000
0000
0001
0010
0100
1000
,  // measure 41
0002
0023
2030
3020
,  // measure 42
0031
0100
0010
0000
1000
0100
0010
0000
,  // measure 43
0001
0010
1000
0020
0000
0031
0100
0010
,  // measure 44
1000
0200
0000
1300
0100
0010
0001
0100
,  // measure 45
0010
0101
0010
0101
,  // measure 46
0010
0000
1000
0100
0001
0100
1000
0000
,  // measure 47
0100
1010
0100
1010
,  // measure 48
0110
0000
0001
0000
1000
0100
0010
0001
,  // measure 49
2000
3200
0302
0203
,  // measure 50
1300
0010
0100
0000
0001
0010
0100
0000
,  // measure 51
1000
0100
0001
0200
0000
1300
0001
0100
,  // measure 52
0010
1000
0000
1000
0001
0000
0001
0100
,  // measure 53
0010
0110
1100
1100
,  // measure 54
1000
0100
0001
0100
1000
0000
0100
0000
,  // measure 55
1100
1100
0101
0101
,  // measure 56
0001
0100
1000
0100
0001
0000
1000
0010
,  // measure 57
0100
0110
0011
0011
,  // measure 58
0001
0010
1000
0010
0001
0000
1000
0100
,  // measure 59
0010
0000
0101
0000
1000
0100
0000
1010
,  // measure 60
0000
0100
0001
0100
1000
0000
2002
0000
,  // measure 61
3003
0000
0000
0000
;

//---------------dance-single - ----------------
#NOTES:
     dance-single:
     :
     Beginner:
     1:
     0.103,0.211,0.118,0.000,0.000:
1000
0000
0000
0000
,
1000
0000
0000
0000
,
1000
0000
0000
0000
,
1000
0000
1001
0000
,
0001
0000
0000
0000
,
0000
0000
0000
0000
,
1000
0000
0000
0000
,
0000
0000
0000
0000
,
0001
0000
0000
0000
,
0100
0000
0000
0000
,
0010
0000
0000
0000
,
0100
0000
0000
0000
,
0001
0000
0000
0000
,
0000
0000
0000
0000
,
1000
0000
0000
0000
,
0000
0000
0000
0000
,
0001
0000
0000
0000
,
0010
0000
0000
0000
,
0100
0000
0000
0000
,
0010
0000
0000
0000
,
1001
0000
0000
0000
,
0000
0000
0000
0000
,
0001
0000
0000
0000
,
0000
0000
0000
0000
,
1000
0000
0000
0000
,
1000
0000
0000
0000
,
1000
0000
0000
0000
,
0001
0000
0000
0000
,
1001
0000
0000
0000
,
0000
0000
0000
0000
,
0010
0000
0000
0000
,
0100
0000
0000
0000
,
0010
0000
0000
0000
,
0010
0000
0000
0000
,
0010
0000
0000
0000
,
0100
0000
0000
0000
,
0110
0000
0000
0000
,
0000
0000
0000
0000
,
0001
0000
0000
0000
,
0000
0000
0000
0000
,
1000
0000
0000
0000
,
1000
0000
0000
0000
,
1000
0000
0000
0000
,
0000
0000
0000
0000
,
0110
0000
0000
0000
,
0000
0000
0000
0000
,
1000
0000
0000
0000
,
0000
0000
0000
0000
,
0001
0000
0000
0000
,
0001
0000
0000
0000
,
0001
0000
0000
0000
,
0000
0000
0000
0000
,
1001
0000
1000
0000
,
0001
0000
0000
0000
,
1001
0000
0001
0000
,
1000
0000
0000
0000
,
1001
0000
1000
0000
,
0001
0000
0000
0000
,
1001
0000
0000
0000
,
0000
0000
0000
1001
;
