#TITLE:Linus;
#SUBTITLE:;
#ARTIST:LEGO STUDIO;
#TITLETRANSLIT:;
#SUBTITLETRANSLIT:;
#ARTISTTRANSLIT:;
#CREDIT:DigiMindAxel;
#BANNER:Linus.png;
#BACKGROUND:Linus-bg.png;
#LYRICSPATH:;
#CDTITLE:beatmania IIDX.png;
#MUSIC:Linus.mp3;
#OFFSET:-7.231;
#SAMPLESTART:19.497;
#SAMPLELENGTH:12.000;
#SELECTABLE:YES;
#BPMS:0.000=176.000,34.979=160.000,36.000=176.000,100.000=172.000,132.000=168.000,196.000=170.000,208.000=169.000,209.021=170.000,210.021=171.000,211.000=172.000,212.000=173.000,212.771=174.000,213.583=175.000,214.354=176.000,215.188=166.000,215.979=176.000;
#STOPS:;
#BGCHANGES:-28.000=Linus.avi=1.000=1=0=1,
99999=-nosongbg-=1.000=0=0=0 // don't automatically add -songbackground-
;

//---------------dance-single - ----------------
#NOTES:
     dance-single:
     :
     Easy:
     4:
     0.354,0.388,0.123,0.096,0.000: // measure 1
1000
0001
1000
0001
,  // measure 2
0100
0010
0100
0010
,  // measure 3
1000
0001
1000
0001
,  // measure 4
0010
0100
1000
0010
,  // measure 5
0100
0010
0100
0010
,  // measure 6
1000
0001
1000
0100
,  // measure 7
1000
0100
1000
0010
,  // measure 8
0100
0001
0010
0100
,  // measure 9
1000
1000
1000
0000
,  // measure 10
0001
1000
0001
1000
,  // measure 11
0001
0100
0001
0100
,  // measure 12
0000
1000
0010
1000
,  // measure 13
0100
0010
0001
1000
,  // measure 14
0010
0100
0010
0100
,  // measure 15
0010
1000
0010
1000
,  // measure 16
0100
1000
0100
1000
,  // measure 17
0100
0010
0001
0100
,  // measure 18
0010
0100
0010
0100
,  // measure 19
0010
0100
0001
0100
,  // measure 20
0001
0100
0001
0010
,  // measure 21
0100
1000
0010
0100
,  // measure 22
0001
1000
0001
1000
,  // measure 23
0010
0100
0010
1000
,  // measure 24
0002
0000
1000
0000
,  // measure 25
2003
0000
0001
3000
,  // measure 26
1001
0000
0010
0100
,  // measure 27
0110
0000
0001
1000
,  // measure 28
1001
0000
0100
0010
,  // measure 29
0110
0100
0100
0100
,  // measure 30
1001
0001
0001
0001
,  // measure 31
0110
0010
0010
0010
,  // measure 32
1001
1000
1000
1000
,  // measure 33
0010
0100
0001
0010
,  // measure 34
0002
0000
0000
1003
,  // measure 35
0100
0010
0001
1000
,  // measure 36
0020
0000
0000
0130
,  // measure 37
0001
0010
0100
1000
,  // measure 38
0002
0000
0000
1003
,  // measure 39
0100
0010
0001
1000
,  // measure 40
0020
0000
0000
0130
,  // measure 41
0000
0200
0000
0000
,  // measure 42
0301
0010
0001
1001
,  // measure 43
1000
0100
1000
1001
,  // measure 44
0001
0100
0001
1001
,  // measure 45
1000
0010
1000
1001
,  // measure 46
0010
0100
0010
0110
,  // measure 47
0100
0010
0100
0110
,  // measure 48
0001
0010
0001
1001
,  // measure 49
1000
0100
0010
0001
,  // measure 50
2000
0000
0000
0000
,  // measure 51
3000
0000
0000
0000
,  // measure 52
0001
1000
0001
1000
,  // measure 53
0010
0100
0010
0100
,  // measure 54
0010
0100
0010
0100
,  // measure 55
0010
0000
0100
0010
,  // measure 56
0100
0010
0100
0001
,  // measure 57
0100
0001
0100
0010
,  // measure 58
1000
0010
1000
0100
,  // measure 59
0010
0001
1000
0001
,  // measure 60
1000
0010
0100
0010
,  // measure 61
0100
0001
0100
0001
,  // measure 62
0100
0010
1000
0100
,  // measure 63
0010
0001
1000
0001
,  // measure 64
1000
0100
1000
0100
,  // measure 65
1000
0010
1000
0010
,  // measure 66
0100
0010
0100
0001
,  // measure 67
0100
0001
1000
0001
,  // measure 68
1000
0100
0010
0001
,  // measure 69
1000
0020
0000
0000
,  // measure 70
0130
0002
0000
0000
,  // measure 71
1003
0010
0100
0001
,  // measure 72
0100
0010
1000
0100
,  // measure 73
0010
0002
0000
0000
,  // measure 74
0000
0000
0000
0003
;

//---------------dance-single - ----------------
#NOTES:
     dance-single:
     :
     Medium:
     6:
     0.430,0.420,0.096,0.018,0.000: // measure 1
1001
0000
1000
0000
0001
0000
1000
0010
,  // measure 2
0000
0000
0100
0000
0010
0000
0100
0001
,  // measure 3
0000
0000
1000
0000
0100
0000
1000
0001
,  // measure 4
0000
0100
0000
0010
0000
0100
0000
0001
,  // measure 5
1000
0000
0100
0000
0010
0000
0001
1000
,  // measure 6
0000
0000
0010
0000
0100
0000
0010
1000
,  // measure 7
0000
0000
0001
0000
0010
0000
0001
0100
,  // measure 8
0000
0000
0010
0100
0010
0000
1000
0001
,  // measure 9
1000
1001
1001
0000
,  // measure 10
1000
0000
0100
0000
0010
0100
0000
0010
,  // measure 11
0000
0000
0000
0000
0001
0100
0000
0010
,  // measure 12
0000
0000
0000
0000
1000
0010
0000
0100
,  // measure 13
0000
0000
0001
0000
0100
0010
0100
0001
,  // measure 14
1000
0000
0100
0000
1000
0001
0000
0100
,  // measure 15
0001
0000
0000
0100
0010
0100
0000
0001
,  // measure 16
1000
0000
0100
0000
1000
0001
0000
0100
,  // measure 17
0001
0000
1000
0100
1000
0010
0100
0000
,  // measure 18
1001
0000
0010
0000
0100
0010
0000
0001
,  // measure 19
1000
0000
0000
0010
0100
0010
0000
1000
,  // measure 20
0001
0000
1000
0000
0010
0100
0000
0001
,  // measure 21
1000
0000
0010
0100
0010
0100
0010
0000
,  // measure 22
1000
0000
0010
0000
0100
0001
1000
0010
,  // measure 23
0000
1000
0000
0000
0000
0001
0100
0001
,  // measure 24
1000
0100
0000
1000
0000
0001
0000
0000
,  // measure 25
1000
0001
0000
0100
0000
0010
0000
0000
,  // measure 26
1001
0000
1000
0000
0001
0100
0001
1000
,  // measure 27
0000
0000
0000
0000
0100
1000
0010
0100
,  // measure 28
0000
0000
0000
0000
0010
0100
0001
0010
,  // measure 29
0000
0100
0000
1000
0000
0010
0000
0100
,  // measure 30
0001
0000
0001
0000
1000
0000
1000
0001
,  // measure 31
0100
0000
0100
0000
0010
0000
0010
1000
,  // measure 32
0001
0000
0001
0000
1000
0000
1000
0001
,  // measure 33
0100
0001
0010
0100
,  // measure 34
1000
0001
1000
0001
,  // measure 35
0010
1000
0010
0001
,  // measure 36
0100
0010
0100
0010
,  // measure 37
1000
0100
0001
0100
,  // measure 38
1000
0001
1000
0001
,  // measure 39
1000
0010
0001
0010
,  // measure 40
1000
0001
0100
0010
,  // measure 41
1000
0100
0001
0100
,  // measure 42
1000
0000
0001
0000
0100
0010
0100
0000
,  // measure 43
0001
0000
1000
0000
0010
0100
0010
0000
,  // measure 44
1000
0000
0001
0000
0100
0001
0100
0000
,  // measure 45
0001
0000
1000
0000
0010
1000
0010
0000
,  // measure 46
1000
0000
0001
0000
0010
0001
0010
0000
,  // measure 47
0001
0000
1000
0000
0100
1000
0100
0000
,  // measure 48
1000
0000
0001
0000
1000
0000
0001
0100
,  // measure 49
0000
0010
1000
0010
0000
0100
0010
0000
,  // measure 50
2000
0000
0000
0000
,  // measure 51
3000
0000
0000
0000
0001
1000
0001
1000
,  // measure 52
0001
0010
1000
0010
,  // measure 53
0001
1001
1000
1001
,  // measure 54
0001
1001
1000
1001
,  // measure 55
0000
0000
1001
0000
1000
0000
0010
0100
,  // measure 56
0000
0001
1000
0000
0010
0000
0100
0010
,  // measure 57
0000
1000
0001
0000
0010
0000
0100
1000
,  // measure 58
0000
0001
0100
0000
0001
0000
0100
0001
,  // measure 59
0000
1000
0100
0000
1000
0100
1000
0001
,  // measure 60
0000
0100
0001
0000
0000
0100
0010
0100
,  // measure 61
0000
0001
1000
0000
0001
0000
0100
0010
,  // measure 62
0000
1000
0001
0000
0010
0000
0100
0000
,  // measure 63
1000
0000
1001
0000
1000
0000
0010
0100
,  // measure 64
0000
0001
1000
0000
0000
0010
0100
0010
,  // measure 65
0000
1000
0001
0000
0100
0000
0010
0100
,  // measure 66
0000
0001
1000
0000
0010
0000
0100
0001
,  // measure 67
0000
1000
0100
0000
1000
0000
0001
0010
,  // measure 68
0100
1000
0000
0100
0000
0000
1000
0001
,  // measure 69
0100
0001
1000
0100
0000
0010
0000
0001
,  // measure 70
0000
0000
1000
0100
0000
0010
0000
0001
,  // measure 71
1000
0000
0001
0100
0000
0010
0000
1000
,  // measure 72
0001
0000
1000
0010
0000
0100
0000
0001
,  // measure 73
1000
0020
0000
0000
0000
0000
0000
0000
,  // measure 74
0000
0000
0000
0030
;

//---------------dance-single - ----------------
#NOTES:
     dance-single:
     :
     Challenge:
     9:
     0.694,0.840,0.307,0.333,0.188:
1001
0000
1000
0100
1000
0001
0100
0102
,
0000
0000
0000
0013
0100
1000
0010
2010
,
0000
0000
0000
3100
0010
0001
0100
0110
,
0000
0000
0100
0010
0000
0000
0010
1000
0000
0000
0001
1000
0001
0000
0010
0000
,
0100
0000
0010
0100
1000
0001
0100
0120
,
0000
0000
0000
0130
0010
0001
0100
0120
,
0000
0000
0000
0130
1000
0001
0100
0110
,
0000
0000
1000
0000
0001
0000
0000
0100
0001
0000
1000
0000
1000
0000
0100
0000
,
0010
0001
1000
0010
0100
0110
0000
0000
,
1100
0000
0101
0000
0010
0100
1000
0020
,
0000
0000
0130
0000
0001
0010
0100
0020
,
0000
0000
0130
0000
1000
0100
0010
0200
,
0000
0000
0000
0000
0310
0000
0000
0000
0001
0000
0100
0000
0010
1000
0010
1000
,
0010
0000
0100
0001
0010
0100
1000
0020
,
0000
0000
0130
0001
0100
0010
1000
0020
,
0000
0000
0130
0000
0001
0010
0100
1000
,
0001
0100
0001
0100
0001
0000
1000
0100
1000
0000
0001
0000
0100
0000
0000
0000
,
0101
0000
1100
0000
0010
0100
1000
0010
,
0100
0000
0010
0100
0001
0010
0100
1000
,
0010
0000
0100
0000
0001
0010
0100
1000
,
0010
0000
0000
0000
0100
0000
0001
0000
1000
0000
0100
0000
1000
0001
1000
0001
,
1000
0000
1001
0000
0001
0100
1000
0100
,
0000
0002
0000
0000
1003
0001
0010
0100
,
0010
0001
0000
0101
0000
0110
0000
0000
,
1000
0100
0010
0100
0000
1010
0000
0000
,
1001
0000
1100
0000
0010
0001
0100
0110
,
0000
0000
1000
0001
0010
0100
1000
1100
,
0000
0000
0001
1000
0100
0010
0001
0011
,
0000
0000
0001
0100
0000
0000
0100
0010
0000
0000
1000
0001
1000
0000
0001
0000
,
0010
0000
0011
0000
0100
1000
0001
0010
,
0100
0000
1100
0000
0010
0001
1000
0100
,
0010
0000
0101
0000
0001
0100
1000
0100
,
0001
1000
0001
1000
0001
0000
0100
0010
0100
0000
0001
0000
0010
0000
0100
0000
,
1001
0000
0101
0000
1000
0100
0001
0200
,
0000
2300
0000
3020
0000
0130
0001
1000
,
0100
0000
1100
0000
0010
0001
0010
1000
,
0010
0002
0000
0203
0000
0310
1000
0100
,
0010
0001
0100
2000
0000
3100
0001
0010
,
1000
0010
0001
0100
0000
0010
1000
0010
,
1000
0100
0001
0100
0000
1000
0100
0010
,
0000
0000
0001
0000
0100
0001
0100
0000
0000
0000
0001
0000
1000
0100
1000
0100
,
1000
0000
0100
0001
0100
1000
0001
0020
,
0000
2030
0000
3020
0000
0031
1000
0100
,
0010
0000
0100
1000
0010
0001
0010
2000
,
0000
3020
0000
0230
0000
0301
0010
0100
,
0010
0000
0001
0010
0100
2000
0000
3020
,
0000
0032
0000
0013
1000
0100
0010
0001
,
0200
0000
0010
0000
0310
1000
0100
0002
,
0000
0000
0103
0000
1000
0010
1000
0000
0000
0000
0001
0000
1000
0001
1000
0001
,
1000
0100
0010
0001
0000
1000
0100
0010
,
0001
0000
0000
0000
0000
0000
0000
0000
1000
0001
1000
0001
1000
0001
1000
0001
,
1000
0100
0010
0001
1000
0001
0010
0100
,
1000
0010
1000
0000
0001
0100
0001
0000
1000
0001
1000
0000
0001
1000
0001
0000
,
0010
0001
0010
0000
0100
1000
0100
0000
1000
0001
1000
0000
0001
1000
0001
1000
,
0001
0000
1001
0000
1000
0010
1000
0001
,
0010
0200
0000
0000
0310
0000
0001
0100
,
0001
2000
0000
0000
3100
0000
0010
0100
,
1000
0002
0000
0000
0103
0001
0010
0100
,
1000
0010
0110
0000
1000
0100
0001
0100
,
1000
0020
0000
0000
0130
0001
0010
1000
,
0010
0002
0000
0000
0103
0000
0010
1000
,
0100
0000
1000
0000
0001
0100
0001
0000
1000
0000
0001
1000
0001
1000
0001
0000
,
0100
0010
0110
0000
0001
0010
1000
0010
,
0001
0200
0000
0000
0301
0100
1000
0100
,
0001
0020
0000
0000
0031
0000
1000
0100
,
0001
0200
0000
0000
1300
0001
0010
1000
,
0010
0001
0011
0000
1001
0000
0001
0010
,
1000
0010
0100
2000
0000
0000
3001
1000
,
0100
0001
0100
0010
0000
0101
0000
1100
,
0000
0001
0100
1000
0100
0010
0000
1100
,
0000
0000
1000
0000
0001
0000
0100
0000
0001
0100
0001
0000
0100
0010
0100
0000
,
0001
0000
1000
0000
0100
0000
0010
0000
0001
1000
0001
0000
1000
0100
1000
0000
,
0020
0200
0000
0000
0000
0000
0000
0000
,
0000
0000
0000
0330
;

//---------------dance-single - ----------------
#NOTES:
     dance-single:
     :
     Hard:
     8:
     0.561,0.581,0.298,0.096,0.004: // measure 1
1000
0000
0001
0000
1000
0001
0010
0200
,  // measure 2
0000
0000
0310
0000
0001
1000
0100
0020
,  // measure 3
0000
0000
0130
0000
1000
0100
0010
0001
,  // measure 4
0000
0100
0010
0100
0010
0100
0001
1000
,  // measure 5
1001
0000
0001
0000
1000
0001
0100
0020
,  // measure 6
0000
0000
0130
0000
0001
1000
0010
0200
,  // measure 7
0000
0000
0310
0000
1000
0100
0010
0001
,  // measure 8
1000
0000
0000
0000
1001
0000
0000
0001
1000
0000
0100
0000
1000
0000
0001
0000
,  // measure 9
0100
0110
0110
0000
,  // measure 10
1001
0000
1000
0000
0001
0100
0000
1000
,  // measure 11
0100
0000
0001
0000
1000
0100
0000
0001
,  // measure 12
0100
0000
1000
0000
0001
0100
0010
1000
,  // measure 13
0001
0000
0001
0000
0010
0100
1000
0010
,  // measure 14
0110
0000
1000
0100
0001
0100
0000
1000
,  // measure 15
0001
0000
1000
0001
0010
0001
0000
0100
,  // measure 16
0010
0000
1000
0000
0010
0001
0000
0010
,  // measure 17
1000
0001
0100
0001
1000
0001
0100
0001
,  // measure 18
1001
0000
1000
0000
0001
0010
0000
1000
,  // measure 19
0010
0000
0001
1000
0100
1000
0000
0010
,  // measure 20
0100
0000
0001
0000
0010
1000
0000
0010
,  // measure 21
0001
0000
1000
0100
0010
0001
1000
0100
,  // measure 22
1000
0000
0010
0000
0100
0001
0010
0100
,  // measure 23
0000
1000
0001
0000
0100
0001
0100
1000
,  // measure 24
0100
0001
0000
1001
0000
1000
0000
0000
,  // measure 25
0100
0010
0001
1000
0000
1001
0000
0000
,  // measure 26
1001
0000
1100
0000
0001
0010
0100
2000
,  // measure 27
0000
0001
3001
0000
1000
0100
0010
0002
,  // measure 28
0000
1000
1003
0000
0001
0010
0100
1000
,  // measure 29
0000
0010
0100
0010
0100
0010
1000
0001
,  // measure 30
1001
0000
1100
0000
0001
1000
0100
0010
,  // measure 31
1001
0000
0011
0000
1000
0001
0010
0100
,  // measure 32
1001
0000
1100
0000
0001
1000
0100
0010
,  // measure 33
1001
0011
1100
0110
,  // measure 34
1001
0000
1000
0000
0001
1000
0100
1000
,  // measure 35
0000
0001
0000
0100
0000
0010
2000
0000
,  // measure 36
0001
0000
0001
0000
3001
1000
0100
0010
,  // measure 37
0001
0100
0000
0010
0000
1000
0000
0000
,  // measure 38
0001
1000
0100
1000
0000
0100
0010
0100
,  // measure 39
1000
0001
0100
0001
0000
0010
0100
1000
,  // measure 40
0001
0100
0010
0100
0000
0010
1000
0010
,  // measure 41
0000
0100
0010
0100
0000
0010
1000
0001
,  // measure 42
0101
0000
1000
0001
0010
0001
0100
0010
,  // measure 43
0000
1000
0000
0001
0000
1000
0100
0010
,  // measure 44
0100
0000
1000
0001
0010
0001
0100
0010
,  // measure 45
0000
1000
0000
0001
0000
1000
0100
0010
,  // measure 46
0100
0000
1000
0100
0010
0001
0100
0010
,  // measure 47
0000
1000
0000
0001
0000
0100
0010
0000
,  // measure 48
2000
0000
0001
0000
3001
0100
0001
1000
,  // measure 49
0000
0100
0001
0100
0000
1000
0001
0010
,  // measure 50
0200
0000
0000
0000
,  // measure 51
0000
0000
0300
0000
1000
0001
1000
0001
,  // measure 52
1000
0100
0010
0001
0000
1000
0100
0010
,  // measure 53
0001
1001
1100
0011
,  // measure 54
1001
0101
1010
1001
,  // measure 55
0000
0000
1001
0000
0001
0000
0010
1000
,  // measure 56
0000
0010
0100
0000
1000
0000
0010
0001
,  // measure 57
0000
0010
0100
0000
0001
0000
0100
1000
,  // measure 58
0000
0100
0010
0000
1000
0100
0010
0001
,  // measure 59
0100
0010
0110
0000
0001
0100
1000
0100
,  // measure 60
0000
0001
1000
0000
0001
1000
0100
1000
,  // measure 61
0000
0010
0100
0000
0001
0000
1000
0100
,  // measure 62
0000
0001
0100
0010
0100
0001
1000
0100
,  // measure 63
1000
0000
1001
0000
1000
0000
0100
0001
,  // measure 64
0000
0100
0010
0000
0001
1000
0100
0010
,  // measure 65
0000
0001
1000
0000
0001
0000
0100
1000
,  // measure 66
0000
0100
0010
0000
1000
0010
1000
0001
,  // measure 67
0010
0001
1001
0000
0001
0000
1000
0100
,  // measure 68
0010
0001
0000
0200
0000
0000
0301
1000
,  // measure 69
0100
0010
0001
0100
0000
1000
0000
0100
,  // measure 70
0001
0000
1000
0010
0000
0001
0000
0010
,  // measure 71
1000
0000
0010
0100
0000
0001
0000
0100
,  // measure 72
0010
0000
0100
0010
0000
1000
0100
0010
,  // measure 73
0001
0200
0000
0000
0000
0000
0000
0000
,  // measure 74
0000
0000
0000
0300
;

//---------------dance-single - ----------------
#NOTES:
     dance-single:
     :
     Beginner:
     2:
     0.124,0.158,0.044,0.000,0.000: // measure 1
1000
0000
0000
0000
,  // measure 2
0001
0000
0000
0000
,  // measure 3
1000
0000
0000
0000
,  // measure 4
0010
0000
0000
0000
,  // measure 5
0100
0000
0000
0000
,  // measure 6
0010
0000
0000
0000
,  // measure 7
0100
0000
0000
0000
,  // measure 8
0001
0000
1000
0000
,  // measure 9
0001
0000
0000
0000
,  // measure 10
1000
0000
0001
0000
,  // measure 11
1000
0000
0001
0000
,  // measure 12
1000
0000
0001
0000
,  // measure 13
1000
0000
0001
0000
,  // measure 14
0100
0000
0010
0000
,  // measure 15
0100
0000
0010
0000
,  // measure 16
0100
0000
0010
0000
,  // measure 17
0100
0000
0000
0000
,  // measure 18
0001
0000
1000
0000
,  // measure 19
0001
0000
1000
0000
,  // measure 20
0001
0000
1000
0000
,  // measure 21
0001
0000
1000
0000
,  // measure 22
0010
0000
1000
0000
,  // measure 23
0010
0000
1000
0000
,  // measure 24
0001
0000
0100
0000
,  // measure 25
0001
0000
0010
0000
,  // measure 26
1001
0000
0000
0000
,  // measure 27
1000
0000
0000
0000
,  // measure 28
0001
0000
0000
0000
,  // measure 29
1001
0000
0000
0000
,  // measure 30
1000
0000
0001
0000
,  // measure 31
1000
0000
0001
0000
,  // measure 32
1000
0000
0001
0000
,  // measure 33
0100
0000
0000
0000
,  // measure 34
0110
0000
0000
0000
,  // measure 35
0000
0000
0000
0000
,  // measure 36
0010
0000
0000
0000
,  // measure 37
0000
0000
0000
0000
,  // measure 38
0100
0000
0000
0000
,  // measure 39
0000
0000
0000
0000
,  // measure 40
0010
0000
0000
0000
,  // measure 41
0000
0000
0000
0000
,  // measure 42
1000
0000
0000
0000
,  // measure 43
0000
0000
0000
0000
,  // measure 44
0001
0000
0000
0000
,  // measure 45
0000
0000
0000
0000
,  // measure 46
1000
0000
0000
0000
,  // measure 47
0000
0000
0000
0000
,  // measure 48
0010
0000
0000
0000
,  // measure 49
0000
0000
0000
0000
,  // measure 50
0100
0000
0000
0000
,  // measure 51
0000
0000
0000
0000
,  // measure 52
0001
0000
0000
0000
,  // measure 53
1000
0000
0000
0000
,  // measure 54
0001
0000
0000
0000
,  // measure 55
0000
1001
0000
1000
,  // measure 56
0000
0001
0000
1000
,  // measure 57
0000
0000
0000
0010
,  // measure 58
0000
1000
0000
0010
,  // measure 59
0000
0000
0000
0100
,  // measure 60
0000
0001
0000
0100
,  // measure 61
0000
0010
0000
0100
,  // measure 62
0000
0010
0000
0000
,  // measure 63
0000
1001
0000
1000
,  // measure 64
0000
0001
0000
1000
,  // measure 65
0000
0100
0000
1000
,  // measure 66
0000
0100
0000
1000
,  // measure 67
0000
0001
0000
1000
,  // measure 68
0000
0001
0000
0010
,  // measure 69
0000
0001
0000
0000
,  // measure 70
0000
0100
0000
0000
,  // measure 71
0000
0010
0000
0000
,  // measure 72
0000
1000
0000
0000
,  // measure 73
0000
0001
0000
0000
;
