#TITLE:LOVE②くらっち;
#SUBTITLE:;
#ARTIST:Noria;
#TITLETRANSLIT:LOVE2CLUTCH;
#SUBTITLETRANSLIT:;
#ARTISTTRANSLIT:;
#CREDIT:DigiMindAxel;
#BANNER:LOVE2CLUTCH.png;
#BACKGROUND:LOVE2CLUTCH-bg.png;
#LYRICSPATH:LOVE2CLUTCH.lrc;
#CDTITLE:pop'n music.png;
#MUSIC:LOVE2CLUTCH.mp3;
#OFFSET:-6.040;
#SAMPLESTART:28.654;
#SAMPLELENGTH:12.000;
#SELECTABLE:YES;
#BPMS:0.000=170.000;
#STOPS:;
#BGCHANGES:;

//---------------dance-single - ----------------
#NOTES:
     dance-single:
     :
     Easy:
     4:
     0.262,0.481,0.295,0.083,0.000:
0001
0000
1000
0000
,
0001
0000
1000
0000
,
0010
0000
0100
0000
,
0010
0000
0100
0000
,
0001
0000
1000
0000
,
0001
0000
1000
0000
,
0010
0000
0100
0000
,
0010
0000
1000
1000
,
1001
0000
0001
0001
,
1001
0000
0000
0000
,
0100
0000
0001
0000
,
0010
0000
1001
0000
,
1001
0000
0001
0000
,
0100
0000
0010
0000
,
2000
0000
3001
0000
,
1001
0000
0000
0000
,
1000
0000
0100
0000
,
1000
0000
0010
0000
,
1000
0100
0010
0000
,
0001
0010
0100
1000
,
0001
0000
0100
0000
,
0001
0000
0010
0000
,
0001
0000
0100
0000
,
0001
0010
0100
1000
,
0001
1000
0000
0100
,
0000
1000
0000
0010
,
0000
0100
0000
0010
,
0000
1000
0000
0010
,
0100
0000
0010
0000
,
0100
0000
0001
0000
,
0010
0000
0001
0000
,
1000
1000
1000
1000
,
1001
0000
0110
0000
,
0110
0000
1001
0000
,
1001
0000
0110
0000
,
1000
0002
0000
0003
,
1001
0000
0100
0000
,
1000
0000
0100
0000
,
0010
0000
0001
0000
,
0010
0000
0100
0000
,
1000
0000
0010
0000
,
1000
0000
0100
0000
,
0010
0000
0001
0000
,
0220
0330
2002
3003
,
1001
0000
1100
0000
,
0011
0000
0000
0000
,
0200
0000
0000
0000
,
0301
1000
0001
1001
,
0000
0100
1000
0100
,
1000
0010
1000
0100
,
1000
0000
0010
0000
,
0100
0000
0001
1000
,
1001
0000
0001
0010
,
0001
0100
0001
0010
,
0100
0000
1000
0000
,
0010
0010
0010
0010
,
0110
1001
0110
0000
,
1001
0110
1001
0000
,
1001
1001
0110
0110
,
1001
1000
1000
1000
,
1001
0000
0010
0000
,
0001
0000
0100
0000
,
0010
0000
1000
0000
,
0010
0010
0010
0010
,
0000
1000
0000
0000
0001
0000
0000
0100
,
0000
0100
0000
0000
0000
2002
0000
0000
,
0000
0000
0000
0000
,
0000
0000
0000
0000
,
0000
0000
0000
0000
,
0000
0000
0000
0000
0000
3003
0000
0000
;

//---------------dance-single - ----------------
#NOTES:
     dance-single:
     :
     Challenge:
     8:
     0.631,0.641,0.488,0.295,0.037: // measure 1
0001
0100
0001
0000
0010
0100
0010
0000
,  // measure 2
0100
1000
0010
0100
0010
0000
0110
0000
,  // measure 3
1000
0010
1000
0000
0100
0010
0100
0000
,  // measure 4
0010
0001
0100
0010
0100
0000
0110
0000
,  // measure 5
0001
0010
0100
2000
0000
0001
3001
0010
,  // measure 6
0001
0000
0010
0100
0010
0000
1001
0000
,  // measure 7
1000
0100
0010
0002
0000
0000
1003
0100
,  // measure 8
0000
1000
0000
0010
0100
0000
0110
0000
,  // measure 9
1001
0000
0200
0000
0301
1000
0100
0010
,  // measure 10
0001
0000
0200
0000
0301
1000
0100
0010
,  // measure 11
0001
0100
0001
1000
0100
1000
0001
0010
,  // measure 12
0100
0000
1000
0000
0010
0000
0000
0000
0110
0000
0000
0110
0000
0000
0001
0000
,  // measure 13
1000
0100
0010
0000
0100
1000
0001
0100
,  // measure 14
0001
1001
0110
1001
,  // measure 15
1002
0000
1003
0100
0010
0000
0001
1000
,  // measure 16
0002
1000
1003
1001
,  // measure 17
1100
0000
0001
0100
1000
0100
0001
0010
,  // measure 18
0200
0310
0101
1001
,  // measure 19
0001
0010
0100
2000
0000
0000
3100
0010
,  // measure 20
0001
1000
0100
0020
0000
0000
0130
1000
,  // measure 21
0002
0000
0000
0000
1003
0000
0000
0000
0001
0000
0000
0100
0000
0000
1000
0000
,  // measure 22
0100
0000
0001
0010
0100
1000
0010
0100
,  // measure 23
0010
1000
0100
0000
0010
0001
0100
0000
,  // measure 24
0001
0010
0100
1000
0001
0100
0101
0000
,  // measure 25
1001
0000
1000
0100
0001
0100
1000
0100
,  // measure 26
0020
0130
1100
1001
,  // measure 27
1000
0100
0010
0002
0000
0013
0100
1000
,  // measure 28
0001
0010
0100
2000
0000
3100
0010
0001
,  // measure 29
2000
0000
0000
0000
3001
0000
0000
0000
1000
0000
0000
0100
0000
0000
0001
0000
,  // measure 30
0100
0000
1000
0100
0010
0001
0100
0010
,  // measure 31
0100
0001
0010
0000
0001
0010
0100
0000
,  // measure 32
1010
0101
0110
1001
,  // measure 33
0010
0010
0010
0010
0220
0000
0330
0000
,  // measure 34
1000
1000
1000
1000
2002
0000
3003
0000
,  // measure 35
0001
0001
0001
0100
1000
1000
1000
0100
,  // measure 36
0001
0101
1010
1001
,  // measure 37
0001
0010
1000
0010
0001
0100
1000
0100
,  // measure 38
0001
0010
1000
0010
0001
0010
0100
0000
,  // measure 39
1000
0100
0001
0100
1000
0010
0001
0010
,  // measure 40
1000
0100
0001
0100
1000
0100
0010
0000
,  // measure 41
0001
0010
1000
0010
0001
0100
1000
0100
,  // measure 42
0001
0010
1000
0010
0001
0010
0100
0000
,  // measure 43
1000
0100
0001
0100
1000
0010
0001
0010
,  // measure 44
1000
0010
1000
0010
1000
0000
0000
0000
0001
0100
0001
0100
0001
0000
0000
0000
,  // measure 45
0101
0100
0110
0000
1010
0010
0110
0000
,  // measure 46
0001
0001
0001
0001
0000
1000
1001
0000
,  // measure 47
0200
0010
0010
0310
,  // measure 48
1000
0100
0010
1001
,  // measure 49
1100
0000
0001
0100
1000
0100
0001
1000
,  // measure 50
0020
0000
0130
0001
0010
0000
0100
1000
,  // measure 51
0001
0100
1000
0200
0000
0301
0010
0100
,  // measure 52
1000
0100
0001
0200
0000
1300
0001
0010
,  // measure 53
0200
0000
0000
0000
0310
0000
0000
0000
0001
0000
0000
0100
0000
0000
1000
0000
,  // measure 54
0100
0000
0001
0010
0100
1000
0010
0100
,  // measure 55
0010
1000
0100
0000
1000
0100
0010
0000
,  // measure 56
0101
1010
0110
1001
,  // measure 57
0010
0010
0010
0010
0022
0000
0033
0000
,  // measure 58
0100
0100
0100
0100
2200
0000
3300
0000
,  // measure 59
0001
0001
0001
0100
1000
1000
1000
0100
,  // measure 60
0001
0101
0110
1010
,  // measure 61
1002
0000
1000
1003
0000
1000
0001
0010
,  // measure 62
0200
0000
0010
0310
0000
0001
1000
0100
,  // measure 63
0020
0000
0100
0130
0000
1000
0001
0100
,  // measure 64
0110
0110
1001
1001
,  // measure 65
0000
1100
1000
0000
0101
0001
0000
0110
,  // measure 66
0000
1000
0100
0001
0000
2002
0000
0000
,  // measure 67
0000
0000
0000
0000
,  // measure 68
0000
0000
0000
0000
,  // measure 69
0000
0000
0000
0000
,  // measure 70
0000
0000
0000
0000
0000
3003
0000
0000
;

//---------------dance-single - ----------------
#NOTES:
     dance-single:
     :
     Beginner:
     2:
     0.101,0.181,0.138,0.000,0.000:
1000
0000
0000
0000
,
0000
0000
0000
0000
,
0001
0000
0000
0000
,
0000
0000
0000
0000
,
1000
0000
0000
0000
,
0000
0000
0000
0000
,
0010
0000
0000
0000
,
0000
0000
0000
0000
,
1001
0000
0000
0000
,
1000
0000
0000
0000
,
0001
0000
0001
0000
,
0001
0000
0000
0000
,
0110
0000
0000
0000
,
1000
0000
0001
0000
,
1000
0000
0000
0000
,
0000
0000
0000
1001
,
0000
0010
0000
0010
,
0000
0010
0000
0010
,
0000
0000
0000
0000
,
0000
0000
0000
0000
,
0100
0000
0100
0000
,
0100
0000
0100
0000
,
0000
0000
0000
0000
,
0001
0000
0001
0000
,
0001
0000
0000
0000
,
0000
0000
0000
0000
,
1000
0000
1000
0000
,
1000
0000
0000
0000
,
0001
0000
0000
0000
,
1000
0000
0000
0000
,
0001
0000
0000
0000
,
1001
0000
0000
0000
,
1001
0000
0000
0000
,
0110
0000
0000
0000
,
1001
0000
0000
0000
,
0000
0000
0000
0000
,
1001
0000
0000
0000
,
0000
0000
0000
0000
,
0001
0000
0000
0000
,
0000
0000
0000
0000
,
0010
0000
0000
0000
,
0000
0000
0000
0000
,
0100
0000
0000
0000
,
0000
0000
0000
0000
,
1001
0000
0000
0000
,
1001
0000
0000
0000
,
0000
0000
0000
0000
,
1000
0000
0000
0000
,
0001
0000
1000
0000
,
0001
0000
1000
0000
,
0001
0000
0000
0000
,
0100
0000
0000
0000
,
0010
0000
0000
0000
,
1000
0000
0000
0000
,
0001
0000
0000
0000
,
1000
0000
0001
0000
,
1001
0000
0000
0000
,
0110
0000
0000
0000
,
1001
0000
0000
0000
,
0000
0000
0000
0000
,
1001
0000
0000
0000
,
1000
0000
0000
0000
,
0100
0000
0000
0000
,
0010
0000
0000
0000
,
0000
0001
0000
0000
0000
0000
0000
0000
,
0000
0000
0000
0000
0000
1001
0000
0000
;

//---------------dance-single - ----------------
#NOTES:
     dance-single:
     :
     Hard:
     7:
     0.527,0.545,0.515,0.120,0.018:
1000
0100
1000
0001
0000
0100
0000
0000
,
0001
0100
0001
1000
,
0100
0001
0100
1000
,
0001
0000
0100
0010
0100
0010
0100
0000
,
0001
0100
0001
1000
0000
0010
0000
0000
,
1000
0010
1000
0001
,
0010
0000
0100
0000
1000
0000
0001
0100
,
0000
1000
0000
0100
0001
0000
0110
0000
,
1001
0020
1000
0100
,
1030
0200
0001
0010
,
0301
0000
0010
0100
1000
0000
0100
0010
,
0001
0000
0000
0000
1000
0000
0000
0000
0001
0000
0000
0100
0000
0000
0010
0000
,
1000
0000
0001
0000
0100
0000
0001
0010
,
0100
1001
1100
0011
,
2100
0000
0000
0001
3002
0000
0000
0000
,
0103
0100
0100
0100
,
1001
0000
0100
1000
0010
1000
0100
0010
,
0001
0110
0101
0110
,
1000
0100
0010
0002
0000
0000
0003
1000
,
0001
0010
0100
2000
0000
0000
3010
0100
,
0010
0000
0000
0000
0010
0000
0000
0000
1000
0000
0000
0100
0000
0000
0001
0000
,
0100
0000
1000
0001
1000
0000
1001
0000
,
0101
1000
0100
1000
,
0100
0010
0001
0100
0001
0000
1001
0000
,
1001
0000
1100
0000
0010
0001
0100
0001
,
0010
1001
0110
1001
,
0001
0010
0100
2000
0000
3001
1000
0100
,
0010
0001
0100
0010
0000
1000
0010
0100
,
0010
0000
0000
0000
1000
0000
0000
0000
0001
0000
0000
0100
0000
0000
1000
0000
,
0100
0000
0001
1000
0010
0000
0100
0010
,
0100
0001
0100
0001
,
0110
1001
0110
1001
,
0100
0100
0100
0100
0101
0000
0000
0000
,
0010
0010
0010
0010
1010
0000
0000
0000
,
0001
0001
0001
0000
1000
1000
1000
0000
,
1001
0101
0110
1010
,
2001
0100
0010
0100
,
0010
0100
0010
3100
,
0002
0010
0100
0010
,
0100
0010
0100
0013
,
1000
0010
1000
0010
1000
0001
1000
0001
,
1000
0001
0100
0001
0100
0001
0100
0000
,
0001
0100
0001
0100
0001
1000
0001
1000
,
0100
0010
0110
0000
0010
0100
0110
0000
,
1000
1000
1000
0000
0001
0001
0001
0000
,
1000
0100
0001
0100
0000
1000
1001
0000
,
0100
0100
0100
0100
,
0001
0010
0100
1000
,
1001
0000
0001
0100
0001
0010
0100
1000
,
0010
0101
0110
0101
,
1000
0100
0010
0002
0000
1000
1003
1000
,
0001
0010
0100
2000
0000
0001
3001
0000
,
1001
0000
0000
0000
1000
0000
0000
0000
0001
0000
0000
0100
0000
0000
1000
0000
,
0100
0000
0001
1000
0001
0000
1001
0000
,
1010
0001
0010
0001
,
0101
1100
0110
1001
,
0100
0100
0100
0100
0101
0000
0000
0000
,
0010
0010
0010
0010
1010
0000
0000
0000
,
1000
1000
1000
0000
0001
0001
0001
0000
,
1001
1010
0110
0101
,
1001
0000
0100
1000
0000
0001
0000
0100
,
1000
0000
0100
0001
0000
1000
0000
0001
,
0100
0000
1000
0100
0000
0001
0000
1000
,
1010
0110
0101
0110
,
0000
0001
0001
0000
1000
1000
0000
1001
,
0000
0001
0100
1000
0000
2002
0000
0000
,
0000
0000
0000
0000
,
0000
0000
0000
0000
,
0000
0000
0000
0000
,
0000
0000
0000
0000
0000
3003
0000
0000
;

//---------------dance-double - ----------------
#NOTES:
     dance-double:
     :
     Easy:
     4:
     0.313,0.475,0.488,0.138,0.000:
10000000
00000000
00010000
00000000
,
10000000
00000000
00010000
00000000
,
00001000
00000000
00000001
00000000
,
00001000
00000000
00000001
00000000
,
00011000
00000000
10000000
00000000
,
00010000
00000000
10000000
00000000
,
00011000
00000000
00000010
00000000
,
00000100
00000000
00000010
00000010
,
00001001
00020000
00000000
00130000
,
00100000
00002000
00000000
00003000
,
00000010
00000000
00001000
00000000
,
00000100
00000000
00011000
00000000
,
10010000
00000000
00010000
00000000
,
01000000
00000000
00100000
00000000
,
20000000
00000000
30020000
00000000
,
00030000
00000000
00000000
00011000
,
00000001
00000000
00000010
00000000
,
00000001
00000000
00000100
00000000
,
00000001
00000010
00000100
00000000
,
00001000
00010000
00100000
01000000
,
10010000
00000000
01000000
00000000
,
00010000
00000000
00100000
00000000
,
00010000
00000000
01000000
00000000
,
10000000
01000000
00010000
00001000
,
00011000
00000100
00000000
00000010
,
00000000
00000001
00000000
00000100
,
00000001
00000010
00000100
00001000
,
00000100
00001000
00010000
00100000
,
01000000
00000000
10000000
00000000
,
01000000
00000000
00100000
00000000
,
00010000
00000000
10000000
00000000
,
01010000
01010000
00011000
00011000
,
00001100
00001100
00001100
00000000
,
00011000
00011000
00011000
00000000
,
01010000
01010000
00011000
00011000
,
00002200
00000000
00000000
00003300
,
00001001
00000000
00000010
00000000
,
00000001
00000000
00000010
00000000
,
00000100
00000000
00001000
00000000
,
00010000
00000000
00100000
00000000
,
01000000
00000000
10000000
00000000
,
01000000
00000000
00100000
00000000
,
00010000
00000000
00001000
00000000
,
00000220
00000330
00002002
00003003
,
00001001
00000000
00011000
00000000
,
20020000
00000000
00000000
30030000
,
02000000
00000000
00000000
00000000
,
13000000
01000000
00100000
00011000
,
00000000
00000010
00000001
00000010
,
00000001
00000100
00000001
00000010
,
00000001
00000000
00000010
00000000
,
00000100
00000000
00001000
00010000
,
10010000
00000000
00010000
00100000
,
00010000
01000000
00010000
00100000
,
01000000
00000000
10000000
00000000
,
01100000
10010000
10010000
10010000
,
00011000
00011000
00011000
00000000
,
00001001
00000110
00001001
00000000
,
00011000
00011000
10010000
01100000
,
10010000
01000000
01000000
01000000
,
10010000
00000000
10000000
00000000
,
01000000
00100000
01000000
00000000
,
10000000
00010000
10000000
00000000
,
00010000
00011000
00001000
00011000
,
00000000
00001100
00000000
00000000
00011000
00000000
00000000
01010000
,
00000000
00001000
00010000
00001000
00000000
00002002
00000000
00000000
,
00000000
00000000
00000000
00000000
,
00000000
00000000
00000000
00000000
,
00000000
00000000
00000000
00003003
;

//---------------dance-single - ----------------
#NOTES:
     dance-single:
     :
     Medium:
     6:
     0.423,0.481,0.515,0.147,0.000:
0002
0000
1003
0100
,
1000
0001
0100
0100
,
0002
0000
1003
0100
,
1000
0001
0100
0100
,
0020
0000
1030
0100
,
0010
0001
1000
0010
,
0200
0000
0301
0010
,
0100
1000
0001
1000
,
1001
0000
0001
0010
,
0100
0000
1000
0100
,
0020
0130
2000
3001
,
0100
0110
1001
0000
,
1001
0001
0010
0100
,
1000
0100
0010
0001
,
2000
0000
0000
0001
3001
0000
0000
0000
,
2002
0000
0000
3003
,
1100
0010
0001
0010
,
1000
0010
0001
0001
,
0100
0001
0100
0020
0000
0000
0000
0000
,
0130
0010
1000
0200
0000
0000
1300
0000
,
1001
0000
0001
0100
,
1000
0100
0001
0100
,
0010
0100
0001
0100
,
0001
1000
0001
0000
0100
0000
0110
0000
,
1001
0100
0010
0001
,
1000
0000
0001
1000
0001
0000
1001
0000
,
0010
0000
0100
0010
0000
0100
0010
0000
,
1000
0000
0001
1000
0000
0001
1000
0000
,
1001
0000
1000
0100
,
0001
0100
1000
0001
,
0200
0000
0000
0310
,
1001
1001
1001
1001
,
0110
0110
1010
0000
,
0110
0110
0101
0000
,
1100
1100
0011
0011
,
1001
0100
0010
0001
,
1001
0010
0100
1000
,
0100
0010
0001
0010
,
0100
1000
0100
0010
,
0001
0010
0100
1000
,
0010
0100
0001
0100
,
0010
1000
0010
0100
,
0001
0100
0010
1000
,
0010
0100
0010
0000
1000
0001
1000
0000
,
1001
0000
0110
0000
,
1001
0000
0002
0000
0000
1000
1003
0000
,
2000
0000
0000
0000
,
3001
0010
0100
1000
,
1001
0000
1000
0010
1000
0000
0010
0000
,
0110
1000
0001
1000
,
0001
0100
0001
0000
0100
0000
0110
0000
,
0001
1000
0001
1001
,
1001
0000
0001
0100
,
1000
0100
0001
0010
,
0100
1000
0001
0001
,
0110
1001
0110
1001
,
1100
1100
1001
0000
,
0011
0011
1001
0000
,
0101
0101
1010
1010
,
1001
0010
0100
1000
,
1001
0000
1000
0001
0000
0100
0000
0000
,
0001
0000
1000
0010
0000
0100
0000
0000
,
0010
0000
1000
0001
0000
0100
0000
0001
,
1000
1001
0110
1001
,
0000
1000
1000
0000
0001
0001
0000
0110
,
0000
1000
0001
1000
0000
2002
0000
0000
,
0000
0000
0000
0000
,
0000
0000
0000
0000
,
0000
0000
0000
0000
,
0000
0000
0000
0000
0000
3003
0000
0000
;
