#TITLE:LOVE SO GROOVY;
#SUBTITLE:(SLEEP MIX);
#ARTIST:LOVEMINTS (remixed by DJ SIMON);
#TITLETRANSLIT:;
#SUBTITLETRANSLIT:;
#ARTISTTRANSLIT:;
#CREDIT:DigiMindAxel;
#BANNER:LOVE SO GROOVY (SLEEP MIX).png;
#BACKGROUND:LOVE SO GROOVY (SLEEP MIX)-bg.png;
#LYRICSPATH:LOVE SO GROOVY (SLEEP MIX).lrc;
#CDTITLE:beatmania.png;
#MUSIC:LOVE SO GROOVY (SLEEP MIX).mp3;
#OFFSET:-8.068;
#SAMPLESTART:23.875;
#SAMPLELENGTH:12.000;
#SELECTABLE:YES;
#BPMS:0.000=182.000,112.000=91.000,128.000=182.000,144.000=91.000,152.000=182.000,184.000=91.000,208.000=242.000;
#STOPS:;
#BGCHANGES:;

//---------------dance-single - ----------------
#NOTES:
     dance-single:
     :
     Medium:
     5:
     0.360,0.396,0.289,0.093,0.000:
1000
0100
0010
0000
,
0001
0010
0100
0000
,
1000
0001
1000
0000
,
0010
0100
0010
0000
,
1000
0000
0001
0200
0000
0000
0000
0010
,
0000
0310
1000
0000
0001
1000
0000
0001
,
2000
0100
3200
0010
,
0320
0000
0001
0000
0031
1000
0000
0001
,
1000
0100
1000
0100
,
0010
0000
0001
0000
0100
0010
0000
1000
,
0002
0010
0023
0100
,
0230
1000
1300
0000
,
1001
0000
1100
0000
,
0011
0000
0100
0000
1000
0001
1000
0000
,
1001
0000
0011
0000
,
1100
0000
0010
0000
0001
1000
0001
0000
,
1001
0000
1010
0000
,
0101
0000
0010
0000
1000
0001
1000
0000
,
1001
0010
0100
0000
,
1000
0100
0010
0000
,
1001
0000
0101
0000
,
1010
0000
0100
0000
0001
1000
0001
0000
,
1001
0000
1010
0000
,
0101
0000
0010
0000
1000
0001
1000
0000
,
1001
0000
1010
0000
,
0101
0000
0010
0000
1000
0001
1000
0000
,
0002
1000
0000
1003
,
0000
0110
0000
0010
0000
0110
0000
0010
,
0100
1001
0100
1001
,
0100
0010
0001
0100
,
0010
1001
1000
1001
,
0010
0100
1001
0101
,
1100
0000
0010
0000
0001
1000
0001
0000
,
0010
0000
0100
0000
1000
0001
1000
0000
,
0010
0000
0100
0000
0001
1000
0001
0000
,
0010
0000
0100
0000
1000
0001
0000
0200
,
0000
0000
0000
0000
0000
0310
1000
0001
,
0000
0100
0010
0100
0000
0010
0100
0001
,
1000
0000
0100
1000
0000
0100
1000
0000
,
0010
0100
0010
0000
1000
0000
0001
0000
,
0100
0001
0100
0000
0010
1000
0010
0000
,
1000
0100
0001
0100
,
1000
0000
0001
0010
0000
0001
0010
0000
,
0001
1000
0001
0000
0100
0000
0010
0000
,
1000
0000
0010
0100
0000
0010
0100
0000
,
0001
1000
0000
0010
0000
0100
0000
0001
,
1000
1000
1000
1000
,
0001
0001
0001
0001
,
1000
1000
1000
1000
,
0010
0010
0010
0010
,
0100
0100
0100
0100
,
0000
0000
0000
0000
,
0000
0000
0000
0000
,
0000
0000
0000
0000
,
0000
0000
0000
0001
;

//---------------dance-single - ----------------
#NOTES:
     dance-single:
     :
     Challenge:
     9:
     0.582,0.764,0.145,0.186,0.258:
0001
0100
0001
0000
1000
0100
1000
0000
,
0001
0010
0100
1000
0010
0100
0100
0000
,
0002
0000
1003
0100
0002
0000
0103
1000
,
0001
0000
0100
0000
0010
0100
0010
0000
,
1000
0100
1000
0001
0000
0100
0001
1000
,
0000
0100
0010
0001
0100
0020
0000
1000
,
2030
0000
3001
0100
2000
0000
3100
0001
,
1000
0000
0001
0000
0100
0020
0000
1030
,
0001
0010
0100
0000
1000
0100
0010
0000
,
0001
0010
0100
1000
0010
0200
0000
0001
,
0302
0000
1003
0100
0002
0000
0103
1000
,
0001
0010
0100
1000
0001
0010
0001
0000
,
1001
0000
0000
0100
0001
0000
0000
0100
,
0001
1000
0100
1000
0010
0100
0010
0000
,
1001
0000
0000
0010
1000
0000
0000
0010
,
1000
0001
0010
0001
0100
0010
0100
0000
,
1001
0000
0000
0010
0001
0000
0000
0010
,
0001
1000
0010
0100
0001
0010
0100
0000
,
2001
0000
0100
0000
0000
3100
0000
0000
,
1002
0000
0100
0000
0000
0103
0000
0000
,
1001
0000
0000
0100
1000
0000
0000
0100
,
1000
0010
0100
0001
0010
0100
1000
0000
,
1001
0000
0000
0010
0001
0000
0000
0010
,
0001
0100
0010
1000
0100
0010
0001
0000
,
1001
0000
0000
0010
1000
0000
0000
0010
,
1000
0001
0010
0001
0100
0010
0100
0000
,
1002
0000
0100
0000
0000
0100
0000
0000
,
1003
0001
0010
0100
1000
0001
0100
0010
,
1000
0000
0000
0010
0200
0000
0000
0001
0000
0301
0000
0000
0100
0000
0001
0000
,
1000
1000
0001
0000
0100
0100
0010
1000
,
0001
0000
0001
0010
0100
1000
0000
0100
1000
0100
0000
0000
0010
0000
0001
0000
,
1000
0000
1000
0100
0010
0001
0000
0100
0000
0101
0000
0101
0000
1100
0000
1000
,
0100
0010
0100
1000
0100
0010
0001
0100
,
0010
0100
0002
0000
1000
1000
0000
1003
,
0100
0010
0100
1000
0100
0010
0001
0100
,
0010
0100
0002
0000
1000
1000
0000
1003
,
0000
1000
0001
0100
0000
0001
0000
0001
0000
1000
0100
0010
0001
1000
0000
1001
,
0000
0001
0010
0100
1000
0001
0000
1001
0000
1000
0010
0100
0001
0010
0100
0010
,
0001
0100
0001
1000
0100
0010
0200
0000
,
1000
2300
0000
3001
0010
0100
1000
0000
,
0010
0100
0010
1000
0100
0001
0100
1000
,
0001
0100
0010
1000
0100
0010
0001
0000
,
1000
0010
1000
0001
0010
0100
0010
0001
,
0010
0100
1000
0200
0000
0001
0301
0000
,
0100
1000
0001
0100
0001
1000
0100
0010
,
0001
0100
1000
0100
0001
1000
0010
1000
,
0001
0100
0001
0000
0001
0100
0001
0000
0001
0100
0001
0000
0001
0100
0001
0000
,
1000
0100
1000
0000
1000
0100
1000
0000
1000
0100
1000
0000
1000
0100
1000
0000
,
0001
0100
1000
0000
0100
0001
1000
0000
0001
0100
1000
0000
0100
0001
1000
0000
,
0100
0010
0001
0000
1000
0100
0010
0000
0100
0010
0001
0000
1000
0100
0010
0000
,
0001
0010
1000
0000
0010
0001
1000
0000
0001
0010
1000
0000
0010
0001
1000
0000
,
0000
0000
0000
0000
,
0000
0000
0000
0000
,
0000
0000
0000
0000
,
0000
0000
0000
0001
;

//---------------dance-single - ----------------
#NOTES:
     dance-single:
     :
     Hard:
     7:
     0.494,0.537,0.227,0.186,0.062: // measure 1
0001
0000
0100
0010
0000
0100
0010
0000
,  // measure 2
1000
0001
1000
0000
0010
0100
0000
0001
,  // measure 3
2000
0000
3010
0000
2000
0000
3001
0200
,  // measure 4
0000
0000
0310
0000
1000
0001
1000
0000
,  // measure 5
0001
0000
0100
0020
0000
0000
0000
1000
,  // measure 6
0000
1030
0001
0000
0100
0010
0100
0000
,  // measure 7
0002
0000
1003
0000
0020
0000
0000
0230
,  // measure 8
0000
0000
0310
0000
1000
0001
1000
0000
,  // measure 9
0001
0000
0100
0010
0000
0100
0010
0000
,  // measure 10
1000
0001
1000
0000
0010
0200
0000
0000
,  // measure 11
0301
0000
0100
0001
0100
0000
0010
1000
,  // measure 12
0010
1000
0100
0010
0001
0000
0000
0000
,  // measure 13
2001
0000
0000
0010
3010
0000
0000
0100
,  // measure 14
0001
1000
0100
1000
0100
1000
0001
0000
,  // measure 15
1002
0000
0000
0100
0103
0000
0000
0010
,  // measure 16
1000
0001
0010
0001
0010
0001
1000
0000
,  // measure 17
2001
0000
0000
0100
3100
0000
0000
0010
,  // measure 18
0001
1000
0010
1000
0010
1000
0001
0000
,  // measure 19
1000
0000
0002
0000
0000
0103
0000
0000
,  // measure 20
0002
0000
1000
0000
1003
0010
0000
0100
,  // measure 21
0002
0000
0000
0100
0103
0000
0000
0010
,  // measure 22
1000
0001
0010
0001
0010
0001
1000
0000
,  // measure 23
2001
0000
0000
0010
3010
0000
0000
0100
,  // measure 24
0001
1000
0100
1000
0100
1000
0001
0000
,  // measure 25
1002
0000
0000
0010
0013
0000
0000
0100
,  // measure 26
1000
0001
0100
0001
0100
0001
1000
0000
,  // measure 27
0001
0000
2000
0000
0000
3010
0000
0000
,  // measure 28
0000
0101
0000
0101
0000
1100
0000
1100
,  // measure 29
1001
0000
0000
0000
0020
0000
0000
0100
0000
0100
0000
0000
1030
0000
0100
0000
,  // measure 30
0010
0001
1000
0000
0001
0001
0100
0010
,  // measure 31
0100
0001
0010
0100
1000
0000
0010
0100
,  // measure 32
0001
0000
0010
0000
0100
0000
1000
0000
0001
1000
0000
1000
0000
0001
0000
0001
,  // measure 33
0100
0010
0100
0000
0001
0100
1000
0000
,  // measure 34
0110
0000
0001
1000
0100
0010
0001
0000
,  // measure 35
0100
0010
0100
0000
0001
0100
1000
0000
,  // measure 36
0110
0000
0001
1000
0100
0010
0001
1000
,  // measure 37
0000
0000
0000
0000
0000
0000
0000
0000
0000
0000
0010
0000
0100
0001
0000
0001
,  // measure 38
0000
0000
0100
0000
0010
1000
0000
1000
0000
0000
0010
0000
0100
0001
0000
0001
,  // measure 39
1000
0100
0010
0001
0000
0100
0010
0000
,  // measure 40
1000
0001
0100
0001
0100
0001
1000
0000
,  // measure 41
0001
0010
0100
1000
0000
0010
0100
0000
,  // measure 42
0001
1000
0010
1000
0010
1000
0001
0000
,  // measure 43
1000
0100
0010
0001
0100
0000
1100
0000
,  // measure 44
1100
0101
0101
1001
,  // measure 45
0001
0010
0100
1000
0010
0100
0001
1000
,  // measure 46
0001
0101
0000
0101
0000
1100
0000
1100
,  // measure 47
1001
0100
1000
0100
1000
0100
0001
0100
,  // measure 48
0001
0100
1000
0100
0001
0010
1000
0010
,  // measure 49
0001
0010
0001
0010
0001
0010
1000
0010
,  // measure 50
1000
0010
1000
0010
0001
0100
1000
0100
,  // measure 51
0001
0010
1000
0010
0001
0010
0100
1000
,  // measure 52
0000
0000
0000
0000
,  // measure 53
0000
0000
0000
0000
,  // measure 54
0000
0000
0000
0000
,  // measure 55
0000
0000
0000
0001
;

//---------------dance-single - ----------------
#NOTES:
     dance-single:
     :
     Easy:
     2:
     0.142,0.170,0.052,0.083,0.000:
0001
0000
0000
0000
,
1000
0000
0000
0000
,
0001
0000
0000
0000
,
1000
0000
0000
0000
,
0010
0000
0000
0000
,
0100
0000
0000
0000
,
0001
0000
0000
0000
,
0010
0000
0000
0000
,
0100
0000
0000
0000
,
1000
0000
0000
0000
,
0001
0000
0000
0000
,
2000
0000
0000
0000
,
3001
0000
0100
0000
,
0001
0000
0100
0000
,
0010
0000
1000
0000
,
0010
0000
1000
0000
,
0100
0000
0010
0000
,
0001
0000
1000
0000
,
1001
0000
0000
0000
,
0000
0000
0000
0000
,
1000
0000
0010
0000
,
1000
0000
0010
0000
,
0100
0000
0001
0000
,
0100
0000
0001
0000
,
0010
0000
0100
0000
,
1000
0000
0010
0000
,
0100
0000
0010
0000
,
2000
0000
0000
3000
,
1001
0000
0000
2000
,
0000
3000
0000
0002
,
0000
0003
0100
0020
,
0000
0030
1000
0000
,
1001
0000
0010
0000
,
0100
0000
1000
0000
,
0001
0000
1000
0000
,
0010
0000
0100
0000
,
0002
0000
0000
0000
,
1003
0000
1000
0000
,
1001
0000
0100
0000
,
0010
0000
0001
0000
,
0100
0000
0001
0000
,
1000
0000
0010
0000
,
0200
0000
0010
0000
,
0310
0000
1000
0000
,
0020
0000
0100
0000
,
0130
0000
0000
0000
,
1001
0000
0010
0000
,
0100
0000
1000
0000
,
0100
0000
0010
0000
,
0001
0000
0100
0000
,
0010
0000
1000
0000
,
0000
0000
0000
0000
,
0000
0000
0000
0000
,
0000
0000
0000
0000
,
0000
0000
0000
0001
;

//---------------dance-single - ----------------
#NOTES:
     dance-single:
     :
     Beginner:
     1:
     0.059,0.103,0.041,0.000,0.000:
1000
0000
0000
0000
,
0000
0000
0000
0000
,
0001
0000
0000
0000
,
0000
0000
0000
0000
,
1000
0000
0000
0000
,
0000
0000
0000
0000
,
0001
0000
0000
0000
,
0000
0000
0000
0000
,
1000
0000
0000
0000
,
0000
0000
0000
0000
,
0001
0000
0000
0000
,
0000
0000
0000
0000
,
1001
0000
0000
0000
,
0000
0000
0000
0000
,
0010
0000
0000
0000
,
0000
0000
0000
0000
,
0100
0000
0000
0000
,
0000
0000
0000
0000
,
0010
0000
0000
0000
,
0000
0000
0000
0000
,
1000
0000
0000
0000
,
0000
0000
0000
0000
,
0001
0000
0000
0000
,
0000
0000
0000
0000
,
1000
0000
0000
0000
,
0000
0000
0000
0000
,
0010
0000
0000
0000
,
0000
0000
0000
0000
,
1001
0000
0000
0000
,
0010
0000
0000
0000
,
0100
0000
0000
0000
,
1000
0000
0000
0000
,
1001
0000
0000
0000
,
0010
0000
0000
0000
,
0100
0000
0000
0000
,
0010
0000
0000
0000
,
0100
0000
0000
0000
,
0000
0000
0000
0000
,
0001
0000
0000
0000
,
1000
0000
0000
0000
,
0001
0000
0000
0000
,
0010
0000
0000
0000
,
0100
0000
0000
0000
,
1000
0000
0000
0000
,
0010
0000
0000
0000
,
0100
0000
0000
0000
,
1001
0000
0000
0000
,
0001
0000
0000
0000
,
1000
0000
0000
0000
,
0001
0000
0000
0000
,
1000
0000
0000
0000
;
