#TITLE:LOVE (heart) SIGN;
#SUBTITLE:;
#ARTIST:the end of genesis ayaka* turbo type〆;
#TITLETRANSLIT:;
#SUBTITLETRANSLIT:;
#ARTISTTRANSLIT:the end of genesis ayaka* turbo type SHIME;
#CREDIT:DigiMindAxel;
#BANNER:LOVE (heart) SIGN.png;
#BACKGROUND:LOVE (heart) SIGN-bg.png;
#LYRICSPATH:;
#CDTITLE:BEMANI game remix.png;
#MUSIC:LOVE (heart) SIGN.mp3;
#OFFSET:-12.020;
#SAMPLESTART:68.259;
#SAMPLELENGTH:12.000;
#SELECTABLE:YES;
#BPMS:0.000=145.000;
#STOPS:;
#BGCHANGES:;

//---------------dance-single - ----------------
#NOTES:
     dance-single:
     :
     Easy:
     4:
     0.238,0.261,0.098,0.039,0.000:
0010
0010
0010
0010
,
0110
0000
0000
0000
,
1000
0001
1000
0001
,
1000
0100
1000
0010
,
0100
0001
0010
0001
,
1000
1000
0001
0001
,
0010
0001
0100
0010
,
0100
0001
0010
0001
,
1000
1000
0001
0001
,
1001
0000
0010
0010
,
0110
1000
0000
0010
,
0000
0100
0000
0010
,
0000
1000
0000
0001
,
0000
0001
0000
0100
,
0000
0010
0000
0100
,
0000
0001
0000
1000
,
0000
0001
0000
0010
,
0000
0001
0000
1000
,
0001
1000
0000
0010
,
0000
1000
0000
0001
,
0000
0010
0000
0001
,
0000
1000
0000
0100
,
0000
1000
0000
0010
,
0000
0100
0000
0010
,
0100
0100
0100
0100
,
0110
0000
0000
0000
,
1001
0000
0001
0000
,
0010
0001
0010
0001
,
1000
1000
0001
0001
,
1000
0000
0000
0000
,
1000
0000
1000
0000
,
0100
1000
0100
1000
,
0001
0010
0001
1000
,
0001
0001
1001
0000
,
0100
0100
0010
0010
,
0100
0100
0010
0010
,
1000
1000
0001
0001
,
1000
1000
0001
0001
,
0010
0010
0001
0001
,
1000
1000
0100
0100
,
0010
0000
0000
0000
,
0001
0000
0000
0000
,
1001
0001
0001
0001
,
1000
1000
0100
0100
,
1000
1000
1000
1000
,
0100
0010
0001
1000
,
0001
0010
0001
1000
,
0001
0010
0001
1000
,
0001
0010
0100
1000
,
0010
0000
0010
0010
,
0110
0000
0000
0000
,
0220
0000
0000
0330
,
2002
0000
0000
0000
,
3003
0000
0000
0000
;

//---------------dance-single - ----------------
#NOTES:
     dance-single:
     :
     Hard:
     7:
     0.509,0.469,0.462,0.138,0.084: // measure 1
1000
0010
1000
0010
1000
0010
1000
0001
,  // measure 2
0200
0000
0001
0301
,  // measure 3
1100
0000
0001
0200
0000
0000
0301
0000
,  // measure 4
0100
0001
1000
0000
1010
0000
1010
0000
,  // measure 5
0011
0000
1000
0020
0000
0000
1030
0000
,  // measure 6
0010
1000
0001
0000
0101
0000
0101
0000
,  // measure 7
1100
0000
0001
0200
0000
0000
0301
0000
,  // measure 8
0100
0001
1000
0000
1100
0000
1100
0000
,  // measure 9
0001
0010
0001
0010
0100
1000
0100
1000
,  // measure 10
0001
0010
0100
1000
1001
0000
1001
0000
,  // measure 11
1200
0000
0000
1000
1300
0000
0001
0000
,  // measure 12
0100
0010
0100
0000
0001
0100
1000
0000
,  // measure 13
0201
0000
0000
0001
0301
0000
1000
0000
,  // measure 14
0100
0010
0100
0000
1000
0100
0001
0000
,  // measure 15
1200
0000
0000
1000
1300
0000
0001
0000
,  // measure 16
0010
0100
0010
0000
0001
0010
1000
0000
,  // measure 17
0010
0101
1000
1100
,  // measure 18
0001
0010
0100
1000
0001
0000
1000
1000
,  // measure 19
2010
0000
0000
0010
3010
0000
1000
0000
,  // measure 20
0001
0100
0001
1000
0010
1000
0001
0000
,  // measure 21
0102
0000
0000
0100
0103
0000
0001
0000
,  // measure 22
1000
0010
1000
0001
0100
0001
1000
0000
,  // measure 23
2100
0000
0000
0100
3100
0000
1000
0000
,  // measure 24
0001
0100
0001
1000
0100
0010
0001
0000
,  // measure 25
1000
0010
1000
0001
0010
0001
0010
0001
,  // measure 26
1000
0100
0010
0001
0100
0100
0000
0100
,  // measure 27
1001
0000
0011
0000
0011
0000
1000
0010
,  // measure 28
1000
0001
0100
0001
0100
1000
0100
0000
,  // measure 29
1001
1100
0011
0101
,  // measure 30
0011
1001
1100
0101
,  // measure 31
1001
0000
1100
0000
1100
0000
0001
0100
,  // measure 32
0001
1000
0010
1000
0010
0001
0010
0000
,  // measure 33
1000
1000
0100
0100
0010
0010
0001
0001
,  // measure 34
1000
0100
0010
0001
1001
0000
1001
0000
,  // measure 35
1100
0000
0000
1000
0000
0000
0100
0000
1000
0000
0000
0001
0000
0000
1000
0000
,  // measure 36
0001
0000
0000
0010
0000
0000
0001
0000
0100
0000
0000
0010
0000
0000
0100
0000
,  // measure 37
0001
0000
0000
0010
0000
0000
0001
0000
1000
0000
0000
0001
0000
0000
1000
0000
,  // measure 38
0100
0000
0000
1000
0000
0000
0010
0000
0100
0000
0000
0010
0000
0000
0100
0000
,  // measure 39
0001
0000
0000
1000
0000
0000
0010
0000
1000
0000
0000
0001
0000
0000
0100
0000
,  // measure 40
0001
0000
0000
1000
0000
0000
0001
0000
0100
0000
0000
0100
0000
0000
0100
0000
,  // measure 41
1001
0000
0001
1000
0001
1000
0001
1000
,  // measure 42
0001
0000
0010
0000
0100
0000
1000
0000
0010
0100
0000
0010
0100
0000
0001
0000
,  // measure 43
1000
0000
0000
1000
0001
0000
0010
0000
0100
0000
1000
0000
0001
0000
0010
0000
,  // measure 44
0001
0000
0000
0001
1000
0000
0100
0000
0010
0000
0001
0000
1000
0000
0100
0000
,  // measure 45
1000
0000
0000
1000
0001
0000
0010
0000
0100
0000
1000
0000
0001
0000
0001
0000
,  // measure 46
0101
1100
0101
1001
,  // measure 47
1000
0100
0001
0100
1000
0000
1100
0000
,  // measure 48
0001
0010
1000
0010
0001
0000
0011
0000
,  // measure 49
1000
0100
0001
0100
1000
0000
0001
0100
,  // measure 50
0001
1000
0100
0001
0100
0000
1001
0000
,  // measure 51
0210
0000
0000
0001
0001
0000
0300
0000
,  // measure 52
0120
0000
1000
0000
1000
0000
1030
0001
,  // measure 53
2002
0000
0000
0000
,  // measure 54
3003
0000
0000
0000
;

//---------------dance-single - ----------------
#NOTES:
     dance-single:
     :
     Challenge:
     8:
     0.592,0.547,0.384,0.069,0.212:
1000
0001
1000
0001
1000
0001
1000
0001
,
1000
0000
0100
0000
0010
0000
0001
0000
0100
0010
0100
0010
0200
0000
0000
0000
,
0301
0010
0100
1000
0100
0001
0110
0000
,
1000
0100
0010
0001
0010
1000
0110
0000
,
0001
0010
0100
1000
0010
0001
0110
0000
,
1100
1100
0101
1001
,
0001
0010
0100
1000
0100
0001
0110
0000
,
1000
0100
0010
0001
0010
1000
0110
0000
,
1000
0001
1000
0001
0100
0001
0100
0010
,
1000
0000
0100
0000
0010
0000
0001
0000
0100
0010
0100
0010
0100
0000
0000
0000
,
1001
0000
0011
0000
1000
0100
0001
0000
,
0100
0000
1100
0000
0001
0100
1000
0000
,
0100
0000
0101
0000
1000
0100
0001
0000
,
0100
1010
0011
1010
,
1001
0000
0001
0100
1000
0000
0100
0001
,
1000
1100
0101
1100
,
0001
0000
1000
0100
0010
0001
1000
0100
,
0001
0100
1000
0100
0010
0000
0001
0001
,
1001
0000
1000
0100
0001
0000
1100
0000
,
0001
1000
0100
0010
0001
0010
0100
0000
,
0011
0000
1000
0010
0001
0000
1010
0000
,
1000
0000
0001
0010
0100
1000
0010
0000
,
0101
0000
1000
0100
0001
0000
1100
0000
,
0001
1000
0100
0010
0001
0010
1000
0010
,
0001
1000
0001
1000
0010
1000
0010
0100
,
0001
0010
0100
1000
0010
0010
0000
0010
,
1000
0100
0010
0001
1000
1000
0001
0000
,
0001
0010
0100
1000
0001
0001
1000
0100
,
0010
0101
1000
0101
,
1001
0000
0010
0100
0000
1000
0100
0001
,
0100
1000
0001
0010
0100
1000
0000
0100
,
0001
0100
1000
0001
0010
1000
0010
0001
,
1000
0001
1000
0001
0100
0001
0100
0010
,
1000
0010
1000
0100
0010
0000
0110
0000
,
0001
0100
0000
0001
0100
0000
0001
0000
1000
0100
0000
1000
0100
0000
1000
0000
,
0001
0100
0000
0001
0100
0000
0001
0000
1000
0100
0000
1000
0100
0000
1000
0000
,
0001
0010
0000
0001
0010
0000
0100
0000
1000
0010
0000
1000
0010
0000
0100
0000
,
0001
0010
0000
0001
0010
0000
0100
0000
1000
0010
0000
1000
0010
0000
0100
0000
,
0001
0100
0000
0001
1000
0000
0100
0000
1000
0100
0000
1000
0001
0000
0010
0000
,
0001
0010
0000
0001
1000
0000
0010
0000
1000
0010
0000
1000
0001
0000
0010
0000
,
0001
1000
0001
1000
0001
0010
0100
1000
,
1010
0011
1010
1001
,
0100
1000
0000
0100
1000
0000
0001
0000
0010
0000
0100
0000
1000
0000
0001
0000
,
0010
0001
0000
0010
0001
0000
1000
0000
0100
0000
0010
0000
0001
0000
1000
0000
,
0010
1000
0000
1000
0010
0000
0100
0000
0001
0000
0010
0000
0100
0000
1000
0000
,
0101
0000
0000
0000
1100
0000
0000
0000
0001
0100
0000
0100
0001
0000
1000
0000
,
0001
0001
0100
0001
1000
0100
0001
0100
,
1000
1000
0010
1000
0001
0010
1000
0010
,
0001
0001
0100
0001
1000
0100
0001
0100
,
1000
0000
0001
0000
0010
0000
0100
0000
1000
0001
1000
0001
1000
0001
1000
0000
,
1020
0000
0000
1000
0000
0000
1030
0000
0002
0000
0000
0100
0000
0000
0103
0000
,
0201
0000
0000
0001
0000
0000
0301
0000
2000
0000
0000
0010
0000
0000
3010
0000
,
2002
0000
0000
0000
,
3003
0000
0000
0000
;

//---------------dance-single - ----------------
#NOTES:
     dance-single:
     :
     Medium:
     6:
     0.427,0.391,0.482,0.128,0.000: // measure 1
0100
0010
0100
0000
0010
0100
0010
0000
,  // measure 2
0110
0110
1001
0000
,  // measure 3
0001
0010
0001
0000
1000
0010
1000
0000
,  // measure 4
0001
0010
0001
0010
0001
0000
1000
0000
,  // measure 5
1000
0100
1000
0000
0001
0100
0001
0000
,  // measure 6
1000
0100
0010
0001
,  // measure 7
1000
0100
1000
0000
0001
0100
0001
0000
,  // measure 8
1000
0100
1000
0100
1000
0000
0001
0000
,  // measure 9
0001
0010
0001
0000
1000
0010
1000
0000
,  // measure 10
0001
0010
0110
1000
,  // measure 11
1002
0000
0000
1000
1003
0000
0001
0000
,  // measure 12
1000
1100
0001
0101
,  // measure 13
2001
0000
0000
0001
3001
0000
1000
0000
,  // measure 14
0001
0011
1000
1010
,  // measure 15
1002
0000
0000
1000
1003
0000
0001
0000
,  // measure 16
1000
1010
0001
0011
,  // measure 17
1000
0000
0100
0010
0100
0000
1000
0000
,  // measure 18
0001
0000
0010
0100
0010
0000
0001
0000
,  // measure 19
1002
0000
0000
1000
1003
0000
0001
0000
,  // measure 20
1000
0000
1010
0000
0001
0010
0001
0000
,  // measure 21
2001
0000
0000
0001
3001
0000
1000
0000
,  // measure 22
0001
0000
0101
0000
1000
0100
1000
0000
,  // measure 23
1002
0000
0000
1000
1003
0000
0001
0000
,  // measure 24
1000
0000
0100
0010
0100
0000
1000
0000
,  // measure 25
0001
1000
0001
0000
1000
0001
1000
0000
,  // measure 26
0010
0100
0010
0000
0100
0010
0100
0000
,  // measure 27
0110
0000
0100
0001
1000
0000
0100
1000
,  // measure 28
0100
0000
1000
0001
0100
0000
0100
0000
,  // measure 29
1001
1000
0100
0001
,  // measure 30
0100
0000
1000
0000
0010
0000
0100
0001
,  // measure 31
1000
0000
0100
1000
0100
0000
1000
0001
,  // measure 32
0100
0000
0001
0010
0100
1000
0001
1000
,  // measure 33
0001
0010
1000
0010
,  // measure 34
0001
2000
0001
3001
,  // measure 35
1001
0011
0010
0011
,  // measure 36
0010
0011
0010
0011
,  // measure 37
1001
1100
0100
1100
,  // measure 38
0100
1100
0100
1100
,  // measure 39
1001
0101
0100
1010
,  // measure 40
0010
0101
0100
1010
,  // measure 41
2002
0000
0000
3003
,  // measure 42
0011
0011
1100
1100
,  // measure 43
1001
0000
0100
0000
1000
0100
0001
0000
,  // measure 44
1001
0000
0100
0000
1000
0100
0001
0000
,  // measure 45
1001
0000
0010
0000
0001
0010
1000
0010
,  // measure 46
0001
0010
0100
1000
,  // measure 47
0010
0100
0010
1000
0000
0010
1000
0000
,  // measure 48
0010
0100
0010
1000
0000
0010
1000
0000
,  // measure 49
0010
0100
0010
1000
0000
0001
0100
0000
,  // measure 50
0110
0000
1001
1001
,  // measure 51
1002
0000
0010
0003
,  // measure 52
0210
0000
0001
0300
,  // measure 53
2002
0000
0000
0000
,  // measure 54
3003
0000
0000
0000
;

//---------------dance-single - ----------------
#NOTES:
     dance-single:
     :
     Beginner:
     1:
     0.084,0.128,0.108,0.000,0.000:
0100
0000
0000
0000
,
0110
0000
0000
0000
,
0001
0000
0000
0000
,
1000
0000
0000
0000
,
0001
0000
0000
0000
,
1001
0000
0000
0000
,
1000
0000
0000
0000
,
0001
0000
0000
0000
,
1000
0000
0000
0000
,
1001
0000
0000
0000
,
1001
0000
0000
0000
,
0000
0000
0000
0000
,
0001
0000
0000
0000
,
0000
0000
0000
0000
,
0001
0000
0000
0000
,
0000
0000
0000
0000
,
1000
0000
0000
0000
,
0000
0000
0000
0000
,
1001
0000
0000
0000
,
1000
0000
0000
0000
,
0001
0000
0000
0000
,
1000
0000
0000
0000
,
0100
0000
0000
0000
,
0010
0000
0000
0000
,
0001
0000
0000
0000
,
1000
0000
0000
0000
,
1001
0000
0000
0000
,
0001
0000
0000
0000
,
1000
0000
0000
0000
,
0001
0000
0000
0000
,
0010
0000
0000
0000
,
0100
0000
0000
0000
,
1000
0000
0000
0000
,
1000
0000
0000
0000
,
1001
0000
0000
0000
,
0001
0000
0000
0000
,
1000
0000
0000
0000
,
1000
0000
0000
0000
,
0100
0000
0000
0000
,
0010
0000
0000
0000
,
0001
0000
0000
0000
,
1001
0000
0000
0000
,
1001
0000
0000
0000
,
0001
0000
0000
0000
,
0010
0000
0000
0000
,
0100
0000
0000
0000
,
1000
0000
0000
0000
,
0001
0000
0000
0000
,
1000
0000
0000
0000
,
1000
0000
0000
0000
,
1001
0000
0000
0000
,
0010
0000
0000
0000
,
0110
0000
0000
0000
;
