#TITLE:レッツゴー!! ライダーキック;
#SUBTITLE:;
#ARTIST:♪♪♪♪♪;
#TITLETRANSLIT:LET'S GO!! RIDER KICK;
#SUBTITLETRANSLIT:;
#ARTISTTRANSLIT:(ANIME);
#CREDIT:DigiMindAxel;
#BANNER:LET'S GO!! RIDER KICK.png;
#BACKGROUND:LET'S GO!! RIDER KICK-bg.png;
#LYRICSPATH:LET'S GO!! RIDER KICK.lrc;
#CDTITLE:pop'n music.png;
#MUSIC:LET'S GO!! RIDER KICK.mp3;
#OFFSET:-4.820;
#SAMPLESTART:51.256;
#SAMPLELENGTH:12.000;
#SELECTABLE:YES;
#BPMS:0.000=134.000;
#STOPS:;
#BGCHANGES:;

//---------------dance-single - ----------------
#NOTES:
     dance-single:
     :
     Easy:
     2:
     0.229,0.258,0.188,0.320,0.000: // measure 1
1000
0000
0001
0000
,  // measure 2
1000
0000
0001
0000
,  // measure 3
2000
0000
3010
1000
,  // measure 4
0002
0000
0103
0001
,  // measure 5
1000
0100
0010
0001
,  // measure 6
1000
2000
0000
0000
,  // measure 7
3001
0000
0100
0000
,  // measure 8
0010
0000
1000
1001
,  // measure 9
0001
0000
1000
0000
,  // measure 10
0100
0000
0010
0000
,  // measure 11
1001
0000
1001
0000
,  // measure 12
0001
2000
0000
0000
,  // measure 13
3001
0010
0100
1000
,  // measure 14
0001
0000
0000
0000
,  // measure 15
1000
2000
0000
3000
,  // measure 16
1001
0000
0000
0000
,  // measure 17
0001
0002
0000
0003
,  // measure 18
1001
0000
0000
0000
,  // measure 19
2000
0000
3100
0000
,  // measure 20
0020
0000
0031
0000
,  // measure 21
1000
0002
0000
0103
,  // measure 22
0020
0000
0000
0030
,  // measure 23
1001
0000
1000
0000
,  // measure 24
0100
0000
0010
0000
,  // measure 25
1001
0000
0001
0000
,  // measure 26
0010
0000
0100
0000
,  // measure 27
2000
0000
3100
1000
,  // measure 28
0002
0000
0013
0001
,  // measure 29
0200
0000
0320
0000
,  // measure 30
1030
0100
0010
0001
,  // measure 31
2000
0000
0000
0000
,  // measure 32
3001
0100
0001
0000
,  // measure 33
2000
0000
0000
0000
,  // measure 34
3010
1000
0010
0000
,  // measure 35
1001
0000
1001
0000
,  // measure 36
1000
0002
0000
0000
,  // measure 37
1003
0000
0100
0000
,  // measure 38
0010
0000
0001
0000
,  // measure 39
1000
2000
0000
3000
,  // measure 40
1001
0000
0000
0000
,  // measure 41
0001
0002
0000
0003
,  // measure 42
1001
0000
0000
0000
,  // measure 43
0002
0000
1003
0100
,  // measure 44
2000
0000
3001
0010
,  // measure 45
0002
0203
0000
0320
,  // measure 46
2030
0000
0000
3000
,  // measure 47
1001
2000
0000
3000
,  // measure 48
0110
0020
0000
0030
,  // measure 49
1001
0002
0000
0003
,  // measure 50
0110
0200
0000
0300
,  // measure 51
1001
2000
0000
3000
,  // measure 52
1001
0002
0000
0003
,  // measure 53
0110
0200
0000
0300
,  // measure 54
0110
2002
0000
0000
,  // measure 55
0000
0000
0000
3003
;

//---------------dance-single - ----------------
#NOTES:
     dance-single:
     :
     Medium:
     5:
     0.381,0.387,0.311,0.339,0.000: // measure 1
0002
0000
0000
2003
0000
0000
3020
0000
,  // measure 2
0000
0230
0000
0000
0301
0000
0000
0000
,  // measure 3
1000
0100
0010
0000
0000
1100
0000
0000
,  // measure 4
0001
0010
0100
0000
0000
0011
0000
0000
,  // measure 5
0100
0010
0100
0000
0001
1000
0001
0000
,  // measure 6
0001
1000
1000
0000
0010
0010
0000
0000
,  // measure 7
1000
0001
1000
0000
0010
0100
0010
0000
,  // measure 8
1000
0001
1000
0000
1000
0000
0110
0000
,  // measure 9
0001
1000
0001
0000
0100
0010
0100
0000
,  // measure 10
0001
1000
0001
0000
0001
0000
0000
0000
,  // measure 11
1001
0110
1001
0110
,  // measure 12
1001
2002
0000
3003
,  // measure 13
1000
0100
1000
0000
0001
0100
0001
0000
,  // measure 14
1000
0200
0010
0310
,  // measure 15
0002
0020
0000
0033
,  // measure 16
1001
0000
0000
0000
1000
0001
0000
0000
,  // measure 17
2000
0200
0000
3300
,  // measure 18
1001
0000
0000
0000
0001
1000
0000
0000
,  // measure 19
0001
0200
0000
0000
0310
0000
0000
0000
,  // measure 20
1000
0020
0000
0000
0130
0000
0000
0000
,  // measure 21
0002
2000
3003
2000
,  // measure 22
0002
0000
0000
3003
,  // measure 23
1100
0000
0001
0100
0001
0000
1000
0100
,  // measure 24
0010
0000
0002
2000
0000
0000
3003
0000
,  // measure 25
0101
0000
1000
0100
1000
0000
0001
0010
,  // measure 26
0100
0000
2000
0002
0000
0000
3003
0000
,  // measure 27
0001
0010
0100
0000
0000
0011
0000
0000
,  // measure 28
1000
0100
0010
0000
0000
1100
0000
0000
,  // measure 29
0010
0100
0010
0000
1000
0001
1000
0000
,  // measure 30
1000
0001
0001
0000
0100
0100
0000
0000
,  // measure 31
0001
1000
0001
0000
0100
0010
0100
0000
,  // measure 32
0001
1000
0001
0000
0001
0000
1001
0000
,  // measure 33
1000
0001
1000
0000
0010
0100
0010
0000
,  // measure 34
1000
0001
1000
0000
1000
0000
0000
0000
,  // measure 35
1001
0110
1001
0110
,  // measure 36
1001
2002
0000
3003
,  // measure 37
0001
0010
0001
0000
1000
0010
1000
0000
,  // measure 38
0200
0010
0010
0310
,  // measure 39
0002
0200
0000
0303
,  // measure 40
1001
0000
0000
0000
1000
0001
0000
0000
,  // measure 41
2000
0020
0000
3030
,  // measure 42
1001
0000
0000
0000
0001
1000
0000
0000
,  // measure 43
0010
0200
0000
0000
0001
0301
0000
0000
,  // measure 44
0100
0020
0000
0000
1000
1030
0000
0000
,  // measure 45
0020
0200
0330
2000
,  // measure 46
0002
0000
0000
3003
,  // measure 47
1001
0000
0001
0010
0100
1000
0000
0000
,  // measure 48
1001
0000
1000
0100
0010
0001
0000
0000
,  // measure 49
1001
0000
0001
0010
0100
1000
0000
0000
,  // measure 50
1001
0000
1000
0100
0010
0001
0000
0000
,  // measure 51
0110
0000
0100
0010
1000
0001
0000
0000
,  // measure 52
0110
0000
0010
0100
0001
1000
0000
0000
,  // measure 53
0110
0000
0100
0010
1000
0001
0000
0000
,  // measure 54
1001
2002
0000
0000
,  // measure 55
0000
0000
0000
3003
;

//---------------dance-single - ----------------
#NOTES:
     dance-single:
     :
     Hard:
     7:
     0.442,0.439,0.207,0.433,0.019: // measure 1
2000
0000
0000
3200
0000
0000
0302
0000
,  // measure 2
0000
0203
0000
0000
2300
0000
0000
0000
,  // measure 3
3001
0010
0100
0000
1000
0002
0000
0000
,  // measure 4
1003
0100
0010
0000
0001
2000
0000
0000
,  // measure 5
3001
0100
0001
1000
0100
0000
0010
0000
,  // measure 6
0100
1000
2000
0000
0010
3020
0000
0100
,  // measure 7
0130
0001
0010
0100
1000
0100
0010
0000
,  // measure 8
0001
0010
0100
1000
0010
0000
0110
0000
,  // measure 9
0100
0001
0100
0001
2000
0000
3100
0000
,  // measure 10
0010
0000
0000
0001
0100
0000
0010
0000
0100
0000
0000
0000
0000
0000
0000
0000
,  // measure 11
0101
1100
0101
1100
,  // measure 12
1001
0000
1002
0000
1000
1000
0000
0000
,  // measure 13
1003
0100
1000
0001
0100
1000
0100
0001
,  // measure 14
1000
0000
0000
0000
0020
0000
0000
0000
0100
0000
0000
0100
0000
0000
0130
0000
,  // measure 15
0001
0010
0200
0000
0000
0010
0300
0000
,  // measure 16
1001
0000
0000
0000
1000
0002
0000
0000
,  // measure 17
1003
0100
0020
0000
0000
0000
0030
0000
,  // measure 18
1001
0000
0000
0000
0001
1000
0000
0000
,  // measure 19
0001
0200
0000
0000
0001
0301
0010
0100
,  // measure 20
1000
0020
0000
0000
1000
1030
0100
0010
,  // measure 21
0001
0202
0303
1000
,  // measure 22
2200
0000
0000
3300
,  // measure 23
0001
0001
1000
0100
2000
0000
0010
0010
,  // measure 24
3010
0000
0200
0020
0000
0000
0330
0000
,  // measure 25
1000
1000
0001
0010
0002
0000
0100
0100
,  // measure 26
0103
0000
0020
0200
0000
0000
0330
0000
,  // measure 27
0001
0010
0100
0000
1000
0002
0000
0000
,  // measure 28
1003
0100
0010
0000
0001
2000
0000
0000
,  // measure 29
3010
0100
0010
1000
0100
0001
0100
1000
,  // measure 30
0001
0100
0200
0000
0010
0320
0000
1000
,  // measure 31
1030
0100
0010
0001
0100
1000
0100
0001
,  // measure 32
1000
0100
1000
0100
0010
0000
1001
0000
,  // measure 33
0001
0100
1000
0100
0002
0000
0103
0000
,  // measure 34
0010
0000
0000
1000
0010
0000
0100
0000
0010
0000
0000
0000
0000
0000
0000
0000
,  // measure 35
1100
0101
1100
0101
,  // measure 36
1001
0000
2001
0000
0001
0001
0000
0000
,  // measure 37
3001
0010
0001
1000
0010
0000
0001
0000
,  // measure 38
0010
0000
0000
0000
2000
0000
0000
0000
0001
0000
0000
0001
0000
0000
3001
0000
,  // measure 39
0200
0020
0000
0330
,  // measure 40
1001
0000
0000
0000
0001
1000
0000
0000
,  // measure 41
0020
0200
0000
0330
,  // measure 42
1001
0000
0000
0000
1000
0001
0000
0000
,  // measure 43
1000
0002
0000
0000
1000
1003
0100
0010
,  // measure 44
0001
2000
0000
0000
0001
3001
0010
0100
,  // measure 45
2000
0020
3030
0200
,  // measure 46
0002
0000
0000
0300
0000
1000
0003
1000
,  // measure 47
0001
0000
0100
1000
0100
0001
0000
1000
,  // measure 48
0001
0000
1000
0100
0001
0100
0000
1000
,  // measure 49
0001
0000
0010
1000
0010
0001
0000
1000
,  // measure 50
0001
0000
1000
0010
0100
0001
1000
0000
,  // measure 51
1000
0000
0100
0001
0100
1000
0000
0001
,  // measure 52
1000
0000
0001
0100
1000
0100
0000
0001
,  // measure 53
1000
0000
0010
0001
0010
1000
0000
0000
,  // measure 54
0011
2002
0000
0000
,  // measure 55
0000
0000
0000
3003
;

//---------------dance-single - ----------------
#NOTES:
     dance-single:
     :
     Challenge:
     8:
     0.563,0.671,0.188,0.245,0.415: // measure 1
0001
0010
0001
0010
0001
0000
0010
0001
0010
0001
0010
0000
0001
1000
0001
1000
,  // measure 2
0001
0000
1000
0010
1000
0010
1000
0000
0010
1000
0010
1000
0010
0000
0000
0000
,  // measure 3
1000
0000
0000
1000
0010
0000
0000
0010
0100
0000
0002
0000
0000
0000
0000
0000
,  // measure 4
1003
0000
0000
1000
0010
0000
0000
0010
0100
0000
0002
0000
0000
0000
0000
0000
,  // measure 5
1003
0100
0001
0100
1000
0001
0100
0010
,  // measure 6
1000
0100
0002
0000
0103
2000
0000
0001
,  // measure 7
3001
0000
0000
0001
0100
0000
0000
0100
0001
0000
0000
0001
1000
0000
0000
1000
,  // measure 8
0100
0000
0000
0100
1000
0000
0000
1000
0001
0000
0000
0000
1001
0000
0000
0000
,  // measure 9
1000
0000
0000
1000
0010
0000
0000
0010
1000
0000
0000
1000
0001
0000
0000
0001
,  // measure 10
0010
0000
0000
0010
0001
0000
0000
0001
1000
0000
0000
1000
0001
0000
0000
0000
,  // measure 11
0101
0110
0101
0110
,  // measure 12
1100
0000
2100
0000
0001
0001
0000
0000
,  // measure 13
3001
0000
0010
0000
0100
0000
1000
0000
0001
0000
0000
0001
0100
0000
0000
0100
,  // measure 14
0010
0000
0000
0000
2000
0000
0000
0000
0001
0000
0000
0001
0000
0000
3001
0000
,  // measure 15
0100
0010
1000
0100
0010
0001
1000
0000
,  // measure 16
1001
0000
0000
1000
0001
0000
0000
0001
0100
0000
0010
0000
0100
0000
0000
0000
,  // measure 17
0010
0100
0001
0010
0100
1000
0001
0000
,  // measure 18
1001
0000
0000
0001
1000
0000
0000
1000
0010
0000
0100
0000
0010
0000
0000
0000
,  // measure 19
1000
0200
0000
0301
0100
1000
0010
0100
,  // measure 20
0001
0200
0000
1300
0100
0001
0010
0100
,  // measure 21
1000
0000
0000
1000
0020
0000
0000
0000
0130
0000
0000
0100
0001
0000
0000
0001
,  // measure 22
2000
0000
0010
0000
3010
0000
0100
0010
,  // measure 23
1000
0000
1000
0000
0001
0000
0010
0000
0100
0000
0000
0000
1000
0001
1000
0001
,  // measure 24
1000
0000
0002
0020
0000
0000
0033
0000
,  // measure 25
0001
0000
0001
0000
1000
0000
0100
0000
0010
0000
0000
0000
0001
1000
0001
1000
,  // measure 26
0001
0000
2000
0200
0000
0000
3300
0000
,  // measure 27
0001
0000
0000
0001
0100
0000
0000
0100
0010
0000
2000
0000
0000
0000
0000
0000
,  // measure 28
3001
0000
0000
0001
0100
0000
0000
0100
0010
0000
2000
0000
0000
0000
0000
0000
,  // measure 29
3001
0100
1000
0100
0001
0010
0100
1000
,  // measure 30
0001
0100
2000
0000
3100
0002
0000
1003
,  // measure 31
0001
0000
0000
0001
1000
0000
0000
1000
0100
0000
0000
0100
0010
0000
0000
0010
,  // measure 32
0001
0000
0000
0001
0100
0000
0000
0100
0010
0000
0000
0000
1001
0000
0000
0000
,  // measure 33
1000
0000
0000
1000
0001
0000
0000
0001
0010
0000
0000
0010
0100
0000
0000
0100
,  // measure 34
1000
0000
0000
1000
0001
0000
0000
0001
0100
0000
0000
0100
0010
0000
0000
0000
,  // measure 35
1100
0110
1100
0110
,  // measure 36
0101
0000
0102
0000
1000
1000
0000
0000
,  // measure 37
1003
0000
0100
0000
0001
0000
0100
0000
1000
0000
0000
0010
0100
0000
0000
0100
,  // measure 38
0001
0000
0000
0000
2000
0000
0000
0000
0001
0000
0000
0001
0000
0000
3001
0000
,  // measure 39
0100
0010
1000
0100
0010
0001
1000
0000
,  // measure 40
1001
0000
0000
1000
0001
0000
0000
0001
0100
0000
0010
0000
0100
0000
0000
0000
,  // measure 41
0010
0100
0001
0010
0100
1000
0001
0000
,  // measure 42
1001
0000
0000
0001
1000
0000
0000
1000
0010
0000
0100
0000
0010
0000
0000
0000
,  // measure 43
1000
0200
0000
0301
0100
1000
0100
0010
,  // measure 44
0001
0200
0000
1300
0100
0001
0010
0100
,  // measure 45
1000
0000
0000
0001
0200
0000
0000
0000
0310
0000
0000
0010
1000
0000
0000
1000
,  // measure 46
0002
0000
0100
0000
0103
0000
0010
0100
,  // measure 47
0001
0000
0000
0000
0010
0001
0010
0001
1000
0010
1000
0000
0000
0000
0001
0000
,  // measure 48
1000
0000
0000
0000
0010
1000
0010
1000
0001
0010
0001
0000
0000
0000
1000
0000
,  // measure 49
0001
0000
0000
0000
0100
0001
0100
0001
1000
0100
1000
0000
0000
0000
0001
0000
,  // measure 50
1000
0000
0000
0000
0010
0100
0010
0000
1000
0001
1000
0000
0001
0000
0000
0000
,  // measure 51
0001
0000
0000
0000
0010
0001
0010
0001
0100
0010
0100
0000
0000
0000
0001
0000
,  // measure 52
1000
0000
0000
0000
0100
1000
0100
1000
0010
0100
0010
0000
0000
0000
1000
0000
,  // measure 53
0001
0000
0000
0000
0100
0010
0100
0010
0100
0001
0100
0000
0000
0000
0000
0000
,  // measure 54
1010
2002
0000
0000
,  // measure 55
0000
0000
0000
3003
;

//---------------dance-single - ----------------
#NOTES:
     dance-single:
     :
     Beginner:
     1:
     0.074,0.125,0.085,0.000,0.000: // measure 1
0000
0000
0000
0000
,  // measure 2
0000
0000
0000
0000
,  // measure 3
1000
0000
0000
0000
,  // measure 4
1000
0000
0000
0000
,  // measure 5
0001
0000
0000
0000
,  // measure 6
0000
0000
0000
0000
,  // measure 7
0001
0000
0000
0000
,  // measure 8
0001
0000
0000
0000
,  // measure 9
0100
0000
0000
0000
,  // measure 10
0100
0000
0000
0000
,  // measure 11
0110
0000
0000
0000
,  // measure 12
0110
0000
0000
0000
,  // measure 13
1000
0000
0000
0000
,  // measure 14
0000
0000
0000
0000
,  // measure 15
0001
0000
0000
0000
,  // measure 16
1001
0000
0000
0000
,  // measure 17
0001
0000
0000
0000
,  // measure 18
1001
0000
0000
0000
,  // measure 19
1000
0000
0000
0000
,  // measure 20
0001
0000
0000
0000
,  // measure 21
1000
0000
0000
0000
,  // measure 22
1000
0000
0000
0000
,  // measure 23
0010
0000
0000
0000
,  // measure 24
0000
0000
0000
0000
,  // measure 25
0010
0000
0000
0000
,  // measure 26
0000
0000
0000
0000
,  // measure 27
1000
0000
0000
0000
,  // measure 28
0001
0000
0000
0000
,  // measure 29
1000
0000
0000
0000
,  // measure 30
0000
0000
0000
0000
,  // measure 31
1000
0000
0000
0000
,  // measure 32
1000
0000
0000
0000
,  // measure 33
0001
0000
0000
0000
,  // measure 34
0001
0000
0000
0000
,  // measure 35
1001
0000
0000
0000
,  // measure 36
1001
0000
0000
0000
,  // measure 37
1000
0000
0000
0000
,  // measure 38
0000
0000
0000
0000
,  // measure 39
0001
0000
0000
0000
,  // measure 40
1001
0000
0000
0000
,  // measure 41
1000
0000
0000
0000
,  // measure 42
1001
0000
0000
0000
,  // measure 43
0001
0000
0000
0000
,  // measure 44
0001
0000
0000
0000
,  // measure 45
0100
0000
0000
0000
,  // measure 46
0010
0000
0000
0000
,  // measure 47
0100
0000
0000
0000
,  // measure 48
0100
0000
0000
0000
,  // measure 49
0100
0000
0000
0000
,  // measure 50
0100
0000
0000
0000
,  // measure 51
0010
0000
0000
0000
,  // measure 52
0010
0000
0000
0000
,  // measure 53
0010
0000
0000
0000
,  // measure 54
0000
1001
0000
0000
;
