#TITLE:ラスネール;
#SUBTITLE:;
#ARTIST:mur.mur.kurotoh;
#TITLETRANSLIT:LACENAIRE;
#SUBTITLETRANSLIT:;
#ARTISTTRANSLIT:;
#CREDIT:DigiMindAxel;
#BANNER:LACENAIRE.png;
#BACKGROUND:LACENAIRE-bg.png;
#LYRICSPATH:LACENAIRE.lrc;
#CDTITLE:ee'MALL.png;
#MUSIC:LACENAIRE.mp3;
#OFFSET:-4.580;
#SAMPLESTART:21.965;
#SAMPLELENGTH:12.000;
#SELECTABLE:YES;
#BPMS:0.000=110.000;
#STOPS:;
#BGCHANGES:;

//---------------dance-single - ----------------
#NOTES:
     dance-single:
     :
     Easy:
     2:
     0.166,0.170,0.085,0.064,0.000:
0010
0110
0000
0000
,
0010
0110
0000
0000
,
1000
1001
0000
0000
,
1000
1001
0000
0000
,
0010
0110
0000
0000
,
0010
0110
0000
0000
,
0001
1001
0000
0000
,
0001
1001
0000
0000
,
0001
1000
0000
1000
,
0100
1000
0000
0000
,
1000
0001
0000
0001
,
0010
0001
0000
0000
,
0001
1000
0000
1000
,
0010
1000
0000
1000
,
1000
0001
0000
0001
,
0100
0001
0000
0001
,
0200
0000
0000
0000
,
0000
0000
0000
0000
,
0320
0000
0000
0000
,
0000
0000
0000
0000
,
1030
0001
0000
0001
,
0100
0001
0000
0001
,
1000
0010
0000
1000
,
0100
1000
0001
0010
,
0001
1000
0000
1000
,
0001
1000
0000
1000
,
0010
0100
0000
0001
,
0100
0010
0100
0010
,
0100
0001
0000
1000
,
0010
0100
0000
0001
,
1000
0000
0000
1000
,
0010
0100
0010
0100
,
0010
1000
0000
1000
,
0001
0010
0000
0001
,
0100
0010
0000
1000
,
0001
0100
0010
0100
,
0002
0000
0000
0000
,
2003
0000
0000
0000
,
3002
0000
0000
0000
,
0023
0000
0000
0000
,
0030
0000
0000
0000
;

//---------------dance-single - ----------------
#NOTES:
     dance-single:
     :
     Medium:
     5:
     0.301,0.318,0.085,0.000,0.000:
0100
0001
0100
0000
0000
0001
1000
0000
,
0010
1000
0010
0000
0000
1000
0001
0000
,
0010
0001
0010
0000
0000
0001
1000
0000
,
0100
1000
0100
0000
0000
1000
0001
0000
,
0100
0010
1000
0000
0000
0010
0100
0000
,
0010
0100
0001
0000
0000
0100
0010
0000
,
0100
0010
1000
0000
0000
0010
0100
0000
,
0010
0100
0001
0000
0000
0100
0010
0000
,
1001
0000
1000
0000
0000
1000
0100
1000
,
0001
0000
0001
0000
0000
0001
0010
0001
,
1000
0000
1000
0000
0000
1000
0010
1000
,
0001
0001
1000
1000
,
1001
0000
0001
0000
0000
0001
0010
0001
,
1000
0000
1000
0000
0000
1000
0100
1000
,
0001
0000
0001
0000
0000
0001
0100
0001
,
1000
0000
1000
0001
0010
0001
0010
0100
,
0010
0010
0000
0000
,
0010
0010
0000
0000
,
0100
0100
0000
0000
,
0100
0100
0000
0000
,
1001
0000
0100
0000
1000
0100
0001
0000
,
1001
0000
0010
0000
0001
0010
1000
0000
,
1001
0000
0001
0010
0001
1000
0100
1000
,
0001
0000
0010
0000
1000
0010
0001
1000
,
0010
0000
1000
0000
0100
0010
0001
0000
,
1001
0000
0100
0000
1000
0100
0001
0000
,
1001
0000
1000
0100
1000
0001
0010
0001
,
1000
0000
0100
0000
0001
0100
1000
0001
,
0010
0000
0001
0000
0000
0100
0010
0100
,
0001
0000
0001
0000
0000
0010
0100
0010
,
0001
0000
0001
0000
0000
0100
0010
0100
,
0001
0010
0001
1000
0100
1000
0001
0000
,
1001
0000
1000
0000
0000
0010
0100
0010
,
1000
0000
1000
0000
0000
0100
0010
0100
,
1000
0000
1000
0000
0000
0010
0100
0010
,
1000
0100
1000
0001
0010
0001
1000
0000
,
0100
0001
0000
0000
,
0100
1000
0000
0000
,
0010
0001
0000
0000
,
0010
0000
1000
0000
0000
0100
0010
0001
;

//---------------dance-single - ----------------
#NOTES:
     dance-single:
     :
     Hard:
     7:
     0.409,0.403,0.021,0.043,0.048:
0001
0010
0100
0000
0000
1000
0100
1000
,
0001
0010
0100
0000
0000
1000
0010
1000
,
0001
0010
0100
0000
0000
1000
0100
0001
,
0100
1000
0001
0000
0000
0010
0100
0010
,
0001
0100
1000
0000
0000
0100
0001
1000
,
0100
0010
0001
0000
0000
0010
0100
1000
,
0100
0010
0001
0000
0000
0100
0001
1000
,
0100
0010
0001
0000
0000
0100
0110
0000
,
0100
0001
1000
0100
0000
1000
0100
1000
,
0001
0010
0100
0010
0000
0100
0010
0001
,
1000
0001
0010
1000
0010
0001
0010
0100
,
0000
0010
0100
1000
0001
0010
0001
0010
,
0001
0100
0010
1000
0000
0010
0100
0001
,
0001
1000
0100
0001
0100
1000
0001
0001
,
1000
0100
0010
0001
0100
0010
0010
1000
,
0100
0001
0100
1000
0001
0010
0100
1000
,
0002
0100
0000
0003
,
0200
0010
0000
0300
,
0020
1000
0000
0030
,
2000
0000
0100
0000
3001
0100
0110
0000
,
0010
1000
0100
0000
0000
1000
0100
1000
,
0001
0010
1000
0000
0000
0010
0001
0100
,
1000
0100
0001
0000
0000
0100
0010
0100
,
0001
0100
0001
0000
1000
0000
0001
0000
1000
0010
1000
0000
0001
0000
0001
0000
,
0010
0100
1000
0000
0000
0010
0100
0010
,
1000
0100
0001
0000
0000
0100
1000
0001
,
0010
1000
0010
0001
1000
0100
0010
0100
,
1000
0001
1000
0000
0010
0000
0100
0000
0001
1000
0001
0000
0010
0000
0100
0000
,
1000
0100
0010
0001
0000
0100
0001
0010
,
0100
1000
0100
0001
0000
0100
1000
0100
,
0010
0001
0100
0010
0000
0100
0001
0010
,
0001
1000
0001
0000
0100
0000
0010
0000
1000
0001
1000
0000
0100
0000
0010
0000
,
0001
0010
1000
0010
0000
0001
1000
0100
,
0010
0001
0100
1000
0000
0100
0001
0010
,
0100
1000
0010
0100
0000
0001
0010
0100
,
1000
0010
1000
0000
0100
0000
0010
0000
0001
1000
0001
0000
0100
0000
0100
0010
,
0100
0010
1000
0000
0000
0100
0010
0001
,
1000
0100
0010
0000
0000
0001
0010
0100
,
1000
0001
0010
0000
0000
0100
1000
0001
,
0010
0100
0010
0000
0000
0001
1000
0001
;

//---------------dance-single - ----------------
#NOTES:
     dance-single:
     :
     Challenge:
     8:
     0.533,0.488,0.074,0.000,0.362: // measure 1
1010
1000
0001
0000
0000
0010
0100
0010
,  // measure 2
0101
0000
0001
0000
1000
0000
0000
0000
0000
0000
0010
0000
0010
0100
0010
0100
,  // measure 3
0010
1000
0001
0000
0000
0010
0100
1000
,  // measure 4
1001
0000
1000
0000
0001
0000
0100
0000
0000
0000
0100
0000
0100
0010
0100
0010
,  // measure 5
0100
0000
0001
0000
1000
0000
0000
1000
0000
0000
0010
0000
1000
0000
0001
0000
,  // measure 6
1001
0000
1000
0000
0001
0000
0000
0001
0000
0000
0100
0000
0001
0000
1000
0000
,  // measure 7
1001
0000
0001
0000
1000
0000
0000
1000
0000
0000
0010
0000
1000
0000
0001
0000
,  // measure 8
1001
0000
1000
0000
0001
0000
0000
0001
0100
0010
0100
0000
0000
0000
0100
0010
,  // measure 9
0100
0000
0001
0000
0010
0000
0100
0000
0000
0000
1000
0000
1000
0000
0010
0100
,  // measure 10
0010
1000
0100
0010
0000
0001
0001
1000
,  // measure 11
0001
0000
0010
0000
1000
0000
0010
0000
0001
0000
1000
0000
0001
0000
0100
0010
,  // measure 12
0100
0000
0001
0000
1000
0000
0100
0000
0001
0000
0100
0000
1000
0000
0010
0100
,  // measure 13
0010
0000
1000
0000
0001
0000
0011
0000
0000
0000
0100
0000
1000
0000
0010
0100
,  // measure 14
0010
0000
1000
0000
0100
0000
1000
0000
0001
0000
0100
0000
0001
1000
0001
1000
,  // measure 15
0001
0000
0100
0000
1000
0000
0100
0000
0001
0000
1000
0000
0100
0000
0010
0100
,  // measure 16
0010
0000
0001
0000
0010
0000
0100
0000
1000
0001
1000
0001
1000
0001
1000
0001
,  // measure 17
1000
0100
0010
0000
0000
0001
1000
0100
,  // measure 18
0001
0100
1000
0000
0000
0001
1000
0010
,  // measure 19
0001
0010
1000
0000
0000
0001
1000
0100
,  // measure 20
0001
0000
0100
0000
1000
0000
0000
0000
0010
0100
0010
0000
0100
0000
0010
0100
,  // measure 21
0010
1000
0100
0010
0001
0010
1000
0010
,  // measure 22
0001
0000
0100
0000
1000
0000
0100
0000
0001
1000
0001
0000
0100
0010
0100
0010
,  // measure 23
0100
0001
0010
0100
1000
0100
0001
0100
,  // measure 24
1000
0100
0010
0000
0001
0000
0001
0000
0010
0100
1000
0000
0001
1000
0001
1000
,  // measure 25
0001
0010
1000
0010
0001
0100
1000
0100
,  // measure 26
0001
0000
1000
0000
0100
0000
0010
0000
0001
0000
1000
0000
0010
0100
0010
0100
,  // measure 27
0010
1000
0100
0001
0100
1000
0001
0100
,  // measure 28
0001
0010
0100
0000
1000
0000
1000
0000
0100
0010
0001
0000
1000
0000
1000
0000
,  // measure 29
0001
0010
0001
0010
0100
1000
0000
0010
0000
0000
1000
0000
0001
0000
0001
0000
,  // measure 30
1000
0100
1000
0100
0010
0001
0000
0100
0010
0000
0100
0000
0010
0000
1000
0001
,  // measure 31
1000
0100
1000
0100
0010
0001
0000
0100
0000
0000
0001
0000
1000
0000
1000
0000
,  // measure 32
0001
0010
0100
0000
1000
0000
0001
0000
1000
0100
0010
0000
0001
1000
0001
1000
,  // measure 33
0001
0100
0001
0100
0010
1000
0000
0010
0000
0000
1000
0000
0001
0000
0001
0000
,  // measure 34
1000
0010
1000
0010
0100
0001
0000
0100
0000
0000
0001
0000
1000
0001
1000
0001
,  // measure 35
1000
0100
1000
0010
0100
0001
0000
0100
0000
0000
0001
0000
1000
0000
1000
0000
,  // measure 36
0001
0010
0100
0000
1000
0000
0001
0000
1000
0100
0010
0000
0001
0000
1000
0100
,  // measure 37
1000
0001
0100
0000
0000
0001
0100
0010
,  // measure 38
1000
0100
0001
0000
0000
0100
1000
0001
,  // measure 39
0100
0010
1000
0000
0000
0100
0001
0100
,  // measure 40
1000
0100
0010
0000
0000
0001
0001
1000
;

//---------------dance-single - ----------------
#NOTES:
     dance-single:
     :
     Beginner:
     1:
     0.056,0.062,0.000,0.000,0.000:
0001
0000
0000
0000
,
1000
0000
0000
0000
,
0001
0000
0000
0000
,
1000
0000
0000
0000
,
0010
0000
0000
0000
,
0100
0000
0000
0000
,
0010
0000
0000
0000
,
0010
0000
0000
0000
,
1000
0000
0000
0000
,
1000
0000
0000
0000
,
0001
0000
0000
0000
,
0001
0000
0000
0000
,
1000
0000
0000
0000
,
1000
0000
0000
0000
,
0001
0000
0000
0000
,
0001
0000
0000
0000
,
0100
0000
0000
0000
,
0000
0000
0000
0000
,
0000
0000
0000
0000
,
0000
0000
0000
0000
,
0010
0000
0000
0000
,
0100
0000
0000
0000
,
0010
0000
0000
0000
,
0010
0000
0000
0000
,
1000
0000
0000
0000
,
0001
0000
0000
0000
,
1000
0000
0000
0000
,
1000
0000
0000
0000
,
0001
0000
0000
0000
,
0001
0000
0000
0000
,
0010
0000
0000
0000
,
0100
0000
0000
0000
,
1000
0000
0000
0000
,
1000
0000
0000
0000
,
0100
0000
0000
0000
,
0010
0000
0000
0000
,
0001
0000
0000
0000
,
1000
0000
0000
0000
,
0001
0000
0000
0000
,
0001
0000
0000
0000
;
