#TITLE:恋する東京;
#SUBTITLE:SF_P5 ElePop Mix;
#ARTIST:パーキッツ Rmx by Sota Fujimori;
#TITLETRANSLIT:KOI SURU TOKYO;
#SUBTITLETRANSLIT:;
#ARTISTTRANSLIT:PARQUETS Rmx by Sota Fujimori;
#CREDIT:DigiMindAxel;
#BANNER:KOI SURU TOKYO SF_P5 ElePop Mix.png;
#BACKGROUND:KOI SURU TOKYO SF_P5 ElePop Mix-bg.png;
#LYRICSPATH:KOI SURU TOKYO SF_P5 ElePop Mix.lrc;
#CDTITLE:pop'n music.png;
#MUSIC:KOI SURU TOKYO SF_P5 ElePop Mix.mp3;
#OFFSET:-7.700;
#SAMPLESTART:51.315;
#SAMPLELENGTH:12.000;
#SELECTABLE:YES;
#BPMS:0.000=132.000;
#STOPS:;
#BGCHANGES:;

//---------------dance-single - ----------------
#NOTES:
     dance-single:
     :
     Easy:
     2:
     0.195,0.216,0.158,0.158,0.000:
1000
0000
1000
0000
,
0001
0000
0001
0000
,
0220
0000
0000
0330
,
2000
0000
0000
3000
,
0220
0000
0000
0330
,
0002
0000
0000
0003
,
0220
0000
0000
0330
,
1001
0000
1001
0000
,
1000
0000
0100
0000
,
1000
0000
0100
0000
,
0010
0000
0001
0000
,
0010
0000
0001
0000
,
0200
0000
0010
0000
,
0320
0000
0100
0000
,
0130
0000
0000
0000
,
0000
0001
0000
1000
0000
0000
0000
0000
,
1001
0000
0010
0000
,
0100
0000
1000
0000
,
0010
0000
0100
0000
,
0010
0000
1000
0000
,
0002
0000
1000
0000
,
2003
0000
0001
0000
,
3001
0000
0100
0000
,
0010
0000
1000
0000
,
1001
0000
0110
0000
,
1000
0100
0010
0000
,
1001
0000
0110
0000
,
0001
0010
0100
0000
,
1001
0000
0110
0000
,
1000
0100
0010
0000
,
1001
0000
0110
0000
,
0001
0010
0100
1000
,
0002
0000
0000
0000
,
1003
0000
0010
0000
,
0110
0000
0100
0000
,
0110
0000
0001
1000
,
0001
0010
0100
0000
,
1000
0100
0010
0000
,
1001
0000
0010
0000
,
1001
0000
1000
0100
,
0010
0000
0001
1000
,
0001
0000
0100
0010
,
0200
0000
0001
0000
,
0001
0000
0301
0000
,
2000
0000
0010
0000
,
0010
0000
3010
0000
,
0020
0000
0000
0000
0000
0000
0000
0130
,
0000
0000
0000
0000
,
0001
1000
0001
1000
,
0100
1000
0100
0000
,
0010
0001
0010
0001
,
1000
0001
1000
0000
,
0010
0100
0010
1000
,
0100
0010
0001
0000
,
0100
0010
0100
0001
,
0010
0100
1000
0010
,
0200
0000
0000
0000
,
0320
0000
0000
0000
,
0230
0000
0000
0000
,
0320
0000
0000
0030
,
0110
0000
0000
0000
,
1001
0000
0000
0000
;

//---------------dance-single - ----------------
#NOTES:
     dance-single:
     :
     Medium:
     5:
     0.356,0.433,0.213,0.291,0.000:
0001
1000
0001
1000
,
0001
0100
0010
1000
,
0020
0100
0100
0130
,
0200
0010
0010
0310
,
2000
0001
0001
3001
,
0002
1000
1000
1003
,
0220
0000
0000
0330
,
1001
0000
1001
0000
,
1000
0010
1000
0010
,
0100
0001
0010
0001
,
0010
0100
0010
0100
,
1000
0010
0100
0001
,
2000
0000
0000
0001
3001
0000
0100
0000
,
0002
0000
0000
1000
1003
0000
0010
0000
,
0100
0000
0001
0000
1000
0010
1000
0010
,
0000
0100
0000
0001
0000
1000
1000
0000
,
1001
0010
0100
0010
,
0001
1000
0001
1000
,
0100
0010
0100
1000
,
0001
1000
0001
1000
,
0020
0000
0000
1000
1030
0000
0001
0000
,
0200
0000
0000
0001
0301
0000
1000
0000
,
0010
0100
0010
1000
,
0100
0000
0101
0101
,
0120
1030
0120
1030
,
0120
1030
1010
1001
,
0210
0001
0301
1000
,
1001
0100
0010
0001
,
0210
0301
0210
0301
,
0210
0301
0101
1001
,
0120
1000
1030
0001
,
1001
0010
0100
1000
,
0002
1000
1000
1003
,
0010
0100
0010
0000
1000
0001
1000
0000
,
1020
0000
1000
0000
1030
0000
0100
0001
,
0100
0000
0001
1000
0001
1000
0001
1000
,
0002
0000
0100
0000
0103
0000
0010
1000
,
0010
0000
1000
0001
1000
0000
0001
0000
,
0201
0000
0001
0000
0301
0000
0010
1000
,
0010
0000
1000
0000
1000
0001
1000
0001
,
2000
0000
0010
0000
3010
0000
0100
0001
,
0100
0000
0001
1000
0001
0000
0100
0010
,
2000
0000
0000
0100
3100
0000
1000
0000
,
0002
0000
0000
0010
0013
0000
0001
0000
,
0200
0000
0000
0010
0310
0000
1000
0000
,
1001
1001
0110
0110
,
0002
0000
0000
1003
0000
0010
0100
0020
,
0000
1000
1000
0000
1030
0000
0000
0000
,
0001
0000
0100
0001
0100
0000
0001
0000
,
1000
0000
0100
1000
0100
0000
1000
0000
,
0001
0000
0010
0001
0010
0000
0001
0000
,
1000
0000
0010
1000
0010
0000
1000
0000
,
0002
0023
0230
2300
,
3001
0000
0100
0010
0100
0000
0001
0000
,
1000
0000
0010
0100
0010
1000
0100
0010
,
0001
0000
1000
0001
0100
0100
0010
0010
,
2000
0000
0000
0000
,
3200
0000
0000
0000
,
0320
0000
0000
0000
,
0032
0000
0000
0003
,
1001
0000
2000
0000
,
3001
0000
0000
0000
;

//---------------dance-single - ----------------
#NOTES:
     dance-single:
     :
     Hard:
     7:
     0.476,0.481,0.236,0.236,0.276:
1000
0000
0000
0100
0000
0000
1000
0000
0000
0000
0010
0000
0100
0000
0000
0000
,
0001
0000
0000
0100
0000
0000
0001
0000
0000
0000
0100
0000
0010
0000
0000
0000
,
1000
0000
0000
0100
0000
0000
0001
0000
0000
0100
0000
0000
1000
0000
1000
0000
,
0001
0000
0000
0010
0000
0000
1000
0000
0000
0010
0000
0000
0001
0000
0001
0000
,
0100
0000
0000
0001
0000
0000
0100
0000
0000
1000
0000
0000
0100
0000
0001
0000
,
1000
0000
0000
0010
0000
0000
0001
0000
0000
0010
0000
0000
1000
0000
0001
0000
,
0200
0010
0010
0310
,
0110
0000
0000
0110
0000
0000
0001
0000
2000
0000
0001
0000
3001
0000
0000
0000
,
0200
0000
0000
0001
0000
0000
0301
0000
0000
0000
1000
0000
0100
0000
1000
0000
,
0020
0000
0000
1000
0000
0000
1030
0000
0000
0000
0001
0000
0010
0000
0001
0000
,
2000
0000
0000
0001
0000
0000
3001
0000
0000
0000
0100
0000
0010
0000
0100
0000
,
0002
0000
0000
1000
0000
0000
1003
0000
0000
0000
0000
0000
1100
0000
0000
0000
,
0002
0000
0000
0100
0000
0000
0103
0000
0010
0000
0000
0000
0101
0000
0000
0000
,
2000
0000
0000
0100
0000
0000
3100
0000
0010
0000
0000
0000
1001
0000
0000
0000
,
1000
0010
1000
0001
0100
0001
0010
0100
,
0000
0000
1010
0000
0000
0000
0110
0000
0000
0000
0001
1000
0001
1000
0001
0000
,
0200
0000
0000
0001
0000
0000
0301
0000
0000
0000
1000
0000
0001
0000
0100
0000
,
0020
0000
0000
1000
0000
0000
1030
0000
0000
0000
0001
0000
1000
0000
0100
0000
,
0020
0000
0000
0001
0000
0000
0031
0000
0000
0000
1000
0000
0001
0000
0010
0000
,
0200
0000
0000
1000
0000
0000
1300
0000
0000
0000
0000
0000
0101
0000
0000
0000
,
2000
0000
0000
0100
0000
0000
3100
0000
0010
0000
0000
0000
1100
0000
0000
0000
,
0002
0000
0000
0100
0000
0000
0103
0000
0010
0000
0000
0000
1001
0000
0000
0000
,
0100
0000
0000
0100
0001
0000
0000
0000
0100
0000
0000
0100
0001
0000
0010
0000
,
0100
0000
1000
0000
0001
0000
0001
0000
1000
0001
1000
0001
1000
0001
1000
0000
,
0100
0000
0000
0100
1000
0000
0000
0000
0001
0000
0000
0001
0100
0000
0000
0000
,
0001
0000
0000
0001
1000
0000
0100
0000
0010
0000
0000
0000
0101
0000
0000
0000
,
2100
0000
0000
0001
3001
0000
0100
0001
,
1000
0100
0010
0001
1000
0000
1001
0000
,
0100
0000
0000
0100
0001
0000
0000
0000
1000
0000
0000
1000
0100
0000
0000
0000
,
1000
0000
0000
1000
0001
0000
0010
0000
0100
0000
0000
0000
1100
0000
0000
0000
,
0102
0000
0000
0100
0000
0000
0103
0000
0020
0000
0000
1000
0000
0000
1030
0000
,
0200
0000
0000
0001
0000
0000
0301
0000
0020
0000
0000
1000
0000
0000
1030
0000
,
0001
0100
1000
0100
0001
1000
0100
0010
,
0001
0000
1000
0000
0001
0000
0000
0000
1000
0000
0000
0010
0000
0000
0100
0000
,
0002
0000
0000
0100
0000
0000
0100
0000
0000
0000
1003
0000
0100
0000
0000
0000
,
0010
0000
0000
0100
0000
0000
1000
0000
0100
0000
0001
0000
0100
0000
1000
0000
,
0001
0000
0000
0100
0000
0000
0010
0000
0000
0000
1000
0000
0001
0000
0100
0000
,
1000
0000
0000
0100
0000
0000
0001
0000
0100
0000
0010
0000
0100
0000
0010
0000
,
2000
0000
0000
0100
0000
0000
0100
0000
0000
0000
3001
0000
0010
0000
0000
0000
,
0100
0000
0000
0010
0000
0000
0001
0000
0100
0000
1000
0000
0100
0000
0001
0000
,
1000
0000
0000
0010
0000
0000
0100
0000
0001
0000
1000
0000
0100
0000
0001
0000
,
0100
0000
0000
1000
0000
0000
0010
0000
0100
0000
0000
0000
0001
1000
0001
0000
,
0210
0000
0000
0000
0301
0000
0100
0000
1000
0000
0000
0100
0001
0000
0000
0000
,
0120
0000
0000
0000
1030
0000
0100
0000
0001
0000
0000
0100
1000
0000
0000
0010
,
0200
0000
0000
0000
0301
0000
1000
0000
1000
0000
0000
0010
0100
0000
0000
0000
,
0101
0110
1010
1001
,
0010
1000
0010
0100
0000
0001
0100
2000
,
0000
0100
3100
0000
1001
0000
0000
0000
,
0110
0000
0000
0100
0000
0000
0101
0000
0000
0000
0010
0000
0100
0000
1000
0000
,
0010
0000
0000
1000
0000
0000
1010
0000
0000
0000
0100
0000
0010
0000
0001
0000
,
1000
0000
0000
0100
0000
0000
1100
0000
0000
0000
0010
0000
0001
0000
1000
0000
,
0001
0000
0000
0010
0000
0000
0011
0000
0000
0100
0000
0000
1000
0000
0001
0000
,
0100
0000
0000
0010
1000
0000
0000
1000
0001
0000
0000
0001
0100
0000
0000
0000
,
0010
0000
0000
0010
0100
0000
0001
0000
0001
0000
1000
0000
0100
0000
1000
0000
,
0001
0000
0000
0100
0000
0000
0101
0000
0000
0000
0010
0000
1000
0000
0100
0000
,
0020
0000
0000
0100
0000
0000
0130
0000
1000
0001
1000
0001
1000
0001
1000
0000
,
2001
0100
0001
0100
,
3002
0100
1000
0100
,
2003
0010
0100
3010
,
0002
0100
0010
0103
,
0110
0000
0000
0000
0000
0000
0000
0000
1000
0000
0000
1000
0000
0000
0001
1000
,
0001
0000
0000
0000
;

//---------------dance-single - ----------------
#NOTES:
     dance-single:
     :
     Beginner:
     1:
     0.057,0.096,0.063,0.000,0.000:
1000
0000
0000
0000
,
0000
0000
0000
0000
,
0001
0000
0000
0000
,
1000
0000
0000
0000
,
0001
0000
0000
0000
,
1000
0000
0000
0000
,
0001
0000
0000
0000
,
0000
0000
0000
0000
,
1001
0000
0000
0000
,
1000
0000
0000
0000
,
0001
0000
0000
0000
,
0001
0000
0000
0000
,
0100
0000
0000
0000
,
0000
0000
0000
0000
,
0010
0000
0000
0000
,
0000
0000
0000
0000
,
1000
0000
0000
0000
,
1000
0000
0000
0000
,
0001
0000
0000
0000
,
0001
0000
0000
0000
,
0010
0000
0000
0000
,
0000
0000
0000
0000
,
0100
0000
0000
0000
,
0000
0000
0000
0000
,
1001
0000
0000
0000
,
0000
0000
0000
0000
,
1000
0000
0000
0000
,
0000
0000
0000
0000
,
0001
0000
0000
0000
,
0000
0000
0000
0000
,
1000
0000
0000
0000
,
0000
0000
0000
0000
,
0001
0000
0000
0000
,
0000
0000
0000
0000
,
1001
0000
0000
0000
,
0100
0000
0000
0000
,
0100
0000
0000
0000
,
0100
0000
0000
0000
,
0010
0000
0000
0000
,
0010
0000
0000
0000
,
0010
0000
0000
0000
,
0010
0000
0000
0000
,
1001
0000
0000
0000
,
0000
0000
0000
0000
,
0001
0000
0000
0000
,
0000
0000
0000
0000
,
1000
0000
0000
0000
,
0000
0000
0000
0000
,
1001
0000
0000
0000
,
0000
0000
0000
0000
,
0100
0000
0000
0000
,
0000
0000
0000
0000
,
0100
0000
0000
0000
,
0000
0000
0000
0000
,
0010
0000
0000
0000
,
0000
0000
0000
0000
,
0110
0000
0000
0000
,
0000
0000
0000
0000
,
0001
0000
0000
0000
,
0001
0000
0000
0000
,
1001
0000
0000
0000
,
1001
0000
0000
0000
;

//---------------dance-single - ----------------
#NOTES:
     dance-single:
     :
     Challenge:
     8:
     0.558,0.505,0.221,0.213,0.425: // measure 1
0002
0000
0000
0100
0000
0000
0103
0000
0000
0000
0010
0100
0010
0000
0000
0000
,  // measure 2
2000
0000
0000
0100
0000
0000
3100
0000
0000
1000
0010
0100
0010
0000
0000
0000
,  // measure 3
1000
0010
0000
1000
0010
0000
1000
0010
0000
1000
0010
0000
0100
0000
0100
0000
,  // measure 4
0001
0010
0000
0001
0010
0000
0001
0010
0000
0001
0010
0000
0100
0000
0100
0000
,  // measure 5
1000
0001
0000
1000
0001
0000
1000
0001
0000
1000
0001
0000
0100
0000
0100
0000
,  // measure 6
0010
0100
0000
0010
0100
0000
0010
0100
0000
0010
0100
0000
0001
0000
0001
0000
,  // measure 7
1000
0100
0001
0100
1000
0001
0100
0010
,  // measure 8
0110
0000
0000
0110
0000
0000
0110
0000
1001
0000
0000
0000
1000
0001
1000
0001
,  // measure 9
1000
0000
0000
0010
0100
0000
0001
0000
0000
0000
0010
0000
0100
0000
1000
0000
,  // measure 10
0001
0000
0000
0100
0010
0000
1000
0000
0000
0000
0100
0000
0010
0000
0001
0000
,  // measure 11
1000
0000
0000
0010
0100
0000
0001
0000
0000
0000
0010
0000
0100
0000
0010
0000
,  // measure 12
0001
0000
0000
0100
0010
0000
1000
0000
0000
0000
0010
0100
0020
0000
0000
0000
,  // measure 13
1030
0000
0000
0100
0010
0000
0001
0000
0100
0010
0000
0010
2000
0000
0000
0000
,  // measure 14
3001
0000
0000
0010
0100
0000
1000
0000
0010
0100
0000
0100
0002
0000
0000
0000
,  // measure 15
1003
0100
1000
0000
0100
0010
0100
0000
0010
0001
0010
0000
0100
0000
1001
0000
,  // measure 16
0000
0000
0100
0000
0010
0000
0100
0000
0000
0000
1000
0001
1000
0001
1000
0000
,  // measure 17
0001
0000
0000
0100
0001
0000
1000
0000
0000
0000
0100
0000
0001
0000
0100
0000
,  // measure 18
1000
0000
0000
0010
1000
0000
0001
0000
0000
0000
0100
0000
1000
0000
0100
0000
,  // measure 19
0001
0000
0000
0100
0001
0000
1000
0000
0000
0000
0100
0000
0001
0000
0100
0000
,  // measure 20
1000
0000
0000
0010
1000
0000
0001
0000
0000
0000
0100
0010
0200
0000
0000
0000
,  // measure 21
0301
0000
0000
0010
0001
0000
0010
0000
0100
1000
0000
1000
0002
0000
0000
0000
,  // measure 22
1003
0000
0000
0100
1000
0000
0100
0000
0010
0001
0000
0001
2000
0000
0000
0000
,  // measure 23
3010
0000
0000
0100
0001
0000
0010
0000
0100
0000
0000
0010
0001
0000
0100
0000
,  // measure 24
0010
0000
1000
0000
0100
0000
0010
0000
0001
1000
0001
1000
0001
1000
0001
0000
,  // measure 25
0100
0000
0000
0100
0001
0000
0000
0001
1000
0000
0000
1000
0100
0000
0000
0100
,  // measure 26
0010
0000
0000
0001
1000
0000
0010
0000
0100
0000
0000
0000
0110
0000
0000
0000
,  // measure 27
1000
0100
0001
0100
1000
0000
1001
0000
,  // measure 28
0001
0100
1000
0100
0001
0000
1001
0000
,  // measure 29
0010
0000
0000
0010
0100
0000
0000
0100
0001
0000
0000
0001
0010
0000
0000
0010
,  // measure 30
0100
0000
0000
1000
0001
0000
0100
0000
0010
0000
0000
0000
0110
0000
0000
0000
,  // measure 31
0010
0000
0000
1010
0000
0000
0010
0000
0100
0000
0000
0101
0000
0000
0100
0000
,  // measure 32
0010
0000
0000
0110
0000
0000
0010
0000
0100
0000
0000
1001
0000
0000
1000
0000
,  // measure 33
0001
0010
0001
0000
0010
0100
0010
0000
0100
1000
0100
0000
0010
0000
0001
0000
,  // measure 34
0100
0000
0000
0000
1000
0000
0100
0000
0001
0000
0000
0000
1000
0001
1000
0001
,  // measure 35
2000
0000
0000
0100
0000
0000
3100
0000
0000
0000
0010
0000
0110
0000
0000
0000
,  // measure 36
0200
0000
0000
0001
0000
0000
0301
0000
0010
0000
1000
0000
0010
0000
0001
0000
,  // measure 37
0020
0000
0000
0100
0000
0000
0130
0000
0000
0000
1000
0000
0010
0000
0001
0000
,  // measure 38
0020
0000
0000
1000
0000
0000
1030
0000
0001
0000
0010
0000
0100
0000
1000
0000
,  // measure 39
0002
0000
0000
0010
0000
0000
0013
0000
0000
0000
0100
0010
0200
0000
0000
0000
,  // measure 40
0320
0000
0000
1000
0000
0000
1030
0000
0010
0000
0001
0000
0010
0000
1000
0000
,  // measure 41
0020
0000
0000
0100
0000
0000
0130
0000
0001
0000
0010
0000
1000
0000
0010
0000
,  // measure 42
0002
0000
0000
1000
0000
0000
1003
0000
0010
0000
0000
0000
0100
0010
0100
0000
,  // measure 43
0101
0000
0000
0000
0010
0000
0100
0000
0101
0000
0000
0001
0100
0000
0010
0000
,  // measure 44
1010
0000
0000
0000
0100
0000
0010
0000
1010
0000
0000
1000
0001
0000
0000
0010
,  // measure 45
0100
1000
1000
0100
0010
0001
0001
0100
,  // measure 46
0110
1001
0110
1001
,  // measure 47
1000
0001
0010
0100
0000
1000
0010
0100
,  // measure 48
0000
0110
0110
0000
1001
0000
0000
0000
,  // measure 49
1001
0000
0000
0001
1000
0000
0020
0000
0000
0000
0100
0000
0130
0000
0001
0000
,  // measure 50
0010
0000
0000
0001
1000
0000
0020
0000
0000
0000
0100
0000
0130
0000
0001
0000
,  // measure 51
1000
0000
0000
0100
0010
0000
0002
0000
0000
0000
1000
0000
1003
0000
0100
0000
,  // measure 52
0010
0000
0000
0100
0010
0000
0002
0000
0000
0203
0000
0000
0310
0000
1000
0000
,  // measure 53
0001
0000
0000
0001
0010
0000
0000
0010
0100
0000
0000
0100
1000
0000
0000
0000
,  // measure 54
0010
0000
0000
0010
0100
0000
0001
0000
2000
0000
0001
0000
3001
0000
0100
0000
,  // measure 55
0010
0000
0000
1000
0001
0000
0020
0000
0000
0000
0100
0000
0130
0000
1000
0000
,  // measure 56
0010
0000
0000
1000
0001
0000
0010
0000
0100
1000
0100
1000
0001
0100
0001
0000
,  // measure 57
1001
0000
0000
1000
0000
0000
1000
0000
0000
0000
0010
0000
0200
0000
0000
0000
,  // measure 58
0301
0000
0000
0001
0000
0000
0001
0000
0000
0000
0100
0000
0020
0000
0000
0000
,  // measure 59
1030
0000
0000
1000
0000
0000
1000
0000
0000
0000
0010
0000
0200
0000
0000
0000
,  // measure 60
0301
0000
0000
0001
0000
0000
0001
0000
0000
0000
0100
0000
0010
0000
0000
0000
,  // measure 61
0110
0000
0000
0000
0000
0000
0000
0000
0100
0000
0000
0100
0000
0000
0010
0100
,  // measure 62
0001
0000
0000
0000
;
