#TITLE:君が好きだよ;
#SUBTITLE:~守って守ってあげるから;
#ARTIST:新堂敦士;
#TITLETRANSLIT:KIMI GA SUKI DA YO;
#SUBTITLETRANSLIT:~MAMOTTE MAMOTTE AGERU KARA;
#ARTISTTRANSLIT:ATSUSHI SHINDO;
#CREDIT:DigiMindAxel;
#BANNER:KIMI GA SUKI DA YO ~MAMOTTE MAMOTTE AGERU KARA.png;
#BACKGROUND:KIMI GA SUKI DA YO ~MAMOTTE MAMOTTE AGERU KARA-bg.png;
#LYRICSPATH:KIMI GA SUKI DA YO ~MAMOTTE MAMOTTE AGERU KARA.lrc;
#CDTITLE:pop'n music.png;
#MUSIC:KIMI GA SUKI DA YO ~MAMOTTE MAMOTTE AGERU KARA.mp3;
#OFFSET:-7.760;
#SAMPLESTART:46.235;
#SAMPLELENGTH:12.000;
#SELECTABLE:YES;
#BPMS:0.000=107.000,32.000=105.000,68.000=108.000;
#STOPS:;
#BGCHANGES:;

//---------------dance-single - ----------------
#NOTES:
     dance-single:
     :
     Easy:
     3:
     0.216,0.226,0.208,0.022,0.000: // measure 1
1001
0001
0000
1000
,  // measure 2
0001
0100
1000
0100
,  // measure 3
0001
1000
0000
0001
,  // measure 4
1000
0100
0001
0100
,  // measure 5
1000
0001
0000
0001
,  // measure 6
1000
0010
0001
0010
,  // measure 7
1000
0001
0000
1001
,  // measure 8
1000
0100
0010
0001
,  // measure 9
0110
0000
0110
0000
0001
0000
0000
1001
,  // measure 10
0000
0000
0000
1000
0000
0000
0000
0000
,  // measure 11
1000
0100
0010
0001
,  // measure 12
1000
0001
1000
0001
,  // measure 13
1000
0000
0010
0000
0100
0000
0000
1001
,  // measure 14
0000
0000
0000
0001
0000
0000
0000
0000
,  // measure 15
0001
0010
0100
1000
,  // measure 16
0110
0000
0000
0000
,  // measure 17
0220
0000
0000
0330
,  // measure 18
1001
0001
0010
0100
,  // measure 19
1000
0010
1000
0001
,  // measure 20
0100
0001
0010
0100
,  // measure 21
1000
1000
1010
1001
,  // measure 22
1001
1000
0100
0010
,  // measure 23
0001
0100
0001
1000
,  // measure 24
0010
1000
0100
0010
,  // measure 25
0001
0000
0000
0001
0000
0000
1000
0000
,  // measure 26
1001
1000
0100
0010
,  // measure 27
0001
0010
0001
1000
,  // measure 28
0100
1000
0010
0100
,  // measure 29
0001
0001
0101
1001
,  // measure 30
1001
1000
0100
0010
,  // measure 31
0001
0010
0001
1000
,  // measure 32
0100
1000
0100
0010
,  // measure 33
0001
0000
0000
0001
0000
0000
1000
0000
,  // measure 34
1001
0000
0000
0000
,  // measure 35
0110
0000
0000
1001
0000
0000
0000
0000
;

//---------------dance-single - ----------------
#NOTES:
     dance-single:
     :
     Medium:
     5:
     0.288,0.264,0.175,0.011,0.011: // measure 1
1001
0000
1000
0000
0010
0100
0010
1000
,  // measure 2
0001
0000
0100
0000
1000
0100
0001
0010
,  // measure 3
0100
0000
1000
0000
0010
0100
0010
1000
,  // measure 4
0001
0000
0100
0000
1000
0100
0001
0010
,  // measure 5
0100
0000
1001
0000
0100
0010
0100
0001
,  // measure 6
1000
0000
0100
0000
0001
0100
1000
0100
,  // measure 7
0010
0000
0001
0000
0100
0010
0100
0000
,  // measure 8
0001
0010
0100
1000
0001
0000
0011
0000
,  // measure 9
1001
0000
0001
0000
1000
0100
0000
1001
,  // measure 10
0000
0000
0000
1001
0000
0000
0000
0000
,  // measure 11
0001
0100
1000
0100
,  // measure 12
0001
1000
0001
0000
1000
0001
1000
0000
,  // measure 13
1001
0000
1000
0000
0001
0010
0000
1001
,  // measure 14
0000
0000
0000
1001
0000
0000
0000
0000
,  // measure 15
1000
0100
0001
0100
,  // measure 16
2000
0000
0000
0000
0000
0001
3001
0000
,  // measure 17
0101
0000
0000
1001
0000
0000
0000
0000
0000
0000
0000
0000
0000
0000
0000
0000
,  // measure 18
1000
0001
1000
0100
0010
0000
0010
0000
,  // measure 19
0010
0000
0001
0010
0100
0000
0100
0000
,  // measure 20
0100
0000
1000
0100
0001
0000
0000
0100
,  // measure 21
1000
0001
0100
0001
0100
0000
0110
0000
,  // measure 22
0001
1000
0001
0010
0100
0000
0100
0000
,  // measure 23
0100
0000
1000
0100
0010
0000
0010
0000
,  // measure 24
0010
0000
0001
0010
1000
0000
0010
0001
,  // measure 25
1000
0000
0000
1001
0000
0000
0001
0000
,  // measure 26
1000
0001
1000
0100
0010
0000
0010
0000
,  // measure 27
0010
0000
0001
0010
0100
0000
0100
0000
,  // measure 28
0100
0000
1000
0100
0001
0000
0000
0100
,  // measure 29
1000
0001
0100
0001
0100
0000
0110
0000
,  // measure 30
0001
1000
0001
0010
0100
0000
0100
0000
,  // measure 31
0100
0000
1000
0100
0010
0000
0010
0000
,  // measure 32
0010
0000
0001
0010
1000
0000
0010
0001
,  // measure 33
1000
0000
0000
1001
0000
0000
1000
0100
,  // measure 34
0001
0000
0000
0000
,  // measure 35
0100
0000
0000
1000
0000
0000
1001
0000
0000
0000
0000
0000
0000
0000
0000
0000
;

//---------------dance-single - ----------------
#NOTES:
     dance-single:
     :
     Hard:
     6:
     0.395,0.320,0.307,0.110,0.088: // measure 1
1001
0000
1001
0000
1000
0010
0100
0000
,  // measure 2
0101
1100
1002
0100
,  // measure 3
1003
0100
0010
0001
1000
0100
0001
0100
,  // measure 4
1000
0000
0000
0010
0000
0000
0100
0000
0000
0000
0001
0000
1000
0000
0100
0000
,  // measure 5
1000
0000
0001
0000
0000
1000
0000
0000
0001
0000
0001
0000
0010
0000
0100
0000
,  // measure 6
1000
0100
0010
0001
0100
1000
0100
0001
,  // measure 7
0010
0100
1000
0010
0100
0001
0001
1000
,  // measure 8
1000
0100
0010
0001
1000
0100
0001
0100
,  // measure 9
1000
0000
1100
0000
0001
0100
0000
2020
,  // measure 10
0000
3030
0000
2002
0000
0000
3003
0000
,  // measure 11
0001
0100
1000
0100
0001
0010
0100
0010
,  // measure 12
0001
0000
1000
0000
0000
0001
0000
0000
1000
0000
1000
0000
0001
0000
0000
0000
,  // measure 13
0011
0000
0011
0000
1000
0010
0000
0202
,  // measure 14
0000
0303
0000
2002
0000
0000
3003
0000
,  // measure 15
1000
0010
0001
0010
1000
0100
0010
0100
,  // measure 16
1000
0000
0000
1001
0000
0000
1001
0000
0000
0000
0010
0000
0010
0000
0000
0000
,  // measure 17
1001
0000
0000
0001
0000
0000
0100
0000
0000
0010
0000
0000
1000
0000
1000
0000
,  // measure 18
0001
0100
1000
0100
0001
0010
0100
1000
,  // measure 19
0001
0000
1000
0100
0001
0100
1000
0100
,  // measure 20
0010
0000
0000
1001
0000
0000
1000
0000
0000
0000
0001
0000
0001
0000
1000
0000
,  // measure 21
0100
0010
0001
0100
0110
0000
0110
0000
,  // measure 22
1000
0100
0001
0100
1000
0100
0010
0001
,  // measure 23
1000
0000
0001
0100
1000
0100
0001
0010
,  // measure 24
0100
0000
0000
1001
0000
0000
0001
0000
0000
0000
1000
0000
1000
0000
0100
0000
,  // measure 25
0010
0000
0000
0101
0000
0000
0010
0000
0000
0101
0000
0000
0010
0000
0000
0000
,  // measure 26
0001
0010
1000
0010
0001
0010
0100
1000
,  // measure 27
0001
0000
1000
0010
0001
0010
1000
0100
,  // measure 28
0010
0000
0000
1001
0000
0000
1000
0000
0000
0000
0001
0000
0001
0000
0010
0000
,  // measure 29
0100
1000
0001
0100
0110
0000
0110
0000
,  // measure 30
1000
0010
0001
0010
1000
0100
0010
0001
,  // measure 31
1000
0000
0001
0010
1000
0010
0001
0010
,  // measure 32
0100
0000
0000
1001
0000
0000
0001
0000
0000
0000
1000
0000
1000
0000
0010
0000
,  // measure 33
0100
0000
0000
1001
0000
0000
0100
0000
0000
1001
0000
0000
0100
0000
0000
0000
,  // measure 34
2001
0001
0001
3001
,  // measure 35
1000
0000
0100
0010
0000
0001
1000
0000
0000
0000
0000
0000
0000
0000
0000
0000
;

//---------------dance-single - ----------------
#NOTES:
     dance-single:
     :
     Challenge:
     8:
     0.484,0.415,0.472,0.044,0.258: // measure 1
1001
0000
1100
0000
0100
0001
0100
1000
,  // measure 2
0001
0000
0000
0100
0000
0000
0010
0000
1000
0000
0100
0000
0001
0000
0100
0000
,  // measure 3
1000
0010
1000
0001
0100
0001
1000
0100
,  // measure 4
1000
0000
0000
0010
0000
0000
0100
0000
0001
1000
0000
0000
0010
0000
0010
0100
,  // measure 5
0010
0000
1000
0100
0000
1000
0100
0000
1000
0000
0010
0100
0010
0000
1000
0000
,  // measure 6
0001
0000
0000
0100
0000
0000
0010
0000
1000
0000
0100
0000
0001
0000
0100
0000
,  // measure 7
1000
0000
0001
0000
0010
0000
0100
0000
0010
0000
0001
1000
0000
0000
0010
0000
,  // measure 8
0100
0000
0001
0010
0000
0001
0010
0000
0001
1000
0001
1000
0100
1000
0100
1000
,  // measure 9
0100
0000
0000
0000
1100
0000
0000
0001
0100
0000
0100
0000
0000
0000
0120
0000
,  // measure 10
0000
1000
1030
2001
0000
0001
3001
0000
,  // measure 11
0100
0010
0100
0001
0010
1000
0010
0001
,  // measure 12
1000
0000
0001
0100
0000
0001
0100
0000
0001
0000
1000
0100
1000
0000
0000
0000
,  // measure 13
0011
0000
0000
0000
0011
0000
0000
1000
0010
0000
0010
0000
0000
0000
0210
0000
,  // measure 14
0000
0001
0301
1002
0000
1000
1003
0000
,  // measure 15
0010
0100
0010
1000
0100
0001
0100
1000
,  // measure 16
1100
0000
0000
1001
0000
0000
1010
0000
0000
0000
0110
0000
0110
0000
0100
0010
,  // measure 17
0100
0000
0000
0101
0000
0000
1001
0000
0000
0011
0000
0000
0100
0000
1000
0000
,  // measure 18
0001
0000
0100
0000
1000
0000
0100
0000
0010
0000
1000
0000
0001
0000
0100
0010
,  // measure 19
0100
0000
0001
1000
0001
0100
1000
0100
,  // measure 20
0010
0000
0000
0101
0000
0000
1100
0000
0000
0000
0110
0000
0110
0000
0010
0100
,  // measure 21
0010
1000
0100
0010
0101
0000
1010
0000
,  // measure 22
1000
0000
0100
0000
0001
0000
0100
0000
0010
0000
0001
0000
1000
0000
0010
0100
,  // measure 23
0010
0000
1000
0001
1000
0100
0001
0100
,  // measure 24
0010
0000
0000
0101
0000
0000
1100
0000
0000
0000
0110
0000
0110
0000
0100
0010
,  // measure 25
0100
0000
0000
0101
0000
0000
1100
0000
0000
1001
0000
0000
0001
1000
0001
1000
,  // measure 26
0001
0000
0010
0000
1000
0000
0010
0000
0100
0000
1000
0000
0001
0000
0100
0010
,  // measure 27
0100
0000
0001
1000
0001
0010
1000
0010
,  // measure 28
0100
0000
0000
1010
0000
0000
0011
0000
0000
0000
0110
0000
0110
0000
0010
0100
,  // measure 29
0010
1000
0100
0010
0101
0000
1010
0000
,  // measure 30
1000
0000
0010
0000
0001
0000
0010
0000
0100
0000
0001
0000
1000
0000
0010
0100
,  // measure 31
0010
0000
1000
0001
1000
0010
0001
0010
,  // measure 32
0100
0000
0000
0011
0000
0000
1010
0000
0000
0000
0110
0000
0110
0000
0100
0010
,  // measure 33
0100
0000
0000
0101
0000
0000
1100
0000
0000
1001
0000
0000
1000
0001
1000
0001
,  // measure 34
1000
0100
1000
0001
0010
0001
0100
0010
,  // measure 35
1000
0010
1000
0001
0010
0001
0010
0000
0000
0000
0000
0000
0000
0000
0000
0000
;

//---------------dance-single - ----------------
#NOTES:
     dance-single:
     :
     Beginner:
     1:
     0.066,0.093,0.077,0.000,0.000: // measure 1
1001
0000
0000
0000
,  // measure 2
0001
0000
0000
0000
,  // measure 3
1000
0000
0000
0000
,  // measure 4
1000
0000
0000
0000
,  // measure 5
0001
0000
0000
0000
,  // measure 6
0001
0000
0000
0000
,  // measure 7
0100
0000
0000
0000
,  // measure 8
0010
0000
0000
0000
,  // measure 9
1001
0000
0000
0000
,  // measure 10
0000
0000
0000
0000
,  // measure 11
1000
0000
0001
0000
,  // measure 12
1000
0000
0000
0000
,  // measure 13
1001
0000
0000
0000
,  // measure 14
0000
0000
0000
0000
,  // measure 15
0001
0000
1000
0000
,  // measure 16
0001
0000
0000
0000
,  // measure 17
1001
0000
0000
0000
,  // measure 18
1000
0000
0000
0000
,  // measure 19
0100
0000
0000
0000
,  // measure 20
0010
0000
0000
0000
,  // measure 21
0001
0000
0000
0000
,  // measure 22
1000
0000
0000
0000
,  // measure 23
0001
0000
0000
0000
,  // measure 24
0010
0000
0000
0000
,  // measure 25
0100
0000
0000
0000
,  // measure 26
1000
0000
0000
0000
,  // measure 27
0001
0000
0000
0000
,  // measure 28
1000
0000
0000
0000
,  // measure 29
1000
0000
0000
0000
,  // measure 30
1001
0000
0000
0000
,  // measure 31
0001
0000
0000
0000
,  // measure 32
1000
0000
0000
0000
,  // measure 33
1001
0000
0000
0000
,  // measure 34
0001
0000
0000
0000
,  // measure 35
1001
0000
0000
0000
;
