#TITLE:かげぬい;
#SUBTITLE:~Ver.BENIBOTAN~;
#ARTIST:CULTVOICE by S.S.D.PRODUCTS;
#TITLETRANSLIT:KAGENUI;
#SUBTITLETRANSLIT:;
#ARTISTTRANSLIT:;
#CREDIT:DigiMindAxel;
#BANNER:KAGENUI ~Ver.BENIBOTAN~.png;
#BACKGROUND:KAGENUI ~Ver.BENIBOTAN~-bg.png;
#LYRICSPATH:KAGENUI ~Ver.BENIBOTAN~.lrc;
#CDTITLE:beatmaniaIIDX.png;
#MUSIC:KAGENUI ~Ver.BENIBOTAN~.mp3;
#OFFSET:-11.180;
#SAMPLESTART:88.878;
#SAMPLELENGTH:12.000;
#SELECTABLE:YES;
#BPMS:0.000=186.000;
#STOPS:;
#BGCHANGES:;

//---------------dance-single - ----------------
#NOTES:
     dance-single:
     :
     Easy:
     3:
     0.188,0.306,0.082,0.057,0.000:
1000
0000
0001
0000
,
1000
0000
0100
0000
,
0010
0000
0001
0000
,
1000
0000
0001
0000
,
0100
0000
0010
0000
,
0100
0000
0001
0000
,
1000
0000
1000
0000
,
0001
0000
0001
0000
,
1000
0000
1000
0000
,
1000
0000
1000
0000
,
0001
0000
0001
0000
,
0001
0000
0001
0000
,
0200
0000
0000
0000
,
0320
0000
0000
0000
,
0030
0000
0000
0000
,
0000
0000
0000
0000
,
2000
0000
0000
0000
,
0000
0000
3000
0000
,
0002
0000
0000
0000
,
0000
0000
0003
0000
,
1000
0000
0100
0000
,
0010
0000
0001
0000
,
1000
0000
0001
0000
,
0010
0000
0100
0000
,
2000
0000
0000
0000
,
0000
0000
3000
0000
,
0002
0000
0000
0000
,
0000
0000
0003
0000
,
1000
0000
0100
0000
,
0010
0000
0001
0000
,
1000
0001
1000
0000
,
1000
0000
0000
0000
,
1000
0000
0100
0000
,
0010
0000
0100
0000
,
1000
0000
0001
0000
,
0010
0000
0100
0000
,
0010
0000
0001
0000
,
0100
0000
0010
0000
,
0100
0000
0001
0000
,
1001
0000
0000
0000
,
1000
0000
0100
0000
,
1000
0000
0100
0000
,
0010
0000
0001
0000
,
0010
0000
0001
0000
,
0100
0000
0010
0000
,
0100
0000
0010
0000
,
1000
0000
0100
0000
,
0010
0000
0001
0000
,
1000
1000
1000
0000
,
0000
0000
0000
0000
,
0001
0001
0001
0000
,
0000
0000
0000
0000
,
1001
0000
0000
0000
,
0000
0000
0000
0000
,
0110
0000
0000
0000
,
0000
0000
0000
0000
,
1001
0000
0000
0000
,
1001
0000
0000
0000
,
1001
0000
0110
0000
,
1001
1000
1000
0000
,
0001
0000
0100
0000
,
0001
0000
1000
0000
,
0010
0100
0010
0000
,
1000
0000
0001
0000
,
1000
0000
0100
0000
,
1000
0000
0001
0000
,
0100
0010
0100
0000
,
0001
1000
0001
0000
,
1000
0000
0100
0000
,
0010
0000
0001
0000
,
1000
0001
1000
0000
,
0010
0100
0010
0000
,
2000
0000
0001
0000
,
0001
0000
0001
0000
,
3001
0000
0000
0000
,
0000
0000
0000
0000
,
1001
0000
0100
0000
,
0010
0001
0010
0000
,
0001
0000
0010
0000
,
0100
1000
0100
0000
,
1000
0000
0001
0000
,
0100
0001
0100
0000
,
0001
0000
1000
0000
,
1001
0000
0000
0000
;

//---------------dance-single - ----------------
#NOTES:
     dance-single:
     :
     Medium:
     5:
     0.325,0.442,0.213,0.172,0.029:
0001
1000
0100
0000
,
1000
0100
0010
0000
,
0001
1000
0001
1000
,
0100
1000
0100
0010
,
0001
1000
0100
0000
,
1000
0001
0010
0000
,
0001
0010
0001
0100
,
0010
0100
0010
1000
,
0100
0000
0100
0000
,
1000
0000
1000
0000
,
0010
0000
0010
0000
,
0100
0000
0100
0000
,
0002
0000
1000
0000
,
2003
0000
0001
0000
,
3001
0000
0000
0000
,
0000
0000
0000
0000
,
0202
0000
0000
0000
,
0000
0000
0303
0000
,
2020
0000
0000
0000
,
0000
0000
3030
0000
,
0100
0010
0100
0010
,
1000
0100
1000
0100
,
0000
0010
0001
0010
,
0001
0100
0010
0100
,
2200
0000
0000
0000
,
0000
0000
3300
0000
,
0022
0000
0000
0000
,
0000
0000
0033
0000
,
0010
0100
0010
0100
,
0001
0010
0001
0010
,
0000
0200
0000
0000
,
1300
0000
0000
0000
,
1000
0001
0000
1000
,
0100
1000
0100
0010
,
0000
0001
0000
0010
,
0001
0010
0100
1000
,
0000
0001
0000
0100
,
0010
0100
0001
0010
,
0000
0001
0010
0100
,
2002
0000
0000
3003
,
0001
0100
0001
0000
,
1000
0100
1000
0010
,
0100
0001
0100
0000
,
0010
0100
0010
0000
,
1000
0100
0010
0001
,
1000
0100
1000
0000
,
1100
0000
1001
0000
,
0011
0000
0100
1000
,
0001
0000
0000
0001
0000
0000
0001
0000
0000
0000
0000
2002
,
0000
0000
0000
3003
,
1000
0000
0000
1000
0000
0000
1000
0000
0000
0000
0000
2002
,
0000
0000
3003
0101
,
1100
1000
0000
1000
,
0000
1000
0000
1100
,
0101
0001
0000
0001
,
0000
0001
0000
0101
,
1100
1000
0000
1100
,
0101
0001
0000
1001
,
1100
0000
0011
0000
,
1001
1001
1001
1001
,
1000
0100
1000
0010
,
0100
0001
0010
0001
,
0010
0100
1000
0010
,
0200
0000
0000
0000
,
0310
1000
0100
0010
,
0001
1000
0100
1000
,
0010
0100
0001
0010
,
0002
0000
0000
0000
,
1003
0100
0010
0001
,
1000
0010
0100
0010
,
2000
0000
0000
3001
,
0010
0100
1000
0001
,
2000
0000
0001
0000
,
0001
0000
0001
0000
,
3001
0000
0000
0000
,
0000
1000
1000
1000
,
1000
0000
0001
0100
0000
0000
0001
0000
0000
0100
0000
0000
,
1000
0100
0001
1000
,
0001
0000
1000
0100
0000
0000
1000
0000
0000
0100
0000
0000
,
0001
0100
1000
0001
,
1000
0000
0001
0010
0000
0000
0001
0000
0000
0010
0000
0000
,
1000
0010
0001
1000
,
0001
0000
1000
0100
0000
0000
1000
0000
0001
0100
0000
0000
,
1001
0000
0000
0000
;

//---------------dance-single - ----------------
#NOTES:
     dance-single:
     :
     Challenge:
     9:
     0.566,0.510,0.033,0.205,0.750: // measure 1
0001
0000
0000
0100
0000
0000
0001
0000
2000
0000
0000
3001
,  // measure 2
0000
0000
0001
0100
0000
0010
0100
0000
0001
0000
0000
1000
,  // measure 3
0100
0000
1000
0100
0000
0001
0100
0000
0001
0100
0000
1000
,  // measure 4
0010
0000
1000
0000
0000
0001
0100
0000
0001
0000
0000
0000
,  // measure 5
1000
0000
0000
0100
0000
0000
1000
0000
0002
0000
0000
1003
,  // measure 6
0000
0000
1000
0100
0000
0010
0100
0000
1000
0000
0000
0001
,  // measure 7
0100
0000
0001
0100
0000
1000
0100
0000
1000
0100
0000
0001
,  // measure 8
0010
0000
0001
0000
0000
1000
0100
0000
1000
0000
0000
0000
,  // measure 9
0001
0000
0000
0100
0000
0000
0001
0000
0000
0100
0000
0020
,  // measure 10
0000
0000
0000
1030
0000
0000
0100
0000
0000
0010
0000
0200
,  // measure 11
0000
0000
0000
1000
0000
0000
1300
0000
0000
0001
0000
0100
,  // measure 12
0001
0000
0100
0001
0000
0000
1000
0000
0000
0010
0000
0200
,  // measure 13
0000
0001
0001
0301
,  // measure 14
2000
0010
0010
3010
,  // measure 15
0110
0000
0000
0000
,  // measure 16
0000
0000
0000
0000
0000
0000
0010
0000
0010
0100
0000
0002
,  // measure 17
0000
1000
1000
1000
,  // measure 18
1000
0000
0000
1000
0000
0000
1003
0000
0010
0100
0000
0002
,  // measure 19
0000
1000
1000
1000
,  // measure 20
1000
0000
0000
1000
0000
0000
1003
0000
0010
0100
0000
0100
,  // measure 21
0000
0000
0001
0100
0000
0100
0001
0000
0001
1000
0000
0100
,  // measure 22
1000
0000
0100
1000
0000
0001
0100
0000
0001
0100
0000
0010
,  // measure 23
0000
0000
1000
0010
0000
0010
1000
0000
1000
0001
0000
0010
,  // measure 24
0001
0000
0010
0001
0000
1000
0010
0000
1000
0010
0000
0200
,  // measure 25
0000
0001
0001
0001
,  // measure 26
0001
0000
0000
0001
0000
0000
0301
0000
0100
0010
0000
2000
,  // measure 27
0000
0001
0001
0001
,  // measure 28
0001
0000
0000
0001
0000
0000
3001
0000
0100
0010
0000
1000
,  // measure 29
0000
0000
0001
0100
0000
0100
0010
0000
0010
1000
0000
1000
,  // measure 30
0100
0000
1000
0100
0000
0010
0001
0000
0010
0001
0000
0200
,  // measure 31
0000
0000
0000
0010
0000
0000
0010
0000
0000
0310
0000
1000
,  // measure 32
0001
0001
0001
1000
,  // measure 33
0001
0000
0100
0001
0000
0000
1000
0000
1000
0010
0000
0010
,  // measure 34
0100
0000
0100
0001
0000
0001
1000
0000
1000
0010
0000
0100
,  // measure 35
0000
0000
0010
1000
0000
0000
0001
0000
0001
0100
0000
0100
,  // measure 36
0010
0000
0010
1000
0000
1000
0001
0000
0001
0100
0000
0010
,  // measure 37
0000
0000
0100
0001
0000
0000
1000
0000
1000
0100
0000
0100
,  // measure 38
0010
0000
0010
0001
0000
0001
1000
0000
1000
0010
0000
0100
,  // measure 39
0000
0000
0010
1000
0000
0000
0001
0000
0001
1000
0000
1000
,  // measure 40
0010
0000
0100
0000
0000
0100
0000
0000
0100
0010
0000
1000
,  // measure 41
0100
0000
1000
0100
0000
0000
1000
0000
0001
0100
0000
0002
,  // measure 42
0000
1000
1003
0010
,  // measure 43
0100
0000
0001
0100
0000
0000
0001
0000
1000
0100
0000
2000
,  // measure 44
0000
0001
3001
0010
,  // measure 45
0100
0000
1000
0100
0000
0000
1000
0000
0001
0100
0000
0002
,  // measure 46
0000
1000
1003
0010
,  // measure 47
0101
0100
1100
0100
,  // measure 48
0101
0000
0000
1000
0000
0000
0010
0000
0000
0100
0000
0001
,  // measure 49
1000
0000
0000
0100
0000
0000
1000
0000
0010
0000
0000
0200
,  // measure 50
0000
0000
0001
0000
0000
0302
0000
0000
0000
1003
0000
1000
,  // measure 51
0001
0000
0000
0010
0000
0000
0001
0000
0100
0000
0000
0020
,  // measure 52
0000
0000
1000
0000
0000
1030
0000
0000
0001
1000
0000
0010
,  // measure 53
0200
0000
0000
0000
0000
0000
0000
0000
0010
0000
0000
0010
,  // measure 54
0000
0000
0001
0000
0000
0301
0000
0000
1000
0001
0000
0100
,  // measure 55
0020
0000
0000
0000
0000
0000
0000
0000
0100
0000
0000
0100
,  // measure 56
0000
0000
1000
0000
0000
1030
0000
0000
0001
1000
0000
0010
,  // measure 57
0200
0000
0000
0001
0000
0000
0301
0000
1000
0001
0000
0100
,  // measure 58
0020
0000
0000
1000
0000
0000
1030
0000
0001
1000
0000
0010
,  // measure 59
0100
0000
0000
0010
0000
0100
0010
0000
0000
1000
0000
0001
,  // measure 60
1000
0000
0001
1000
0000
0001
1000
0000
0001
1000
0000
0000
,  // measure 61
0010
0000
0000
0100
0000
0000
0001
0000
1000
0100
0000
1000
,  // measure 62
0002
0100
0103
0001
,  // measure 63
0100
0000
0010
0100
0000
0000
0001
0000
1000
0001
0000
1000
,  // measure 64
0100
0000
0000
1000
0000
1000
0001
0000
0001
1000
0000
1000
,  // measure 65
0001
0000
0000
0100
0000
0000
0010
0000
1000
0010
0000
1000
,  // measure 66
0002
0100
0103
0001
,  // measure 67
0100
0000
0010
0100
0000
0000
0001
0000
1000
0001
0000
1000
,  // measure 68
0100
0000
0000
1000
0000
1000
0001
0000
0001
1000
0000
1000
,  // measure 69
0001
0000
0000
0010
0000
0000
0100
0000
1000
0100
0000
1000
,  // measure 70
0002
0100
0103
0001
,  // measure 71
0100
0000
0010
0100
0000
0000
0001
0000
1000
0001
0000
0000
,  // measure 72
0100
0000
0010
0100
0000
0000
0001
0000
0001
1000
0000
1000
,  // measure 73
0002
0100
0010
0100
,  // measure 74
0010
0100
0010
0100
,  // measure 75
0013
0000
0000
0000
,  // measure 76
0000
0001
0001
0001
,  // measure 77
0001
0000
1000
0100
0000
0000
1000
0000
0001
0100
0000
0010
,  // measure 78
0100
0000
0001
0100
0000
0100
0010
0000
0010
1000
0000
0001
,  // measure 79
0000
0000
1000
0100
0000
0000
1000
0000
0100
0010
0000
0001
,  // measure 80
0010
0000
0100
0010
0000
0001
0100
0000
0100
0010
0000
1000
,  // measure 81
0000
0000
0001
0010
0000
0000
0001
0000
1000
0010
0000
0100
,  // measure 82
0010
0000
1000
0010
0000
0100
0001
0000
0001
1000
0000
0010
,  // measure 83
0000
0000
1000
0100
0000
0000
1000
0000
0001
0100
0000
0100
,  // measure 84
0010
0000
0000
0000
;

//---------------dance-single - ----------------
#NOTES:
     dance-single:
     :
     Hard:
     8:
     0.467,0.510,0.098,0.180,0.430:
1000
0000
0000
0010
0000
0000
0100
0000
0001
0000
0000
0001
,
0000
0000
1000
0010
0000
0000
0100
0000
0010
0000
0000
1000
,
0001
0010
0100
1000
,
0010
0000
0100
0000
0000
0000
0010
0000
0100
0000
0000
0000
,
0001
0000
0000
0010
0000
0000
0001
0000
1000
0000
0000
1000
,
0000
0000
0001
0100
0000
0000
0010
0000
0100
0000
0000
0001
,
1000
0100
0010
0001
,
0100
0000
0010
0000
0000
0000
0100
0000
0010
0000
0000
0000
,
1000
1000
0001
0001
,
0100
0001
0010
0100
,
1000
1000
0001
0001
,
1000
0100
0010
0001
,
1000
0100
0001
0100
,
1000
0010
0001
0010
,
1000
0000
0000
0000
,
0000
0000
0000
0000
0000
0000
0001
0000
1000
0001
0000
1000
,
0000
1000
1000
1000
,
1000
0000
0000
1000
0000
0000
1000
0000
0001
1000
0000
0001
,
0000
0001
0001
0001
,
0001
0001
0001
1000
,
0001
0000
0100
0001
0000
0100
0001
0000
0000
1000
0000
0010
,
0100
0000
0000
0001
0000
0100
0010
0000
0000
1000
0000
0001
,
0000
0000
0100
0001
0000
0100
0001
0000
0000
1000
0000
0010
,
0100
0000
0000
0001
0000
0100
0010
0000
0000
1000
0000
0001
,
0000
1000
1000
1000
,
1000
0000
0000
1000
0000
0000
1000
0000
0001
1000
0000
0001
,
0000
0001
0001
0001
,
0001
0000
0000
0001
0000
0000
0001
0000
0100
0010
0000
1000
,
0000
0000
0010
1000
0000
0010
1000
0000
0000
0001
0000
0100
,
0010
0000
0000
1000
0000
0010
0100
0000
0000
0001
0000
1000
,
0000
0000
0000
1000
0000
0000
1000
0000
0000
1000
0000
0001
,
1000
0010
0100
0010
,
0100
0000
0001
0200
0000
0000
0000
0000
0301
0000
0000
0010
,
0000
0000
0100
0000
0000
1000
0001
0000
0001
1000
0000
0010
,
0000
0000
0000
0200
0000
0000
0000
0000
0301
0000
0000
0010
,
0000
0000
0100
0000
0000
1000
0001
0000
0001
1000
0000
0010
,
0000
0000
1000
0020
0000
0000
0000
0000
1030
0000
0000
0100
,
0000
0000
0010
0000
0000
0001
1000
0000
1000
0001
0000
0100
,
0000
0000
0000
0020
0000
0000
0000
0000
1030
0000
0000
0001
,
0200
0000
0000
0310
,
1010
0000
0000
0010
0000
0000
0100
0000
0000
0001
0000
2000
,
0000
3001
0100
0010
,
0100
0000
0000
1100
0000
0000
0001
0000
0000
0100
0000
0002
,
0000
1003
0010
0100
,
0010
0000
0000
1010
0000
0000
0001
0000
0000
0100
0000
0020
,
0000
1030
0001
0100
,
0020
1030
0200
0301
,
2000
3001
0010
0100
,
1000
0000
0000
0100
0000
0000
0001
0000
0100
0000
0000
2200
,
0000
0000
3300
1000
,
0001
0000
0000
0100
0000
0000
1000
0000
0100
0000
0000
0202
,
0000
0000
0000
0000
0000
0000
0303
0000
0000
0001
0000
0100
,
0020
1000
0000
1000
,
0000
0000
0000
1000
0000
0000
0030
0000
0000
1000
0000
0010
,
0200
0001
0000
0001
,
0000
0000
0000
0001
0000
0000
0300
0000
0000
0001
0000
0100
,
0020
0000
0000
0000
0000
0000
0030
0000
0000
1000
0000
0010
,
0200
0000
0000
0000
0000
0000
0300
0000
0000
0001
0000
0100
,
0010
0000
0110
0000
,
2000
0001
0001
3001
,
0100
0001
1000
1100
,
0101
1000
1000
1000
,
0010
0000
0100
0010
0000
0000
1000
0000
0001
1000
0000
0002
,
0000
0100
1000
0103
,
1000
0010
1000
0101
,
1100
0001
0001
0001
,
0100
0000
0010
0100
0000
0000
0001
0000
1000
0001
0000
2000
,
0000
0100
0001
3100
,
0001
1000
0010
0110
,
1001
1000
0001
1000
,
0010
0000
0100
0010
0000
0000
1000
0000
0001
1000
0000
0000
,
0010
0000
0000
0100
0000
0000
0001
0000
0000
1000
0000
0001
,
1000
0100
0001
0100
,
1000
0010
0001
0010
,
1000
0000
0000
0000
,
0000
0001
0001
0001
,
0001
0000
1000
0010
0000
0000
1000
0000
0001
1000
0000
0001
,
1000
0000
0100
1000
0000
0100
1000
0000
0001
0100
0000
0001
,
0000
0000
1000
0010
0000
0000
1000
0000
0001
0100
0000
0001
,
0100
0000
0010
0100
0000
0010
0100
0000
0001
1000
0000
1000
,
0000
0000
0001
0100
0000
0000
0001
0000
1000
0100
0000
1000
,
0100
0000
1000
0001
0000
1000
0001
0000
0100
0010
0000
1000
,
0000
0000
0010
1000
0000
0000
0001
0000
0100
0001
0000
1000
,
0100
0000
0000
0000
;

//---------------dance-single - ----------------
#NOTES:
     dance-single:
     :
     Beginner:
     2:
     0.071,0.204,0.066,0.000,0.000:
1000
0000
0000
0000
,
1000
0000
0000
0000
,
0001
0000
0000
0000
,
0001
0000
0000
0000
,
1000
0000
0000
0000
,
1000
0000
0000
0000
,
0001
0000
0000
0000
,
0001
0000
0000
0000
,
0100
0000
0000
0000
,
0000
0000
0000
0000
,
0010
0000
0000
0000
,
0000
0000
0000
0000
,
0100
0000
0000
0000
,
0000
0000
0000
0000
,
0000
0000
0000
0000
,
0000
0000
0000
0000
,
1001
0000
0000
0000
,
0000
0000
0000
0000
,
0001
0000
0000
0000
,
0000
0000
0000
0000
,
1000
0000
0000
0000
,
0000
0000
0000
0000
,
0100
0000
0000
0000
,
0000
0000
0000
0000
,
1001
0000
0000
0000
,
0000
0000
0000
0000
,
1000
0000
0000
0000
,
0000
0000
0000
0000
,
0001
0000
0000
0000
,
0010
0000
0000
0000
,
0001
0000
0000
0000
,
0000
0000
0000
0000
,
1000
0000
0000
0000
,
0000
0000
0000
0000
,
0100
0000
0000
0000
,
0000
0000
0000
0000
,
0010
0000
0000
0000
,
0000
0000
0000
0000
,
0001
0000
0000
0000
,
0000
0000
0000
0000
,
1000
0000
0000
0000
,
0000
0000
0000
0000
,
1000
0000
0000
0000
,
0000
0000
0000
0000
,
0001
0000
0000
0000
,
0000
0000
0000
0000
,
0001
0000
0000
0000
,
0000
0000
0000
0000
,
1000
0000
0000
0000
,
0000
0000
0000
0000
,
0001
0000
0000
0000
,
0000
0000
0000
0000
,
1001
0000
0000
0000
,
0000
0000
0000
0000
,
1001
0000
0000
0000
,
0000
0000
0000
0000
,
0110
0000
0000
0000
,
0110
0000
0000
0000
,
1001
0000
0000
0000
,
1000
0000
0000
0000
,
0001
0000
0000
0000
,
0000
0000
0000
0000
,
1000
0000
0000
0000
,
0000
0000
0000
0000
,
0100
0000
0000
0000
,
0000
0000
0000
0000
,
0010
0000
0000
0000
,
0000
0000
0000
0000
,
0100
0000
0000
0000
,
0000
0000
0000
0000
,
0010
0000
0000
0000
,
0001
0000
0000
0000
,
1000
0000
0000
0000
,
0000
0000
0000
0000
,
1000
0000
0000
0000
,
0000
0000
0000
0000
,
1001
0000
0000
0000
,
0001
0000
0000
0000
,
1000
0000
0000
0000
,
0001
0000
0000
0000
,
0010
0000
0000
0000
,
0100
0000
0000
0000
,
1000
0000
0000
0000
,
0001
0000
0000
0000
;
