#TITLE:K.O.A.;
#SUBTITLE:Alice in Wonderworld;
#ARTIST:Banya production;
#TITLETRANSLIT:;
#SUBTITLETRANSLIT:;
#ARTISTTRANSLIT:;
#CREDIT:DigiMindAxel;
#BANNER:K.O.A. Alice in Wonderworld.png;
#BACKGROUND:K.O.A. Alice in Wonderworld-bg.png;
#LYRICSPATH:;
#CDTITLE:PUMP IT UP.png;
#MUSIC:K.O.A. Alice in Wonderworld.mp3;
#OFFSET:-3.720;
#SAMPLESTART:3.700;
#SAMPLELENGTH:12.000;
#SELECTABLE:YES;
#BPMS:0.000=156.000;
#STOPS:;
#BGCHANGES:-8.000=K.O.A. Alice in Wonderworld.avi=1.000=1=0=1,
99999=-nosongbg-=1.000=0=0=0 // don't automatically add -songbackground-
;

//---------------dance-single - ----------------
#NOTES:
     dance-single:
     :
     Easy:
     4:
     0.329,0.362,0.198,0.178,0.000: // measure 1
1001
0000
0001
0001
,  // measure 2
1001
0000
1000
1000
,  // measure 3
0001
0001
0010
0010
,  // measure 4
0100
1000
0100
1000
,  // measure 5
0002
0000
0000
0000
,  // measure 6
2003
0000
0000
0000
,  // measure 7
3001
0001
1000
1000
,  // measure 8
0100
0010
0001
1000
,  // measure 9
0002
0000
0000
0000
,  // measure 10
2003
0000
0000
0000
,  // measure 11
3002
0000
0000
0000
,  // measure 12
1003
0001
1000
0010
,  // measure 13
0200
0000
0000
0000
,  // measure 14
0310
0100
0010
1000
,  // measure 15
0002
0000
0000
0000
,  // measure 16
1003
0100
1000
0001
,  // measure 17
2000
0000
3001
0001
,  // measure 18
2000
0000
3001
0001
,  // measure 19
2000
0000
3001
0001
,  // measure 20
1000
0010
1000
0010
,  // measure 21
0200
0000
0001
0301
,  // measure 22
2000
0000
0010
3010
,  // measure 23
1000
0001
0010
0100
,  // measure 24
1000
0001
1000
0000
,  // measure 25
0001
0010
0001
0010
,  // measure 26
0001
1000
0001
1000
,  // measure 27
0100
1000
0100
1000
,  // measure 28
0100
0010
0001
1000
,  // measure 29
0001
0100
0001
0100
,  // measure 30
0001
1000
0001
1000
,  // measure 31
0010
1000
0010
1000
,  // measure 32
0010
0100
0001
1000
,  // measure 33
0001
0000
0000
0000
,  // measure 34
1001
0000
0010
0001
,  // measure 35
0010
0000
0000
0001
,  // measure 36
1000
1000
1000
1000
,  // measure 37
0001
0001
0001
0001
,  // measure 38
1001
0000
0100
1000
,  // measure 39
0100
0000
0010
0001
,  // measure 40
1000
1000
0001
0001
,  // measure 41
1000
0001
1000
0000
,  // measure 42
1001
0000
0010
0010
,  // measure 43
1001
0000
0100
0100
,  // measure 44
1001
1001
0010
0001
,  // measure 45
0010
0100
1000
0000
,  // measure 46
1001
0000
0100
0100
,  // measure 47
0000
0000
0100
0100
,  // measure 48
1001
1001
0110
0110
,  // measure 49
1001
1001
1001
0000
,  // measure 50
1000
1000
0001
0100
,  // measure 51
0001
0001
1000
0010
,  // measure 52
1000
0001
1000
0001
,  // measure 53
1000
0100
1000
0100
,  // measure 54
0010
0001
0010
0001
,  // measure 55
1000
0001
1000
0001
,  // measure 56
0100
0001
0100
0001
,  // measure 57
0010
0100
1000
0001
,  // measure 58
2000
0000
3002
0000
,  // measure 59
2003
0000
3020
0000
,  // measure 60
0130
0110
1001
1001
,  // measure 61
0010
0100
1000
2002
,  // measure 62
3003
0000
0000
0000
;

//---------------dance-single - ----------------
#NOTES:
     dance-single:
     :
     Medium:
     6:
     0.522,0.513,0.752,0.168,0.000: // measure 1
1001
0000
1000
0010
0100
0000
0110
0000
,  // measure 2
1001
0000
0001
0100
0010
0000
0110
0000
,  // measure 3
1010
1010
0101
0101
,  // measure 4
1001
1001
0220
0330
,  // measure 5
2000
0000
3010
0200
0000
0301
0000
0010
,  // measure 6
0000
0001
0000
1000
0000
0100
0000
1000
,  // measure 7
0001
0011
1000
1100
,  // measure 8
1001
1001
0110
0110
,  // measure 9
0002
0000
1003
0100
0000
1000
0001
0000
,  // measure 10
0000
1000
0000
0001
0100
0001
0000
0000
,  // measure 11
2000
0000
3001
0010
0000
0001
1000
0000
,  // measure 12
0000
0001
0000
1000
0010
1000
0000
0000
,  // measure 13
0002
0000
1003
0010
0000
1000
0001
0000
,  // measure 14
0000
1000
0000
0001
0010
0001
0000
0000
,  // measure 15
2000
0000
3001
0100
0000
0001
1000
0000
,  // measure 16
0000
0001
0000
1000
0100
1000
0100
1000
,  // measure 17
0020
0000
1030
1001
,  // measure 18
0200
0000
0301
1001
,  // measure 19
1000
0001
1000
0001
0010
0001
0010
0000
,  // measure 20
1001
1010
1001
0101
,  // measure 21
0100
0000
0100
0000
0100
0001
0100
0000
,  // measure 22
0010
0000
0010
0000
0010
1000
0010
0000
,  // measure 23
1000
0001
1000
0000
1001
0000
0101
0000
,  // measure 24
1001
1010
1001
0000
,  // measure 25
0001
0010
0001
0000
1000
0010
0100
0000
,  // measure 26
0001
0010
0001
0000
1000
0010
0100
0000
,  // measure 27
1001
0000
1001
0000
0001
0100
0010
0000
,  // measure 28
1000
0010
1000
0000
0001
0100
0010
0000
,  // measure 29
1000
1100
1000
1001
,  // measure 30
0001
0011
0001
1001
,  // measure 31
0001
1000
0001
1000
0001
1000
0010
0100
,  // measure 32
0010
1010
0100
0101
,  // measure 33
2002
0000
0000
3003
,  // measure 34
0011
0100
1000
0010
,  // measure 35
0100
0000
0010
0000
1000
0000
0001
1000
,  // measure 36
0010
0000
0010
0000
0010
0000
0010
1000
,  // measure 37
0100
0100
0100
0100
,  // measure 38
1100
0010
0001
0100
,  // measure 39
0010
0000
0100
0000
0001
0000
1000
0010
,  // measure 40
0100
0000
0100
0000
0100
0000
0100
0001
,  // measure 41
0010
0010
0010
0010
,  // measure 42
1001
0000
1000
0100
0010
0000
0110
0000
,  // measure 43
1001
0000
0001
0010
0100
0000
0110
0000
,  // measure 44
1001
0101
0101
1010
,  // measure 45
1010
0110
0110
1001
,  // measure 46
0002
0000
0010
0013
,  // measure 47
0200
0000
1000
1300
,  // measure 48
1001
1001
1100
1100
,  // measure 49
0011
0011
1001
0000
,  // measure 50
0001
0100
0001
0000
1000
0100
0010
0000
,  // measure 51
0001
0100
0001
0000
1000
0100
0010
0000
,  // measure 52
1001
0000
1001
0000
0001
0010
0100
0010
,  // measure 53
0001
0101
1000
1010
,  // measure 54
1001
0000
1000
0010
1000
0000
0001
0010
,  // measure 55
0000
0001
0000
1000
0001
0000
0100
0001
,  // measure 56
1000
1100
0001
0011
,  // measure 57
1001
1001
0110
0110
,  // measure 58
0002
0000
1003
0100
0000
1000
0000
0001
,  // measure 59
0000
1000
0000
0001
0000
0100
0000
0001
,  // measure 60
0010
1010
0101
1100
,  // measure 61
0011
0110
1001
0220
,  // measure 62
0330
0000
0000
0000
;

//---------------dance-single - ----------------
#NOTES:
     dance-single:
     :
     Beginner:
     1:
     0.088,0.120,0.059,0.000,0.000: // measure 1
0001
0000
0000
0000
,  // measure 2
1000
0000
0000
0000
,  // measure 3
1001
0000
0000
0000
,  // measure 4
0000
0000
0000
0000
,  // measure 5
1000
0000
0000
0000
,  // measure 6
0010
0000
0000
0000
,  // measure 7
1000
0000
0000
0000
,  // measure 8
1000
0000
0000
0000
,  // measure 9
0001
0000
0000
0000
,  // measure 10
0000
0000
0000
0000
,  // measure 11
0001
0000
0000
0000
,  // measure 12
1000
0000
0000
0000
,  // measure 13
1000
0000
0000
0000
,  // measure 14
0001
0000
0000
0000
,  // measure 15
0001
0000
0000
0000
,  // measure 16
1000
0000
0000
0000
,  // measure 17
1001
0000
0000
0000
,  // measure 18
0001
0000
0000
0000
,  // measure 19
0100
0000
0000
0000
,  // measure 20
0001
0000
0000
0000
,  // measure 21
1000
0000
0000
0000
,  // measure 22
0001
0000
0000
0000
,  // measure 23
1000
0000
0000
0000
,  // measure 24
0001
0000
0000
0000
,  // measure 25
1000
0000
0000
0000
,  // measure 26
1001
0000
0000
0000
,  // measure 27
0001
0000
0000
0000
,  // measure 28
0010
0000
0000
0000
,  // measure 29
0001
0000
0000
0000
,  // measure 30
1000
0000
0000
0000
,  // measure 31
0100
0000
0000
0000
,  // measure 32
1000
0000
0000
0000
,  // measure 33
0001
0000
0000
0000
,  // measure 34
0001
0000
0000
0000
,  // measure 35
0000
0000
0000
0000
,  // measure 36
1000
0000
0000
0000
,  // measure 37
0000
0000
0000
0000
,  // measure 38
0001
0000
0000
0000
,  // measure 39
0000
0000
0000
0000
,  // measure 40
1000
0000
0000
0000
,  // measure 41
0001
0000
0000
0000
,  // measure 42
1001
0000
0000
0000
,  // measure 43
1000
0000
0000
0000
,  // measure 44
0010
0000
0000
0000
,  // measure 45
0010
0000
0000
0000
,  // measure 46
1000
0000
0000
0000
,  // measure 47
0000
0000
0000
0000
,  // measure 48
1001
0000
0000
0000
,  // measure 49
1001
0000
0000
0000
,  // measure 50
0001
0000
0000
0000
,  // measure 51
0100
0000
0000
0000
,  // measure 52
0100
0000
0000
0000
,  // measure 53
0001
0000
0000
0000
,  // measure 54
1000
0000
0000
0000
,  // measure 55
0001
0000
0000
0000
,  // measure 56
1000
0000
0000
0000
,  // measure 57
1000
0000
0000
0000
,  // measure 58
0001
0000
0000
0000
,  // measure 59
0001
0000
0000
0000
,  // measure 60
1000
0000
0000
0000
,  // measure 61
0010
0000
0000
0010
;

//---------------dance-single - ----------------
#NOTES:
     dance-single:
     :
     Hard:
     8:
     0.626,0.574,0.327,0.208,0.084: // measure 1
1001
0000
0001
1000
0010
0000
0110
0000
,  // measure 2
1001
0000
1000
0100
0010
0000
0110
0000
,  // measure 3
0001
0010
0001
0100
0010
1000
0100
0010
,  // measure 4
0001
0100
1000
0100
0001
0000
1001
0000
,  // measure 5
0001
1000
0100
0001
0000
0001
0100
1000
,  // measure 6
0000
0100
0010
0001
1000
0010
0100
0000
,  // measure 7
1001
0101
1100
1001
,  // measure 8
1000
0100
1000
0010
0100
0001
1000
0000
,  // measure 9
0001
0100
0001
2000
0000
0001
3001
0000
,  // measure 10
0000
0011
0000
0010
0001
0010
0100
0000
,  // measure 11
1000
0010
1000
0002
0000
1000
1003
0000
,  // measure 12
0000
1100
0000
0100
1000
0100
0010
0000
,  // measure 13
0001
0010
0001
2000
0000
0010
3010
0000
,  // measure 14
0000
1010
0000
0010
1000
0100
0010
0000
,  // measure 15
0001
0010
0001
2000
0000
0010
3010
0000
,  // measure 16
0000
0000
0110
0000
0000
0000
0100
0000
0010
0000
0100
0000
0001
1000
0001
1000
,  // measure 17
0001
0000
1001
0000
1000
0100
0001
0100
,  // measure 18
1000
0000
1000
0000
0001
0010
1000
0010
,  // measure 19
0001
0000
0100
0000
0010
0000
1000
0000
0100
0000
0010
0001
0010
0000
0100
0000
,  // measure 20
1000
1000
0001
0010
1000
0010
0001
0000
,  // measure 21
2001
0000
3020
0000
1030
0100
0010
0000
,  // measure 22
0002
0000
0203
0000
0301
0010
1000
0010
,  // measure 23
0001
0100
0001
1000
0100
0010
0100
0000
,  // measure 24
1000
0000
1000
0000
0001
0100
0001
0000
2000
0000
0000
0000
3001
0000
0000
0000
,  // measure 25
1000
1000
0001
0001
1000
0100
0001
0100
,  // measure 26
1000
1000
0001
0001
1000
0010
0001
0010
,  // measure 27
1000
0000
0001
0000
0001
0000
1000
0000
1000
0000
0010
0100
0010
0100
0010
0000
,  // measure 28
1000
0100
0001
0100
1000
0010
0110
0000
,  // measure 29
0001
0001
1000
1000
0001
0010
1000
0010
,  // measure 30
0001
0001
1000
1000
0100
0001
0100
1000
,  // measure 31
0010
0100
0010
1000
0100
0010
1000
0010
,  // measure 32
0001
0001
1000
1000
0010
0100
0001
0000
,  // measure 33
2000
0000
0000
0000
0000
0000
0000
0000
0001
0000
0000
0001
0000
0000
3001
0000
,  // measure 34
0200
0000
0310
1000
0100
0010
0000
1001
,  // measure 35
0000
0000
1000
0000
0001
0000
1000
0000
0010
0000
0100
0000
0001
1000
0001
0000
,  // measure 36
1000
0000
0100
0000
0001
0100
1000
0000
,  // measure 37
0010
0000
0000
0010
0000
0000
0010
0000
0000
0000
0000
0000
0110
0000
0000
0000
,  // measure 38
0020
0000
0130
0001
0010
0100
0000
1001
,  // measure 39
0000
0001
1000
0001
0100
0010
1000
0000
,  // measure 40
0001
0000
0100
0000
1000
0100
0001
0000
,  // measure 41
0100
0000
0100
0000
0100
0010
0100
0000
,  // measure 42
1001
0000
0001
0010
0100
0000
0110
0000
,  // measure 43
1001
0000
1000
0010
0100
0000
0110
0000
,  // measure 44
0100
0010
1000
0100
1000
0001
0010
1000
,  // measure 45
0010
0000
0001
0000
0100
0010
0100
0010
0100
0000
0000
0000
0110
0000
0000
0000
,  // measure 46
0020
0000
0100
0130
,  // measure 47
0020
0000
0100
0130
,  // measure 48
1001
0101
1100
0101
,  // measure 49
0001
0100
0010
1000
0100
0000
1001
0000
,  // measure 50
1000
1000
0001
0001
1000
0100
0001
0100
,  // measure 51
1000
1000
0001
0001
1000
0010
0001
0010
,  // measure 52
1000
0000
0001
0000
0001
0000
1000
0000
0010
0000
0100
0001
0100
0001
0100
0000
,  // measure 53
0001
1000
0001
0000
0100
0000
0100
0000
0010
0000
0010
0000
1000
0000
0000
0000
,  // measure 54
0002
0000
1003
0100
0010
0000
0001
0100
,  // measure 55
0000
0110
0000
0100
1000
0001
0010
0100
,  // measure 56
2000
3020
0032
0023
,  // measure 57
1030
0000
0000
0000
1001
0000
0000
0000
0100
0000
0010
0000
0100
0010
0100
0010
,  // measure 58
0100
0001
0010
0100
0000
1000
0100
0001
,  // measure 59
0000
0000
0001
0000
0100
0000
1000
0000
0000
0000
0010
0100
0010
0000
1000
0000
,  // measure 60
0001
0010
0001
0100
0010
1000
0100
0001
,  // measure 61
0100
1000
0010
0100
1001
0000
2002
0000
,  // measure 62
3003
0000
0000
0000
;

//---------------dance-single - ----------------
#NOTES:
     dance-single:
     :
     Challenge:
     10:
     0.822,0.755,0.376,0.238,0.634: // measure 1
1001
0000
0000
0001
1000
0000
0100
0000
0020
0030
0000
0000
0020
0030
0000
0000
,  // measure 2
1001
0000
0000
1000
0001
0000
0100
0000
0020
0030
0000
0000
0020
0030
0000
0000
,  // measure 3
1000
0000
0100
0000
0010
0000
0001
0000
1000
0010
1000
0000
0001
0100
0001
0000
,  // measure 4
0100
0010
0100
0010
0100
0001
1000
0001
1000
0000
0010
0000
0100
0000
0000
0000
,  // measure 5
0001
0010
0001
2000
0000
3100
0010
0200
,  // measure 6
0000
0000
1300
0000
0010
0000
0001
0000
0010
0000
1000
0001
1000
0000
0000
0000
,  // measure 7
1001
0000
0000
1000
0010
0000
0000
0010
0100
0000
0000
0100
0001
0000
0000
0000
,  // measure 8
0100
0010
0100
0010
1000
0001
1000
0001
1000
0000
0010
0100
0020
0000
0000
0000
,  // measure 9
1030
0000
0010
0000
0100
0000
0101
0000
0000
0000
0001
1000
0002
0000
0003
0000
,  // measure 10
0000
1001
0000
0001
0010
1000
0010
0001
,  // measure 11
1000
0000
0010
0000
0100
0000
0101
0000
0000
0000
0001
1000
0001
1000
0001
0000
,  // measure 12
0000
1001
0000
1000
0100
0001
0100
1000
,  // measure 13
0001
0000
0010
0000
0100
0000
1100
0000
0000
0000
1000
0001
2000
0000
3000
0000
,  // measure 14
0000
0000
1001
0000
0000
0000
0001
0000
0010
0000
1000
0000
0010
0000
0001
1000
,  // measure 15
0001
0000
0010
0000
0100
0000
0110
0000
0000
0000
1000
0001
2000
0000
3000
0000
,  // measure 16
0000
0000
1001
0000
0000
0000
1000
0000
0010
0100
0010
0000
1000
0001
1000
0001
,  // measure 17
2000
0000
0000
0000
0000
0000
0000
0000
3001
0000
0100
0001
0100
0000
0010
0100
,  // measure 18
0020
0000
0000
0000
0130
0000
0000
0000
0001
0000
0100
0010
0100
0000
0001
0010
,  // measure 19
0001
0000
0010
0000
0100
0000
1000
0000
0010
0100
0010
1000
0100
0000
1000
0000
,  // measure 20
0001
0000
0001
0000
0100
0010
0100
0001
1000
0000
0010
0000
0100
0000
0000
0000
,  // measure 21
0002
0000
2003
0000
3001
0010
1000
0010
,  // measure 22
0002
0000
0000
0000
1003
0000
0001
1000
0001
0000
1000
0100
0010
0001
1000
0000
,  // measure 23
0001
0000
0010
0000
1000
0000
0010
0000
0001
0100
0010
1000
0100
0000
1000
0000
,  // measure 24
0001
0000
0001
0000
0010
0100
1000
0001
1000
0001
1000
0001
2000
0000
0000
0000
,  // measure 25
3001
0000
0100
0000
0110
0000
0010
0000
1000
0100
1000
0000
0001
0100
0001
0000
,  // measure 26
1000
0000
0010
0000
0110
0000
0100
0000
0001
1000
0001
1000
0001
0000
1000
0000
,  // measure 27
0100
0000
0010
0000
0100
0000
1000
0000
0001
0000
0100
0010
0100
0001
0010
0000
,  // measure 28
0001
1000
0001
0000
0010
0000
0010
0000
0100
0000
0100
0000
1000
0001
1000
0000
,  // measure 29
0001
0000
0001
0000
0100
0000
0100
0000
0001
1000
0001
1000
0010
0100
0010
0000
,  // measure 30
1000
0000
1000
0000
0100
0000
0100
0000
1000
0001
1000
0001
1000
0000
0001
0000
,  // measure 31
0100
0000
0100
0000
0010
0000
0010
0000
1000
0001
1000
0010
0100
0000
0001
0000
,  // measure 32
1000
0000
1000
0000
0001
0100
0010
0100
0001
0000
0010
0000
0100
0000
0000
0000
,  // measure 33
1000
0000
1000
0000
0100
0000
0000
0000
0020
0000
0000
0100
0000
0000
0130
0000
,  // measure 34
1001
0010
0100
1000
0010
0110
0000
0101
,  // measure 35
0000
0000
0001
0000
0010
0000
0100
0000
1000
0010
1000
0010
1000
0001
0010
0000
,  // measure 36
0001
0000
1000
0000
0000
1100
0000
0000
1000
0000
0000
1100
0000
0000
1000
0000
,  // measure 37
0001
0000
0000
0011
0000
0000
0110
0000
0010
1000
0010
0000
2000
0000
0000
0000
,  // measure 38
3001
1000
0100
0010
0001
0101
0000
0110
,  // measure 39
0000
0001
0010
0100
1000
0001
0000
0001
,  // measure 40
1000
0010
0000
0100
0001
0000
1000
0010
0000
0100
0001
0000
1000
0001
1000
0001
,  // measure 41
1000
0000
0010
0100
0000
0010
0100
0000
0001
1000
0001
1000
0001
1000
0001
0000
,  // measure 42
1001
0000
0000
1000
0001
0000
0010
0000
0100
1000
0000
0000
0010
0100
0000
0000
,  // measure 43
0001
0000
0000
0001
1000
0000
0010
0000
0100
0001
0000
0000
0010
0100
0000
0000
,  // measure 44
1000
0010
0100
0010
1010
0000
0110
0000
,  // measure 45
0001
0100
0001
0100
0010
1000
0100
0000
0010
0000
0001
1000
0001
0000
0000
0000
,  // measure 46
2000
0000
0100
3100
,  // measure 47
0020
0000
0000
0000
0000
0000
0000
0000
0031
0000
1000
0001
1000
0000
0000
0000
,  // measure 48
1001
0000
0000
1000
0001
0000
0000
0001
0010
0000
0000
0010
0100
0000
0000
0000
,  // measure 49
1000
0100
1000
0100
0010
0001
0010
0001
0200
0000
0000
0000
0310
0000
0000
0000
,  // measure 50
1000
0000
0001
1000
0001
0000
0010
0001
0010
0001
0100
0010
1000
0100
1000
0000
,  // measure 51
0001
0000
1000
0001
1000
0000
0100
1000
0100
1000
0010
0100
0001
0000
1000
0000
,  // measure 52
1001
0000
0000
0000
1000
0000
0001
0000
0100
0000
0010
0100
0010
0100
0010
0000
,  // measure 53
1000
0100
1000
0100
0010
0001
0100
0000
0010
0100
0010
0000
1000
0001
1000
0000
,  // measure 54
1001
0000
0000
0000
1000
0000
0001
0010
0001
0000
0100
0000
0010
0000
1010
0000
,  // measure 55
0000
1001
0000
0101
0010
0100
1000
0010
,  // measure 56
0110
1100
0101
1100
,  // measure 57
1001
0000
0000
0000
1001
0000
0000
0000
0100
0001
0100
0001
1000
0100
1000
0100
,  // measure 58
1000
0001
0010
0200
0000
0310
0001
2000
,  // measure 59
0000
0000
3100
0000
0010
0000
0100
0000
1000
0000
0010
0100
0010
0000
0000
0000
,  // measure 60
1001
0000
0100
1000
0100
0000
0010
0100
0010
0000
0001
0010
0001
0010
0001
0000
,  // measure 61
1000
0010
1000
0010
0100
0001
1000
0000
0001
1000
0001
1000
0002
0000
0000
0000
,  // measure 62
0003
0000
0000
0000
;
