#TITLE:Journey to the Wonderland;
#SUBTITLE:;
#ARTIST:N.P.B.;
#TITLETRANSLIT:;
#SUBTITLETRANSLIT:;
#ARTISTTRANSLIT:;
#CREDIT:DigiMindAxel;
#BANNER:Journey to the Wonderland.png;
#BACKGROUND:Journey to the Wonderland-bg.png;
#LYRICSPATH:;
#CDTITLE:KEYBOARDMANIA.png;
#MUSIC:Journey to the Wonderland.mp3;
#OFFSET:-6.800;
#SAMPLESTART:65.754;
#SAMPLELENGTH:12.000;
#SELECTABLE:YES;
#BPMS:0.000=130.000;
#STOPS:;
#BGCHANGES:-12.000=Journey to the Wonderland.avi=1.000=1=0=1,
99999=-nosongbg-=1.000=0=0=0 // don't automatically add -songbackground-
;

//---------------dance-single - ----------------
#NOTES:
     dance-single:
     :
     Easy:
     2:
     0.143,0.215,0.033,0.179,0.000:
1000
0000
0000
0000
,
1000
0000
0000
0000
,
0001
0000
0000
0000
,
0001
0000
0000
0000
,
1000
0000
0000
0000
,
1000
0000
0000
0000
,
0010
0000
0000
0000
,
0010
0000
0000
0000
,
2000
0000
0000
0000
,
3002
0000
0000
0000
,
0203
0000
0000
0000
,
0000
0000
0000
0000
,
0320
0000
0000
0000
,
2030
0000
0000
0000
,
3001
0010
0100
1000
,
0010
1000
0100
0000
,
2000
0000
0000
0000
,
3002
0000
0000
0000
,
2003
0000
0000
0000
,
3002
0000
0003
0000
,
0020
0000
0000
0000
,
0230
0000
0000
0000
,
0310
0010
0100
0100
,
1000
0001
1000
0000
,
0002
0000
0000
0000
,
2003
0000
0000
0000
,
3001
0000
0010
0000
,
0100
0000
1000
0000
,
0001
0000
0000
0000
,
1000
0000
0000
0000
,
0001
0000
0000
0000
,
1000
0000
0000
0000
,
0010
0010
0010
0000
,
0100
0100
0100
0000
,
0001
0001
0001
0000
,
1000
0000
0001
0000
,
1000
1000
1000
0000
,
0001
0001
0001
0000
,
0100
0100
0010
0010
,
1000
1001
0000
0000
,
1001
0000
0001
0000
,
2002
0000
0000
0000
,
3003
0020
0000
0130
;

//---------------dance-single - ----------------
#NOTES:
     dance-single:
     :
     Hard:
     7:
     0.367,0.453,0.134,0.033,0.039: // measure 1
0001
0001
0010
0100
1000
0000
0000
0000
,  // measure 2
1000
1000
0010
0100
0001
0000
0000
0000
,  // measure 3
0001
0001
0010
0100
1000
0100
0001
0100
,  // measure 4
1000
0100
0010
0001
0100
0000
0000
0000
,  // measure 5
0001
0001
0010
0100
1000
0000
0000
0000
,  // measure 6
1000
1000
0010
0100
0001
0000
0000
0000
,  // measure 7
0001
0001
0010
0000
1000
0010
0001
0000
,  // measure 8
0010
0100
1000
0100
0010
0000
1001
0000
,  // measure 9
0010
0010
0010
0000
,  // measure 10
0100
0100
0100
0000
,  // measure 11
1000
0100
0001
0010
,  // measure 12
1000
0100
0001
0010
,  // measure 13
1000
1000
1000
0000
,  // measure 14
0001
0001
0001
0000
,  // measure 15
1000
0010
1000
0010
0100
0001
0100
0001
,  // measure 16
0100
0110
1001
0000
,  // measure 17
0001
0000
0001
0010
0000
0010
0100
0000
,  // measure 18
1000
0000
1000
0100
0000
0100
0010
0000
,  // measure 19
0001
0000
0001
0100
0000
0100
0010
0000
,  // measure 20
1000
0100
0010
0001
0000
0000
1001
0000
,  // measure 21
1000
0000
1000
0010
0000
0010
0100
0000
,  // measure 22
0001
0000
0001
0100
0000
0100
0010
0000
,  // measure 23
1000
1000
0100
0000
0001
0100
1000
0000
,  // measure 24
0010
1000
0100
0010
0001
0000
1001
0000
,  // measure 25
0100
0100
0100
0000
,  // measure 26
0010
0010
0010
0000
,  // measure 27
1000
0010
0001
0000
,  // measure 28
0010
1000
0010
0000
,  // measure 29
0001
0010
0100
1001
,  // measure 30
1000
0100
0010
1001
,  // measure 31
0001
0010
1000
0100
,  // measure 32
0001
0000
0000
0000
0100
0000
0000
0010
0100
0000
0000
0000
0000
0000
0000
0000
,  // measure 33
0001
0001
0010
0100
1000
0000
1001
0000
,  // measure 34
1000
1000
0010
0100
0001
0000
1001
0000
,  // measure 35
0001
0000
0001
0100
0010
0000
1000
0000
0100
0000
0010
0100
1000
0000
1000
0000
,  // measure 36
0100
0010
0001
1000
0001
0000
0000
0000
,  // measure 37
1000
0010
0100
0000
0001
0000
0010
0000
0100
0010
0001
0000
0010
0000
0000
0000
,  // measure 38
0001
0010
0100
0000
1000
0000
0100
0000
0010
0100
1000
0000
0100
0000
0000
0000
,  // measure 39
1000
0100
0010
0001
1000
0100
0010
0001
,  // measure 40
0100
0210
0000
0301
,  // measure 41
0120
1000
2030
0001
,  // measure 42
3001
0010
1000
0100
,  // measure 43
0001
0000
0010
0100
1000
0000
1001
0000
;

//---------------dance-single - ----------------
#NOTES:
     dance-single:
     :
     Challenge:
     8:
     0.516,0.501,0.257,0.067,0.117: // measure 1
1000
1000
0100
0010
0001
0001
0110
0000
,  // measure 2
0001
0001
0100
0010
1000
1000
0110
0000
,  // measure 3
1000
0000
1000
0010
0100
0000
0001
0000
0001
0000
0010
0000
1000
0000
0010
0000
,  // measure 4
0001
0010
0100
1000
0010
0000
0110
0000
,  // measure 5
1000
1000
0100
0010
0001
0001
0110
0000
,  // measure 6
0001
0001
0100
0010
1000
1000
0110
0000
,  // measure 7
1000
0000
1000
0000
0100
0000
0000
0001
0100
0000
0100
0000
1000
0000
0000
1000
,  // measure 8
0010
0010
0001
0010
0100
0000
1001
0000
,  // measure 9
0010
0000
1000
0000
0010
0000
0000
1000
0001
0000
0001
0000
0000
0000
1000
0000
,  // measure 10
0001
0100
0001
0100
0002
0000
0003
1000
,  // measure 11
0100
0001
0100
0001
0100
1000
0100
1000
,  // measure 12
0100
0010
0100
0010
0100
0000
1001
0000
,  // measure 13
0100
0000
0001
0000
0100
0000
0000
0001
1000
0000
1000
0000
0000
0000
0001
0000
,  // measure 14
1000
0000
0010
1000
0010
0000
1000
0000
2000
0000
0000
0000
3000
0000
0001
0000
,  // measure 15
0010
1000
0010
1000
0010
0001
0010
0001
,  // measure 16
0010
0110
1001
0000
,  // measure 17
1000
1000
0100
0001
0100
1000
0100
0000
,  // measure 18
0001
0001
0010
1000
0010
0001
0010
0000
,  // measure 19
1000
1000
0100
0001
0100
1000
0100
0000
,  // measure 20
0001
0010
0100
1000
0000
0001
1001
0000
,  // measure 21
0001
0001
0100
1000
0100
0001
0100
0000
,  // measure 22
1000
1000
0010
0001
0010
1000
0010
0000
,  // measure 23
0001
0000
0001
0000
0100
0000
0000
0010
1000
0000
1000
0000
0001
0000
0000
0100
,  // measure 24
0001
0001
0010
0100
1000
0000
1001
0000
,  // measure 25
0010
0000
1000
0000
0010
0000
0000
1000
0001
0000
0001
0000
0000
0000
1000
0000
,  // measure 26
0001
0010
0100
1000
0020
0000
0030
0000
,  // measure 27
0100
0000
0001
0000
0100
0000
0000
0001
1000
0000
1000
0000
0000
0000
0001
0000
,  // measure 28
1000
0100
0010
0001
0200
0000
0310
0000
,  // measure 29
1000
0100
0001
0100
2000
0000
3001
0000
,  // measure 30
1000
0010
0001
0010
2000
0000
3001
0000
,  // measure 31
1000
0100
0010
0001
0100
1000
0100
0001
,  // measure 32
0100
0000
0000
0000
0010
0000
0000
0100
0010
0000
0000
0000
0000
0000
0000
0000
,  // measure 33
1000
1000
0100
0010
0001
0010
0110
0000
,  // measure 34
0001
0001
0100
0010
1000
0010
0110
0000
,  // measure 35
1000
0000
1000
0010
0100
0000
0001
0000
0010
0000
0100
0010
0001
0000
0001
0000
,  // measure 36
0010
0100
1000
0001
1000
0010
0110
0000
,  // measure 37
0001
0100
0010
0000
1000
0000
0100
0000
0010
0001
0100
0010
0100
0000
0000
0000
,  // measure 38
0010
1000
0100
0000
0010
0000
0001
0000
0100
0010
0100
0001
0010
0000
0000
0000
,  // measure 39
0001
0010
0100
1000
0001
0010
0100
1000
,  // measure 40
0010
0110
0101
1100
,  // measure 41
1001
1010
1001
0101
,  // measure 42
1001
1000
0100
0010
0001
1000
0100
0010
,  // measure 43
0001
0000
0000
0000
0100
0001
0100
0001
1000
0000
0000
0000
1001
0000
0000
0000
;

//---------------dance-single - ----------------
#NOTES:
     dance-single:
     :
     Beginner:
     1:
     0.048,0.072,0.000,0.000,0.000:
0001
0000
0000
0000
,
0001
0000
0000
0000
,
1000
0000
0000
0000
,
0000
0000
0000
0000
,
1000
0000
0000
0000
,
1000
0000
0000
0000
,
0001
0000
0000
0000
,
0000
0000
0000
0000
,
0100
0000
0000
0000
,
0000
0000
0000
0000
,
0100
0000
0000
0000
,
0000
0000
0000
0000
,
0010
0000
0000
0000
,
0000
0000
0000
0000
,
0010
0000
0000
0000
,
0000
0000
0000
0000
,
1000
0000
0000
0000
,
0001
0000
0000
0000
,
1000
0000
0000
0000
,
0000
0000
0000
0000
,
0001
0000
0000
0000
,
1000
0000
0000
0000
,
0001
0000
0000
0000
,
0000
0000
0000
0000
,
0100
0000
0000
0000
,
0000
0000
0000
0000
,
0010
0000
0000
0000
,
0000
0000
0000
0000
,
0100
0000
0000
0000
,
0000
0000
0000
0000
,
0000
0000
0000
0000
,
0001
0000
0000
0000
,
1000
0000
0000
0000
,
1000
0000
0000
0000
,
0001
0000
0000
0000
,
0000
0000
0000
0000
,
0001
0000
0000
0000
,
0001
0000
0000
0000
,
1000
0000
0000
0000
,
0010
0000
0000
0000
,
0010
0000
0000
0000
,
0100
0000
0000
0000
,
0000
0000
0000
0001
;

//---------------dance-single - ----------------
#NOTES:
     dance-single:
     :
     Medium:
     4:
     0.249,0.310,0.134,0.089,0.000:
0001
1000
0001
0000
,
1000
0001
1000
0000
,
0001
1000
0001
0100
,
0010
0100
0010
0000
,
1000
0001
1000
0000
,
0001
1000
0001
0000
,
1000
1000
0001
0001
,
0100
0010
0100
1001
,
0002
0000
0000
0000
,
2003
0000
0000
0000
,
3010
0000
0010
0000
,
0010
0000
0010
1001
,
2000
0000
0000
0000
,
3002
0000
0000
0000
,
1003
0100
0010
0001
,
0100
0001
0010
0000
,
0001
0000
0000
0100
0000
0000
0001
0000
,
1000
0000
0000
0010
0000
0000
1000
0000
,
0001
0000
0000
1000
0000
0000
0001
0000
,
0010
0100
0000
0000
,
1000
0000
0000
0100
0000
0000
1000
0000
,
0001
0000
0000
0010
0000
0000
0001
0000
,
0100
0100
0010
0010
,
1000
0010
0001
1001
,
2000
0000
0000
0000
,
3002
0000
0000
0000
,
1003
0000
0100
0000
,
0010
0000
0001
0000
,
1000
0100
0010
1001
,
0001
0010
0100
1001
,
1000
0100
0010
0001
,
0010
0100
1000
0000
,
0100
1000
0100
0000
0100
0000
1001
0000
,
0010
0001
0010
0000
0010
0000
1001
0000
,
0010
0100
0010
0000
1000
0001
1000
0000
,
0001
0010
0100
1001
,
0100
0001
0100
0000
0010
1000
0010
0000
,
1000
0001
1000
0000
0001
1000
0001
0000
,
0010
0001
0010
0000
0100
1000
0100
0000
,
1000
0110
0000
0001
,
0110
0000
1000
0000
,
2002
0000
0000
0000
,
3003
0100
0100
0110
;
