#TITLE:Indigo Vision;
#SUBTITLE:(full flavour hide around mix);
#ARTIST:TaQ;
#TITLETRANSLIT:;
#SUBTITLETRANSLIT:;
#ARTISTTRANSLIT:;
#CREDIT:DMAxel;
#BANNER:Indigo Vision (full flavour hide around mix).png;
#BACKGROUND:Indigo Vision (full flavour hide around mix)-bg.png;
#LYRICSPATH:Indigo Vision (full flavour hide around mix).lrc;
#CDTITLE:beatmania IIDX.png;
#MUSIC:Indigo Vision (full flavour hide around mix).mp3;
#OFFSET:-14.360;
#SAMPLESTART:70.070;
#SAMPLELENGTH:12.000;
#SELECTABLE:YES;
#BPMS:0.000=155.000;
#STOPS:;
#BGCHANGES:-40.000=Indigo Vision (full flavour hide around mix).avi=1.000=1=1=0,
99999=-nosongbg-=1.000=0=0=0 // don't automatically add -songbackground-
;

//---------------dance-single - ----------------
#NOTES:
     dance-single:
     :
     Easy:
     4:
     0.239,0.267,0.111,0.041,0.000:
1000
0001
1000
0001
,
1000
0010
1000
0010
,
0100
0001
0100
0001
,
1000
0000
0000
0000
,
0010
0010
0010
0010
,
0010
0010
0010
0100
,
0001
0001
0001
0001
,
0001
0001
0001
1000
,
0010
0010
0010
0010
,
0010
0010
0010
1000
,
0001
0001
0001
0001
,
0001
0000
0000
0000
,
1001
0000
0000
0000
,
0000
0000
0000
0000
,
0200
0000
0000
0000
,
0000
0000
0300
0000
,
1001
0000
0010
0000
,
0010
0000
0010
0000
,
0010
0000
0010
0000
,
0010
0000
0010
0000
,
1001
0000
0100
0000
,
0100
0000
0100
0000
,
1001
0000
0010
0000
,
0010
0100
0010
0000
,
1000
0010
1000
0010
,
0100
0001
0100
0010
,
1000
0100
1000
0100
,
0010
0001
1000
0000
,
0001
0010
0001
0010
,
0100
1000
0100
0010
,
1001
0000
1001
0000
,
1001
1000
0000
0000
,
0110
0000
0000
0000
,
0010
0000
0000
0000
,
0220
0000
0000
0000
,
0000
0000
0000
0330
,
1001
1000
1000
1000
,
1000
1000
1000
0010
,
0100
0100
0100
0100
,
0100
0100
0100
0001
,
1000
1000
1000
1000
,
1000
1000
1000
0010
,
0100
0100
0100
0100
,
0100
0001
0010
1000
,
0001
0000
0000
0000
,
1001
0001
0010
0001
,
1000
0000
1000
0100
,
1000
0010
0100
0001
,
1000
0100
1000
0000
,
0001
1000
0100
1000
,
0001
0000
1000
0000
,
0001
0010
0001
0100
,
0020
0000
0000
1030
;

//---------------dance-single - ----------------
#NOTES:
     dance-single:
     :
     Hard:
     7:
     0.424,0.481,0.182,0.162,0.076:
0010
1000
0010
0000
0100
0001
0010
0000
,
0100
1000
0010
0000
0100
0001
0100
0000
,
0010
1000
0100
0000
0010
0001
0100
0000
,
0001
0010
0001
0010
0100
1000
0100
1000
,
0100
0010
0100
0000
0100
0010
0100
0000
,
0100
0010
0100
0000
0100
0010
0000
1000
,
0010
0100
0010
0000
0010
0100
0010
0000
,
0010
0000
0100
0000
0010
0000
1000
0000
0000
0000
0001
0000
0000
0001
0000
0000
,
0100
0010
0100
0000
0100
0001
0100
0000
,
0100
1000
0100
0000
0100
0010
0000
1000
,
0010
0100
0010
0000
0010
1000
0010
0000
,
0010
0000
0100
0000
0000
0001
0000
0000
0010
0000
0000
0100
0000
0000
1010
0000
,
0220
0000
0000
0000
,
0000
0000
0000
0330
,
2002
0000
0000
0000
,
0000
0000
0000
3003
,
0220
0000
0000
0000
,
0000
0000
0000
0330
,
0002
0000
2003
0000
,
3002
0000
0000
0000
1003
0000
0000
0001
,
0200
0000
0320
0000
,
0230
0000
0000
0000
0000
0000
0000
0000
0310
0000
0000
0000
0000
0000
0000
1000
,
0001
0000
0000
0000
0000
0000
0000
0000
0000
0000
0000
0000
0000
1000
0001
0000
,
0100
0100
0100
0110
,
0010
1000
0001
0010
0100
0010
0001
0000
,
0100
0001
1000
0100
0010
0100
1000
0000
,
0010
0100
0001
0010
0100
0010
0001
0000
,
0100
0010
1000
0100
0010
0100
1000
0000
,
1001
0100
0010
0001
0100
0010
1000
0000
,
0100
0010
0001
1000
0010
0100
0001
0000
,
0101
0100
1000
0000
1010
0010
0001
0000
,
0101
0000
0000
0000
1100
0000
0000
0100
0000
0000
0101
0000
0000
0100
0000
0000
,
1001
0001
0001
0010
,
1000
0100
0001
1000
,
0020
0000
0000
0000
,
0200
0000
0000
0330
,
0100
0001
0100
0000
0100
0010
0100
0000
,
0100
1000
0100
0000
0100
0010
0000
1000
,
0010
0100
0010
0000
0010
1000
0010
0000
,
0010
0000
0100
0000
0000
0000
0010
0000
0000
0000
1000
0000
0000
0100
0000
0000
,
0010
0001
0010
0000
0010
0100
0010
0000
,
0010
0000
1000
0000
0010
0000
0000
0000
0010
0000
0001
0000
0000
1000
0000
0000
,
1001
0100
1001
0100
,
1001
0000
1000
0000
0000
0100
0000
0000
0010
0000
0000
0001
0000
0000
0101
0000
,
0220
0000
0000
0330
,
0001
0010
1000
0010
0001
1000
0100
0010
,
0001
1000
0000
0000
0000
0000
0100
0000
0010
0000
0001
0000
0001
0000
0000
0000
,
1000
0100
0001
0100
1000
0100
0010
0000
,
0001
0000
0100
0000
0010
0000
0100
0000
0001
0000
1000
0000
0001
1000
0000
0000
,
0001
0010
1000
0010
0001
1000
0010
0100
,
0001
1000
0000
0000
0000
0000
0100
0000
0010
0000
0001
0000
0001
0000
0000
0000
,
0010
0100
1000
0010
0100
0010
1000
0100
,
0010
0000
0000
0000
0001
0000
0100
0000
0000
0100
0000
0000
0110
0000
0000
0000
;

//---------------dance-single - ----------------
#NOTES:
     dance-single:
     :
     Challenge:
     8:
     0.475,0.534,0.142,0.182,0.309:
0001
0010
0100
1000
0100
0001
0100
1000
,
0001
0010
0100
1000
0100
0001
0100
1000
,
0001
0010
0100
0010
0001
1000
0100
0010
,
0100
1000
0001
0001
1000
0100
0010
0001
,
1000
0010
0000
0000
1000
0010
0000
0000
0100
0001
0000
0000
0100
0001
0000
0000
,
0010
0100
0000
0000
0010
0100
0000
0000
1000
0000
0001
0000
1000
0000
0100
0000
,
0010
0001
0000
0000
0010
0001
0000
0000
1000
0100
0000
0000
1000
0100
0000
0000
,
1000
0001
0000
0000
1000
0001
0000
0000
0100
0000
0010
0000
0000
0010
0000
0000
,
1000
0100
0000
0000
1000
0010
0000
0000
0100
0001
0000
0000
0010
0001
0000
0000
,
1000
0010
0000
0000
0100
0010
0000
0000
1000
0000
0001
0000
0000
0100
0000
0000
,
0001
0010
0000
0000
0001
0100
0000
0000
0010
1000
0000
0000
0100
1000
0000
0000
,
0010
0000
1000
0000
0000
1000
0000
0000
0001
0000
0000
0001
0000
0000
0100
0000
,
0220
0000
0000
0000
,
0000
0000
0000
0300
,
2000
0000
0000
0000
,
0000
0000
0000
3030
,
0220
0000
0000
0000
,
0030
0000
0000
0000
,
0002
0003
0002
0003
,
0002
0003
0002
0303
,
0220
0300
2000
3000
,
2000
0000
0000
0000
3000
0000
0000
0000
2000
0000
0000
0000
3030
0000
0000
0001
,
0100
0000
0000
0000
0000
0000
0000
0000
0000
0000
0000
0000
0000
0001
1000
0000
,
0100
0100
0100
1001
,
1000
0100
0001
0100
1000
0001
0100
0000
,
0001
0010
1000
0010
0001
1000
0010
0000
,
0100
0001
0010
0100
0010
0001
1000
0000
,
0010
1000
0100
0010
0100
1000
0001
0000
,
1001
0010
0100
1000
0100
0001
0100
0000
,
1000
0100
0010
0001
0100
1000
0100
0000
,
1001
0000
0100
0001
0011
0000
0010
1000
,
1100
0000
0000
0000
1100
0000
0000
0101
0000
0000
0101
0000
0000
0101
0000
0000
,
1001
0010
0100
0010
,
0001
0010
1000
0000
0010
0000
0100
0000
,
2000
0000
0000
0000
,
0002
0000
0000
3003
,
0001
0100
0000
0000
0001
0100
0000
0000
0010
1000
0000
0000
0010
1000
0000
0000
,
0010
0100
0000
0000
0010
0100
0000
0000
0001
0000
0100
0000
0010
0000
1000
0000
,
0001
0010
0000
0000
0001
0010
0000
0000
0100
1000
0000
0000
0100
1000
0000
0000
,
0010
0100
0000
0000
0010
0100
0000
0000
0001
0000
1000
0000
0000
0001
0000
0000
,
1000
0010
0000
0000
1000
0100
0000
0000
0010
0001
0000
0000
0100
0001
0000
0000
,
0100
0010
0000
0000
1000
0010
0000
0000
0100
0000
0001
0000
0000
1000
0000
0000
,
0001
0100
0000
0000
0010
0100
0000
0000
1000
0010
0000
0000
0100
0010
0000
0000
,
0100
0000
0001
0000
0000
1000
0000
0000
0100
0000
0000
0010
0000
0000
0100
0000
,
0220
0000
0000
0330
,
1000
0100
0010
1000
0010
0001
1000
0100
,
1000
0001
0000
0000
0010
0000
0100
0000
1000
0000
0001
0000
0010
0000
0000
0000
,
0100
0001
0100
1000
0100
0010
0100
1000
,
0001
0000
0000
0000
0100
0000
0010
0000
1000
0000
0100
0000
1000
0000
0001
0010
,
0001
0010
0100
0001
0100
1000
0100
0010
,
0001
1000
0000
0000
0100
0000
0010
0000
0001
0000
1000
0000
0100
0000
0000
0000
,
0010
1000
0010
0001
0010
0100
0010
0001
,
1000
0000
0000
0001
0010
0000
0100
0000
0000
0100
0000
0000
0100
0000
0000
0000
;

//---------------dance-single - ----------------
#NOTES:
     dance-single:
     :
     Medium:
     6:
     0.346,0.401,0.122,0.142,0.030:
0001
1000
0001
0000
1000
0001
1000
0000
,
0010
0100
0010
0000
0100
0010
0100
0000
,
0001
1000
0001
0000
1000
0010
1000
0000
,
0010
0100
0010
0000
0100
0001
0100
0000
,
0001
0001
0001
0001
,
1000
0000
1000
0000
1000
0001
0000
0001
,
1000
1000
1000
1000
,
0001
0000
0000
0000
0001
0000
1000
0000
0000
0000
0001
0000
0000
0001
0000
0000
,
1000
1000
1000
1000
,
0001
0000
0001
0000
0001
1000
0000
1000
,
0001
0001
0001
1000
,
1000
0000
0001
0000
0000
0001
0000
0000
1000
0000
0000
1000
0000
0000
0010
0000
,
0200
0000
0000
0000
,
0000
0000
0000
0000
,
0320
0000
0000
0000
,
0000
0000
0000
0030
,
2002
0000
0000
0000
,
0000
0000
0000
3003
,
0200
0000
0302
0000
,
0203
0000
0310
0010
,
2001
0000
3020
0000
,
2030
0000
3010
0000
,
0110
0000
0000
0000
,
1001
0001
0001
0001
,
0001
0100
0001
0000
0010
0100
1000
0000
,
0001
0100
0001
0000
0010
0100
1000
0000
,
0010
0100
0010
0000
1000
0100
0010
0000
,
0001
1000
0001
0000
0010
0100
1000
0000
,
0100
0010
0001
0000
1000
0010
1000
0000
,
0100
0010
0001
0000
1000
0010
1000
0000
,
1001
1000
1010
0001
,
0101
0000
0000
0000
1001
0000
0000
1000
0000
0000
1000
0000
0000
0000
0000
0000
,
1001
0001
0001
0001
,
0200
0000
0000
0000
,
0020
0000
0000
0000
,
0000
0000
0000
0330
,
1001
1000
0001
0001
,
1000
0000
1000
0000
1000
0001
0000
0001
,
1000
1000
0001
0001
,
1000
0000
0000
0000
1000
0000
0000
0000
0001
0000
1000
0000
0000
1000
0000
0000
,
0010
0100
0010
0000
0010
1000
0010
0000
,
0010
0000
0100
0000
0010
0000
0000
0000
0010
0000
1000
0000
0000
0010
0000
0000
,
0100
0010
0100
0000
0100
0001
0100
0000
,
0100
0010
1000
0001
1000
0001
1000
0000
,
1001
0000
0000
0000
,
1000
0010
1000
0000
0100
0010
0001
0000
,
1000
0001
0000
0000
0010
0100
1000
0000
,
0001
0100
0001
0000
0010
0100
1000
0000
,
0001
0010
0001
0000
1000
0100
0010
0000
,
0001
0100
0001
0000
0010
0100
1000
0000
,
0010
1000
0000
0000
0100
0010
0001
0000
,
1000
0010
1000
0000
0100
0010
0001
0000
,
2002
0000
0000
3003
;

//---------------dance-single - ----------------
#NOTES:
     dance-single:
     :
     Beginner:
     2:
     0.094,0.158,0.111,0.000,0.000:
0001
0000
0000
0000
,
1000
0000
0000
0000
,
0001
0000
0000
0000
,
0000
0000
0000
0000
,
1001
0000
0000
0000
,
0001
0000
0000
0000
,
1000
0000
0000
0000
,
0001
0000
0000
0000
,
1001
0000
0000
0000
,
1000
0000
0000
0000
,
0001
0000
0000
0000
,
1000
0000
0000
0000
,
1001
0000
0000
0000
,
0000
0000
0000
0000
,
0000
0000
0000
0000
,
0000
0000
0000
0000
,
1001
0000
0000
0000
,
0000
0000
0000
0000
,
0001
0000
0000
0000
,
0001
0000
0000
0000
,
1001
0000
0000
0000
,
0000
0000
0000
0000
,
1001
0000
0000
0000
,
1000
0000
0000
0000
,
1000
0000
0000
0000
,
0001
0000
0000
0000
,
1000
0000
0000
0000
,
0001
0000
0000
0000
,
0010
0000
0000
0000
,
0100
0000
0000
0000
,
0010
0000
0000
0000
,
0100
0000
0000
0000
,
1001
0000
0000
0000
,
0000
0000
0000
0000
,
1000
0000
0000
0000
,
0000
0000
0000
0000
,
1001
0000
1000
0000
,
0001
0000
1000
0000
,
0010
0000
0100
0000
,
0010
0000
0000
0000
,
1000
0000
0001
0000
,
1000
0000
0000
0000
,
1001
0000
0001
0000
,
1001
0000
0000
0000
,
0001
0000
0000
0000
,
1001
0000
0001
0000
,
0001
0000
0000
0000
,
1000
0000
1000
0000
,
1000
0000
0000
0000
,
0010
0000
0010
0000
,
0010
0000
0000
0000
,
0100
0000
0100
0000
,
0100
0000
0000
0000
;

//---------------dance-double - ----------------
#NOTES:
     dance-double:
     :
     Easy:
     4:
     0.259,0.294,0.152,0.081,0.000: // measure 1
00001000
00010000
00001000
00010000
,  // measure 2
00001000
00010000
00100000
01000000
,  // measure 3
10000000
00010000
01000000
00010000
,  // measure 4
20020000
00000000
00000000
30030000
,  // measure 5
10000000
01000000
00010000
01000000
,  // measure 6
10000000
00010000
00100000
00010000
,  // measure 7
00001000
00000100
00000001
00000100
,  // measure 8
00001000
00010000
00001000
00010000
,  // measure 9
00100000
10000000
00100000
00010000
,  // measure 10
00100000
10000000
00100000
01000000
,  // measure 11
00001000
00000010
00000001
00000010
,  // measure 12
00002000
00000000
00000000
00003000
,  // measure 13
00001001
00000000
00000000
00000000
,  // measure 14
00000000
00000000
00000000
00000000
,  // measure 15
00000020
00000000
00000000
00000000
,  // measure 16
00000000
00000000
00000030
00000000
,  // measure 17
00001001
00000000
00000001
00000000
,  // measure 18
00000001
00000000
00001000
00000000
,  // measure 19
00001000
00000000
00000001
00000000
,  // measure 20
00000001
00000000
00001000
00000000
,  // measure 21
00001001
00000000
00000001
00000000
,  // measure 22
00000010
00000000
00001000
00000000
,  // measure 23
00011000
00000000
00010000
00000000
,  // measure 24
00010000
00001000
00010000
00000000
,  // measure 25
00100000
01000000
10000000
01000000
,  // measure 26
00100000
00010000
01000000
00010000
,  // measure 27
00000100
00000010
00000001
00000010
,  // measure 28
00000100
00001000
00000010
00001000
,  // measure 29
00100000
01000000
10000000
01000000
,  // measure 30
00100000
00010000
01000000
00010000
,  // measure 31
00011000
00000000
00011000
00000000
,  // measure 32
00011000
00000100
00000010
00000001
,  // measure 33
00000110
00000000
00000000
00000000
,  // measure 34
00000010
00000000
00000000
00000000
,  // measure 35
00000220
00000000
00000000
00000000
,  // measure 36
00000000
00000000
00000000
00000330
,  // measure 37
00001001
00000001
00000010
00000001
,  // measure 38
00000010
00000100
00001000
00000010
,  // measure 39
00001000
00001000
00000001
00000001
,  // measure 40
00001000
00000100
00000010
00000001
,  // measure 41
00000010
00000100
00000010
00000100
,  // measure 42
00001000
00010000
00001000
00010000
,  // measure 43
00011000
00100000
00011000
00100000
,  // measure 44
01000000
10000000
01000000
00010000
,  // measure 45
00100000
00000000
00000000
00000000
,  // measure 46
10010000
00010000
00100000
00010000
,  // measure 47
10000000
10000000
01000000
00010000
,  // measure 48
00000100
00001000
00000100
00001000
,  // measure 49
00000001
00000001
00000100
00001000
,  // measure 50
01000000
00010000
00100000
00010000
,  // measure 51
10000000
10000000
10000000
01000000
,  // measure 52
00010000
00000100
00010000
00010000
,  // measure 53
00022000
00000000
00000000
00033000
;
