#TITLE:In a Grow;
#SUBTITLE:;
#ARTIST:Noriko Fukushima;
#TITLETRANSLIT:;
#SUBTITLETRANSLIT:;
#ARTISTTRANSLIT:;
#CREDIT:DigiMindAxel;
#BANNER:In a Grow.png;
#BACKGROUND:In a Grow-bg.png;
#LYRICSPATH:In a Grow.lrc;
#CDTITLE:pop'n music.png;
#MUSIC:In a Grow.mp3;
#OFFSET:-11.146;
#SAMPLESTART:19.100;
#SAMPLELENGTH:12.000;
#SELECTABLE:YES;
#BPMS:0.000=120.000,76.000=60.000,84.000=120.000,100.000=60.000,108.000=120.000;
#STOPS:;
#BGCHANGES:;

//---------------dance-single - ----------------
#NOTES:
     dance-single:
     :
     Easy:
     2:
     0.135,0.156,0.053,0.071,0.000: // measure 1
0001
1000
0000
1000
,  // measure 2
0000
0100
0000
0100
,  // measure 3
0000
0010
0000
0010
,  // measure 4
0001
1000
0001
0000
,  // measure 5
1001
0001
1000
0000
,  // measure 6
0100
1000
0100
0000
,  // measure 7
0010
0001
0010
0000
,  // measure 8
0002
0000
0000
0000
,  // measure 9
2003
0000
0000
0000
,  // measure 10
3020
0000
0000
0000
,  // measure 11
0130
0000
0000
0000
,  // measure 12
1001
0000
0000
0000
,  // measure 13
1000
0000
0100
0000
,  // measure 14
0010
0000
0100
0000
,  // measure 15
1000
0000
0000
0000
,  // measure 16
1001
0000
0000
0000
,  // measure 17
0001
0000
0010
0000
,  // measure 18
0100
0000
0010
0000
,  // measure 19
0001
0000
1000
1000
,  // measure 20
1001
0000
0010
0000
,  // measure 21
0010
0000
0010
0000
,  // measure 22
0110
0000
0000
0000
,  // measure 23
0010
0000
0000
0000
,  // measure 24
1000
0000
0000
0000
,  // measure 25
0001
0000
1000
0000
,  // measure 26
1001
0000
1000
0000
,  // measure 27
1000
0000
0000
0000
0001
1000
0001
0000
,  // measure 28
1000
0001
0000
0001
,  // measure 29
0000
0100
0000
0100
,  // measure 30
0000
0010
0000
0010
,  // measure 31
1000
0001
1000
0001
,  // measure 32
1000
0100
1000
0000
,  // measure 33
0100
0010
0100
0000
,  // measure 34
1000
0001
1000
0000
,  // measure 35
0010
0100
0010
0100
,  // measure 36
0001
0100
0001
0000
,  // measure 37
0010
0100
0010
0000
,  // measure 38
0001
1000
0001
0000
,  // measure 39
0200
0000
0000
0000
,  // measure 40
0320
0000
0000
0000
,  // measure 41
2030
0000
0000
0000
,  // measure 42
3002
0000
0000
1003
,  // measure 43
0100
0010
0000
0020
,  // measure 44
0000
0000
0000
0000
,  // measure 45
0030
0000
0000
0000
;

//---------------dance-single - ----------------
#NOTES:
     dance-single:
     :
     Medium:
     4:
     0.258,0.271,0.071,0.124,0.022: // measure 1
0001
1000
0000
0100
,  // measure 2
0000
0010
0100
1000
,  // measure 3
0001
1000
0000
0010
,  // measure 4
0100
0001
0100
0010
,  // measure 5
1000
0100
1000
0000
,  // measure 6
0010
0100
0001
0000
,  // measure 7
0010
0001
0010
0000
,  // measure 8
0200
0000
0000
0000
0000
0000
1300
0020
,  // measure 9
0000
0100
0100
0130
,  // measure 10
0002
0000
0000
0000
0000
0000
0013
0100
,  // measure 11
2000
0000
0000
3000
,  // measure 12
1001
0000
0010
0100
,  // measure 13
0010
0100
0010
0000
1000
0100
1000
0000
,  // measure 14
0010
0000
0100
0000
0001
0100
0001
0000
,  // measure 15
0010
0000
0001
0000
1000
0010
1000
0000
,  // measure 16
1001
0000
0100
0010
,  // measure 17
1000
0001
1000
0000
0100
1000
0100
0000
,  // measure 18
1000
0000
0001
0000
0100
0001
0010
0000
,  // measure 19
1001
0000
0000
0000
0000
0000
0000
0000
0000
0000
0000
0100
0000
0000
0010
0000
,  // measure 20
0200
0000
0000
0000
0000
0000
0000
0302
0000
0000
0000
0000
0000
0000
0000
2003
,  // measure 21
0000
0000
3020
0230
,  // measure 22
0310
1000
0010
1000
,  // measure 23
0001
0010
0001
0010
,  // measure 24
0001
1000
0001
1000
,  // measure 25
0100
0010
0100
0010
,  // measure 26
2001
0000
3200
0000
,  // measure 27
0320
0000
0000
0000
0000
0000
0000
0000
0000
0000
0000
0000
0000
0000
0000
0000
0031
0000
0000
0000
0010
0000
0000
0000
0100
0000
0000
1000
0000
0000
0010
0000
,  // measure 28
0100
0001
0100
0000
0010
1000
0010
0000
,  // measure 29
0100
0010
0100
0000
0010
0100
0010
0000
,  // measure 30
1000
0100
0010
0000
0001
0010
0100
0000
,  // measure 31
1000
0001
1000
0001
0100
0010
0100
0000
,  // measure 32
1001
0000
1000
0000
0100
1000
0010
0000
,  // measure 33
0100
0001
0010
0000
0001
1000
0001
0000
,  // measure 34
0010
0100
1000
0001
,  // measure 35
0100
0010
0100
0000
0001
1000
0001
0000
,  // measure 36
1001
0001
1000
0010
,  // measure 37
0100
0001
0010
0000
0100
1000
0010
0000
,  // measure 38
1000
0000
0001
0000
0010
0001
0010
0000
,  // measure 39
0200
0000
0000
0000
0000
0000
1300
0010
,  // measure 40
0100
0010
0110
1000
,  // measure 41
0020
0000
0000
0000
0000
0000
0130
0001
,  // measure 42
1000
0000
0100
0000
0110
0000
0001
1000
,  // measure 43
0010
0000
0100
0100
0000
0000
0100
0100
,  // measure 44
0000
0010
0000
0010
0000
0010
0000
0010
;

//---------------dance-single - ----------------
#NOTES:
     dance-single:
     :
     Hard:
     7:
     0.375,0.386,0.071,0.133,0.137: // measure 1
1000
0010
1000
0000
1000
0001
1000
0000
,  // measure 2
1000
0001
0001
0010
0100
1000
0001
0000
,  // measure 3
0001
0100
0001
0000
0001
1000
0001
0000
,  // measure 4
0001
0000
1000
0000
0100
0000
0001
0000
0100
0000
0000
1000
0010
0000
0010
0000
,  // measure 5
0100
0001
0010
0000
0100
0010
0100
1000
,  // measure 6
0010
0100
0010
0000
0100
0010
0000
0000
1000
0000
0000
0001
0000
0000
1000
0000
,  // measure 7
0001
0100
0001
1000
0000
1000
0100
1000
,  // measure 8
0002
0000
0100
0000
0010
0000
0103
0001
,  // measure 9
1000
1100
0101
1001
,  // measure 10
2000
0000
0010
0000
0100
0000
3010
1000
,  // measure 11
0001
0000
0000
0000
0001
0000
0000
0000
0001
0000
0000
1000
0001
0000
0001
0000
,  // measure 12
0110
0000
0010
0000
0010
1000
0100
0010
,  // measure 13
0100
1000
0010
0000
0010
1000
0100
0000
,  // measure 14
1000
0001
0100
1000
0100
0001
1000
0000
,  // measure 15
0001
1000
0100
0000
0100
1000
0001
0000
,  // measure 16
0110
0000
0100
0000
0100
0001
0010
0100
,  // measure 17
0010
0001
0100
0000
0100
0001
1000
0000
,  // measure 18
0001
1000
0010
0001
0010
1000
0001
0000
,  // measure 19
1001
0000
0000
0000
0000
0000
0000
0000
0000
0000
0000
0001
1000
0000
1000
0000
,  // measure 20
0220
0000
0000
0000
0000
0330
0000
2000
0000
0000
0000
0000
0000
0000
0000
3002
,  // measure 21
0000
0000
0203
0320
,  // measure 22
1030
0100
0010
0001
1000
0000
0001
0000
,  // measure 23
1000
0010
0100
0001
1000
0000
0100
0000
,  // measure 24
0010
0100
1000
0010
0100
0000
0001
0000
,  // measure 25
0100
0000
0010
0000
1000
0000
0000
0000
1000
0000
0000
0001
1000
0000
1000
0000
,  // measure 26
0220
0000
0000
0000
0030
0000
0000
0000
0002
0000
0000
0000
0300
0000
0000
1000
,  // measure 27
1003
0000
0000
0000
0000
0000
0000
0000
0000
0000
0000
0000
0000
0000
0000
0000
0010
0000
0000
0000
0100
0000
0000
0000
0001
0000
0000
0001
0000
0000
0001
0000
,  // measure 28
1000
0001
0010
0000
0100
0010
0001
0000
,  // measure 29
0100
0000
0010
1000
0010
0000
1000
0000
0001
1000
0000
0100
0000
0010
0000
0000
,  // measure 30
0001
1000
0100
1000
0000
1000
0001
0100
,  // measure 31
0001
0100
0001
0000
1000
0010
1000
0000
0001
0000
1000
0001
1000
0000
0001
0000
,  // measure 32
0100
0010
0100
0010
0100
0000
0000
0000
0010
0000
1000
0000
0001
0000
0000
0000
,  // measure 33
0100
0010
0100
0000
0010
1000
0000
0000
0001
0000
0000
0001
0000
0000
0001
0000
,  // measure 34
1000
0100
1000
0001
0000
0001
0100
0001
,  // measure 35
1000
0000
0100
0000
0010
0000
0100
0000
1000
0000
0000
0001
1000
0000
1000
0000
,  // measure 36
0010
0100
0010
0100
0010
0000
0000
0000
0100
0000
0001
0000
1000
0000
0000
0000
,  // measure 37
0100
1000
0100
0000
1000
0001
0000
0000
0100
0000
0000
0100
0000
0000
0100
0000
,  // measure 38
0001
1000
0010
1000
0000
1000
0001
0010
,  // measure 39
0200
0000
1000
0000
0010
0000
1300
0001
,  // measure 40
0020
0000
0001
0000
0100
0000
0031
1000
,  // measure 41
0200
0000
0010
0000
1000
0000
0310
0001
,  // measure 42
2000
0000
0100
0000
0001
0000
3100
0010
,  // measure 43
0001
0000
0100
0000
0000
0100
0000
0000
0100
0000
0010
0000
0000
0000
1000
0000
,  // measure 44
0001
0100
0000
0100
0001
1000
0000
0000
;

//---------------dance-single - ----------------
#NOTES:
     dance-single:
     :
     Beginner:
     1:
     0.053,0.074,0.035,0.000,0.000:
1000
0000
0000
0000
,
0000
0000
0000
0000
,
0001
0000
0000
0000
,
1000
0000
0000
0000
,
1001
0000
0000
0000
,
0010
0000
0000
0000
,
0100
0000
0000
0000
,
0010
0000
0000
0000
,
0000
0010
0000
0000
,
0010
0000
0000
0000
,
0010
0000
0000
0000
,
1001
0000
0000
0000
,
0001
0000
0000
0000
,
1000
0000
0000
0000
,
0001
0000
0000
0000
,
0100
0000
0000
0000
,
0010
0000
0000
0000
,
0100
0000
0000
0000
,
0100
0000
0000
0000
,
1001
0000
0000
0000
,
0000
0000
0000
0000
,
1000
0000
0000
0000
,
0001
0000
0000
0000
,
1000
0000
0000
0000
,
0001
0000
0000
0000
,
1001
0000
0000
0000
,
0010
0000
0000
0000
,
0010
0000
0000
0000
,
0000
0000
0000
0000
,
0100
0000
0000
0000
,
0010
0000
0000
0000
,
1000
0000
0000
0000
,
0001
0000
0000
0000
,
1000
0000
0000
0000
,
0001
0000
0000
0000
,
0100
0000
0000
0000
,
0010
0000
0000
0000
,
0100
0000
0000
0000
,
0001
0000
0000
0000
,
0000
0000
0000
0000
,
1000
0000
0000
0000
,
0000
0000
0000
0000
,
0001
0000
0000
0000
;
