#TITLE:Ignited Night;
#SUBTITLE:;
#ARTIST:HHH;
#TITLETRANSLIT:;
#SUBTITLETRANSLIT:;
#ARTISTTRANSLIT:;
#CREDIT:DigiMindAxel;
#BANNER:Ignited Night.png;
#BACKGROUND:Ignited Night-bg.png;
#LYRICSPATH:;
#CDTITLE:pop'n music.png;
#MUSIC:Ignited Night.mp3;
#OFFSET:-5.240;
#SAMPLESTART:18.120;
#SAMPLELENGTH:12.000;
#SELECTABLE:YES;
#BPMS:0.000=149.000;
#STOPS:;
#BGCHANGES:;

//---------------dance-single - ----------------
#NOTES:
     dance-single:
     :
     Easy:
     3:
     0.276,0.282,0.161,0.131,0.000:
0000
0000
0000
0000
,
0000
0000
0000
0000
,
1001
0000
0000
0000
,
2000
0000
0000
0000
,
3100
0010
0100
0010
,
0002
0000
2003
0000
,
3001
1000
0001
1000
,
1001
0000
0000
0000
,
0010
0100
0010
0100
,
0001
0001
1000
0000
,
0010
0100
0010
0100
,
0001
0001
1000
0000
,
0010
1000
0010
1000
,
0100
0010
0001
0000
,
0100
0001
0100
0001
,
1000
1000
1000
0000
,
1001
0010
0100
1000
,
0010
0100
0010
0000
,
1000
0100
0010
0001
,
0100
0010
0100
0000
,
0001
0010
0100
1000
,
0010
0100
0010
0000
,
2000
0000
0000
0000
,
3001
0001
0001
0000
,
1001
0100
0010
0001
,
1000
1000
1000
0000
,
0001
0010
0100
1000
,
0001
0001
0001
0000
,
1001
0000
0000
0000
,
0110
0000
0000
0000
,
0110
0000
0110
0000
,
1001
0000
1000
0000
,
1001
0000
0000
0000
,
0002
0000
0203
0000
,
0320
0000
2030
0000
,
3100
0010
0001
1000
,
0100
0010
0001
1000
,
0002
0000
0000
0000
,
2003
0000
3001
0000
,
1001
0010
0001
0010
,
0100
1000
0010
0000
,
0100
0001
0100
0001
,
0100
1000
0100
0001
,
1000
0100
0010
0001
,
1000
0100
0001
0100
,
1000
0010
0100
0010
,
1000
1000
1000
1001
,
0100
0001
0100
0001
,
0100
1000
0100
1001
,
0010
0001
0010
0001
,
0010
1000
0010
1001
,
0100
1000
0100
1000
,
0100
0001
0100
1001
,
0200
0000
0000
0300
,
0010
0100
0010
0100
,
2002
0000
0000
0000
,
3003
0000
0000
0000
;

//---------------dance-single - ----------------
#NOTES:
     dance-single:
     :
     Medium:
     6:
     0.455,0.451,0.573,0.151,0.000:
0000
0000
0000
0000
,
0000
0000
0000
0000
,
1001
0000
0000
0000
0000
0000
1000
0001
,
2000
0000
0000
3000
,
1100
1100
0011
0011
,
1002
0000
2003
0000
,
3010
1010
0101
0101
,
2002
0000
0000
3003
,
1000
0001
0100
0001
0100
0000
0010
1000
,
0100
0101
1001
1000
,
0001
1000
0010
1000
0010
0000
0100
0001
,
0010
1010
1001
0001
,
0100
0010
0100
0001
0010
0000
0100
1000
,
0001
1001
0110
1000
,
0010
0100
0010
1000
0100
0000
0010
0001
,
2000
0000
0000
3001
,
0100
0001
0100
0001
1000
0000
0100
1000
,
0100
0000
0001
0100
1000
0000
1001
0000
,
0100
1000
0100
1000
0001
0000
0100
0001
,
0100
0000
1000
0100
0001
0000
1000
0000
,
0100
1000
0100
1000
0001
0000
0100
0001
,
0100
0000
1000
0100
0001
0000
1001
0000
,
0002
0000
0000
0003
,
0101
0101
1010
1010
,
1002
0000
1003
0010
1000
0001
0010
0000
,
0100
0010
0100
0010
0100
0000
0100
0000
,
2001
0000
3001
0100
0001
1000
0100
0000
,
0010
0100
0010
0100
0010
0000
0010
0000
,
1001
0110
1001
0110
,
0110
1001
0110
0000
,
1100
1100
0011
0011
,
1010
0000
0101
0000
,
1001
0000
0000
0000
,
2000
0000
3020
0000
,
0130
0001
1000
0000
,
0010
1000
0010
0000
1000
0001
1000
0000
,
0001
0010
0001
0010
0001
0010
0001
0000
,
2000
0000
3001
1001
,
0110
0000
0110
0000
,
1000
0010
0100
0000
0010
0100
0010
0100
,
0010
0000
1000
0100
0001
0000
1100
0000
,
0001
0100
0010
0000
0100
0010
0100
0010
,
0100
0000
0001
0100
1000
0000
0101
0000
,
1000
0100
0010
0000
0100
1000
0100
0000
,
0011
0010
1001
0110
,
0001
0010
0100
0000
0010
0100
0010
0000
,
1001
1001
1001
1000
,
0001
0100
0010
1000
0100
0000
1000
0001
,
1000
0000
0001
1000
0001
0000
1001
0000
,
1000
0010
0100
0001
0010
0000
0001
1000
,
0001
0000
1000
0001
1000
0000
1001
0000
,
0001
0010
0100
1000
0001
0000
0010
0001
,
0010
0000
0100
1000
0100
0000
1001
0000
,
0020
0000
0000
0030
,
0110
1001
0110
1001
,
2002
0000
0000
0000
,
3003
0000
0000
0000
;

//---------------dance-single - ----------------
#NOTES:
     dance-single:
     :
     Hard:
     8:
     0.549,0.591,0.493,0.141,0.181: // measure 1
1000
0000
0000
1000
0000
0000
1000
0000
0001
0000
0000
0001
0000
0000
0001
0000
,  // measure 2
0100
0010
0100
0010
0000
0000
1000
0001
1000
0001
1000
0001
,  // measure 3
1000
0000
0000
0000
0000
0000
0010
0100
,  // measure 4
0002
1000
1000
1003
,  // measure 5
1100
1001
1010
1010
,  // measure 6
0100
0001
0100
0001
1000
0100
0010
0001
,  // measure 7
0100
0110
1001
0110
,  // measure 8
1002
0000
0000
1003
,  // measure 9
1000
0100
0010
0100
1000
0001
0100
0001
,  // measure 10
1000
0100
0001
0100
1000
0000
1001
0000
,  // measure 11
0001
0010
0100
0010
0001
1000
0010
1000
,  // measure 12
0100
0001
0100
1000
0001
0000
1001
0000
,  // measure 13
1000
0100
0010
1000
0010
0001
0010
0100
,  // measure 14
1000
0000
0000
0010
0000
0100
0001
0000
0001
0000
0000
0000
1001
0000
0000
0000
,  // measure 15
0001
0010
0100
0001
0100
1000
0100
0010
,  // measure 16
0002
0000
0000
1003
,  // measure 17
1001
0100
0010
0001
1000
0000
0100
0001
,  // measure 18
0100
0000
1000
0100
0010
0000
1001
0000
,  // measure 19
0001
0010
0100
1000
0001
0000
0100
1000
,  // measure 20
0100
0000
0001
0010
0100
0000
1001
0000
,  // measure 21
0010
0100
0001
0010
0100
0000
1000
0100
,  // measure 22
0001
0000
0100
1000
0001
0000
1001
0000
,  // measure 23
2000
0001
0001
3001
,  // measure 24
1001
0101
1100
0110
,  // measure 25
1001
0000
0000
0000
1000
0000
0001
0000
1000
0010
0000
0100
0000
0001
0100
0000
,  // measure 26
0001
0010
0100
1000
0100
0010
0001
0000
,  // measure 27
1001
0000
0000
0000
0001
0000
1000
0000
0001
0100
0000
0010
0000
1000
0010
0000
,  // measure 28
1000
0100
0010
0001
0010
0100
1000
0000
,  // measure 29
1100
1001
1100
1001
,  // measure 30
0101
1001
0101
0000
,  // measure 31
0010
0000
1000
0010
0000
1000
0010
0000
0100
0000
0001
0100
0000
0001
0100
0000
,  // measure 32
0001
1000
0001
1000
0000
0000
0010
0100
0010
0100
0010
0100
,  // measure 33
0010
0000
0000
1000
,  // measure 34
2002
3003
0220
0330
,  // measure 35
0011
0110
1100
0000
,  // measure 36
0100
0001
0100
0001
0100
1000
0100
0001
,  // measure 37
0100
0010
0100
0001
1000
0100
1000
0100
,  // measure 38
2000
0000
3001
1001
,  // measure 39
2200
0300
3001
0000
,  // measure 40
0001
0000
0000
0100
0000
0000
0001
0000
1000
0000
0100
0000
0010
0000
0100
0000
,  // measure 41
1000
0000
0000
0010
0000
0100
0001
0000
0001
0000
0000
0000
1001
0000
0000
0000
,  // measure 42
1000
0000
0000
0010
0000
0000
1000
0000
0001
0000
0010
0000
0100
0000
0010
0000
,  // measure 43
0001
0100
1000
0100
0001
0000
1001
0000
,  // measure 44
1000
0000
0010
1000
0000
0010
1000
0000
0001
0000
0010
0000
0100
0000
0010
0000
,  // measure 45
0001
0000
0000
0100
0000
0010
1000
0000
1000
0000
0000
0000
1001
0000
0000
0000
,  // measure 46
0001
0000
0100
0001
0000
0100
0001
0000
1000
0000
0100
0000
0010
0000
0100
0000
,  // measure 47
1000
1100
0101
1001
,  // measure 48
0100
0010
0001
0010
0100
0000
1000
0100
,  // measure 49
0001
0000
0100
1000
0001
0000
1001
0000
,  // measure 50
0010
0100
1000
0100
0010
0000
0001
0100
,  // measure 51
1000
0000
0100
0001
1000
0000
1001
0000
,  // measure 52
0100
0010
0001
0010
0100
0000
1000
0100
,  // measure 53
0001
0000
0100
1000
0001
0000
1001
0000
,  // measure 54
0002
0000
0000
1003
,  // measure 55
1100
0101
1001
0110
,  // measure 56
2002
0000
0000
0000
,  // measure 57
3003
0000
0000
0000
;

//---------------dance-single - ----------------
#NOTES:
     dance-single:
     :
     Challenge:
     9:
     0.680,0.620,0.392,0.171,0.598:
0001
0000
0100
0001
0000
0100
0001
0000
1000
0000
0100
1000
0000
0100
1000
0000
,
0001
0100
0010
1000
0000
0000
1000
0010
0100
0001
1000
0001
,
2000
0000
0000
0000
0000
0000
3100
0010
,
0002
1000
1000
1003
,
1100
1001
1100
1001
,
0010
0000
1000
0010
0000
1000
0010
0000
0100
0000
0001
1000
0000
0001
1000
0000
,
0100
1000
0100
0000
1000
0100
1000
0000
0001
0010
0001
0000
0010
0001
0010
0000
,
2001
0000
0000
0000
0000
0001
3001
0000
,
1001
0000
0000
0100
0000
0000
1100
0000
0000
0001
0000
0100
0001
0000
0010
0000
,
0100
1000
0100
0001
0100
0000
1001
0000
,
0010
0000
0000
0010
0000
0000
0011
0000
0000
1000
0000
0010
1000
0000
0100
0000
,
0010
0001
0100
1000
0100
0000
1001
0000
,
0010
0000
1000
0100
0000
1000
0100
0000
0000
1000
0000
0001
1000
0000
0100
0000
,
0010
0000
0000
0001
0000
0100
0010
0100
0010
0000
0000
0000
1001
0000
0000
0000
,
0100
0000
0001
0010
0000
0001
0010
0000
0001
1000
0001
0000
0100
0010
0100
0000
,
0001
0010
0100
2000
0000
0001
3001
0000
,
1000
0000
0001
0100
0000
0001
0100
0000
0001
0000
1000
0000
0100
1000
0100
0000
,
0010
0000
0000
0001
0000
0100
0010
0000
1000
0000
0000
0000
1001
0000
0000
0000
,
0001
0000
1000
0010
0000
1000
0010
0000
1000
0000
0001
0000
0010
0001
0010
0000
,
0001
1000
0001
0000
0010
0000
0100
0000
1000
0000
0001
0000
0100
0000
0000
0000
,
0001
0000
1000
0010
0000
1000
0010
0000
1000
0000
0001
0000
0010
0001
0010
0000
,
0100
0000
0000
1000
0000
0010
0100
0000
0001
0000
0000
0000
1001
0000
0000
0000
,
2000
0001
0001
3001
,
1001
0000
0000
0000
1100
0000
0000
0000
0011
0000
0000
0000
1000
0001
1000
0001
,
1000
0000
0000
0000
0100
0000
1000
0000
0001
0100
0000
0001
0000
1000
0100
1000
,
0100
0000
0010
0000
0001
0000
0010
0000
0100
0000
1000
0000
0001
1000
0001
1000
,
0001
0000
0000
0000
0010
0000
0001
0000
1000
0010
0000
1000
0000
0001
0100
0001
,
0100
0010
0200
0000
0010
0000
0310
0000
,
1100
1001
1100
1001
,
0101
1001
0101
0000
,
0001
0000
1000
0100
0000
1000
0100
0000
0010
0000
0001
0100
0000
0001
0100
0000
,
0010
1000
0100
0010
0000
0000
0001
0010
0100
1000
0001
1000
,
0002
0000
0000
0000
0000
1000
1003
0000
,
2200
3300
0220
0330
,
0011
0000
1100
0000
0002
1000
1003
0000
,
0100
1000
0100
1000
0100
0001
0100
0001
,
0100
1000
0100
0000
1000
0001
1000
0000
0001
0100
0001
0000
1000
0001
1000
0001
,
2000
0000
3001
1001
,
0010
0100
0010
0100
0010
0100
0010
0100
0020
0000
0000
0000
0030
0000
0000
0000
,
0100
0000
0001
0100
0000
0001
0100
0000
0001
0000
1000
0000
0100
1000
0100
1000
,
0100
0000
0000
1000
0000
0010
0100
0000
0001
0000
0000
0000
1001
0000
0000
0000
,
0010
0000
1000
0010
0000
1000
0010
0000
1000
0000
0001
0000
0100
0010
0100
0010
,
0100
0001
0010
0100
1000
0010
0100
0000
,
0010
0000
1000
0010
0000
1000
0010
0000
1000
0000
0001
0000
0100
0010
0100
0010
,
0100
0000
0001
0100
0000
0010
1000
0000
0100
0000
0000
0000
1001
0000
0000
0000
,
0100
0000
0001
0100
0000
0001
0100
0000
0001
0000
1000
0000
0010
0100
0010
0100
,
0010
1000
0100
0010
0001
0100
0110
0000
,
0001
0000
1000
0100
0000
1000
0100
0000
1000
0001
1000
0000
0001
0100
0001
0100
,
0001
0000
0100
0010
0000
1000
0100
0000
0010
0000
0000
0000
1001
0000
0000
0000
,
1000
0000
0001
0010
0000
0001
0010
0000
0001
1000
0001
0000
1000
0010
1000
0010
,
1000
0001
0010
0100
1000
0001
1001
0000
,
0001
0000
1000
0100
0000
1000
0100
0000
1000
0001
1000
0000
0001
0100
0001
0100
,
0001
0000
0100
0010
0000
1000
0100
0000
0010
0000
0000
0000
1001
0000
0000
0000
,
2000
0000
0001
0000
0001
0001
3001
0000
,
0011
1010
1001
0110
,
2002
0000
0000
0000
,
3003
0000
0000
0000
;

//---------------dance-single - ----------------
#NOTES:
     dance-single:
     :
     Beginner:
     1:
     0.089,0.138,0.121,0.000,0.000:
0000
0000
0000
0000
,
0000
0000
0000
0000
,
0000
0000
0000
0000
,
1000
0000
0000
0000
,
0001
0000
0000
0000
,
1000
0000
0000
0000
,
1000
0000
0000
0000
,
1001
0000
0000
0000
,
1001
0000
0000
0000
,
0000
0000
0000
0001
,
0000
0000
0000
0000
,
0000
0000
1000
0000
,
0001
0000
0000
0000
,
1000
0000
0000
0000
,
0001
0000
0000
0000
,
1001
0000
0000
0000
,
1001
0000
0000
0000
,
0010
0000
0000
0000
,
0100
0000
0000
0000
,
0010
0000
0000
0000
,
0010
0000
0000
0000
,
0010
0000
0000
0000
,
0100
0000
0000
0000
,
0110
0000
0000
0000
,
1001
0000
0000
0000
,
0001
0000
0000
0000
,
1001
0000
0000
0000
,
1000
0000
0000
0000
,
0001
0000
0000
0000
,
0000
0000
0000
0000
,
1000
0000
0000
0000
,
0001
0000
0000
0000
,
1001
0000
0000
0000
,
1000
0000
0000
0000
,
1000
0000
0000
0000
,
1000
0000
0000
0000
,
1000
0000
0000
0000
,
1001
0000
0000
0000
,
0000
0000
0000
0000
,
1001
0000
0000
0000
,
0001
0000
0000
0000
,
1000
0000
0000
0000
,
0001
0000
0000
0000
,
0100
0000
0000
0000
,
0010
0000
0000
0000
,
0100
0000
0000
0000
,
1001
0000
0000
0000
,
0001
0000
0000
0000
,
0010
0000
0000
0000
,
0100
0000
0000
0000
,
1000
0000
0000
0000
,
0001
0000
0000
0000
,
0010
0000
0000
0000
,
0100
0000
0000
0000
,
1000
0000
0000
0000
,
1001
0000
0000
0000
;
