#TITLE:一発逆転! ××だらけのハッピー大運動会!!;
#SUBTITLE:;
#ARTIST:P-4 laboratory;
#TITLETRANSLIT:IPPATSU GYAKUTEN! xxDARAKE NO HAPPY DAIUNDOUKAI!!;
#SUBTITLETRANSLIT:;
#ARTISTTRANSLIT:;
#CREDIT:DigiMindAxel;
#BANNER:IPPATSU GYAKUTEN! xxDARAKE NO HAPPY DAIUNDOUKAI!!.png;
#BACKGROUND:IPPATSU GYAKUTEN! xxDARAKE NO HAPPY DAIUNDOUKAI!!-bg.png;
#LYRICSPATH:;
#CDTITLE:pop'n music.png;
#MUSIC:IPPATSU GYAKUTEN! xxDARAKE NO HAPPY DAIUNDOUKAI!!.mp3;
#OFFSET:-7.460;
#SAMPLESTART:7.439;
#SAMPLELENGTH:12.000;
#SELECTABLE:YES;
#BPMS:0.000=190.000,144.000=95.000,160.000=190.000,288.000=200.000;
#STOPS:;
#BGCHANGES:;

//---------------dance-single - ----------------
#NOTES:
     dance-single:
     :
     Hard:
     9:
     0.646,0.787,0.326,0.155,0.053: // measure 1
0100
0000
0100
1000
0100
0000
1100
0000
,  // measure 2
0110
0101
0110
0000
,  // measure 3
0100
1000
0100
0000
0010
0100
0010
0000
,  // measure 4
0001
0010
0001
0000
0010
0100
1000
0001
,  // measure 5
0100
0000
0100
0001
0100
0000
0101
0000
,  // measure 6
1100
0110
1100
0000
,  // measure 7
0001
0010
0100
1000
0100
0010
0001
1000
,  // measure 8
0010
0000
0010
1000
0001
0000
0000
0000
,  // measure 9
1001
0110
1001
0000
,  // measure 10
0110
1001
0110
0000
,  // measure 11
0010
0100
0001
0010
0100
1000
0010
0000
,  // measure 12
0010
0100
0001
0010
0100
1000
0010
0000
,  // measure 13
1001
0110
1001
0000
,  // measure 14
0110
1001
0110
0000
,  // measure 15
1000
0100
0010
0001
0010
0100
1000
0001
,  // measure 16
0100
0010
0100
0001
1000
0000
0000
0000
,  // measure 17
1100
1100
0101
0101
,  // measure 18
0010
1000
0001
0010
0100
0000
1100
0000
,  // measure 19
1002
0000
0000
0000
0103
0001
0010
0100
,  // measure 20
1000
0000
1000
0000
0010
1000
0100
0010
,  // measure 21
0001
0000
0001
0000
0100
0001
0010
0100
,  // measure 22
1000
0001
0100
1000
0100
0001
0100
0010
,  // measure 23
2000
0000
0000
0000
3001
0010
0100
1000
,  // measure 24
0100
0000
0100
0000
1000
0100
0010
0001
,  // measure 25
0100
0000
0100
0000
0001
0010
0100
1000
,  // measure 26
0001
1000
0100
0001
0100
1000
0001
0000
,  // measure 27
2001
0000
0000
0000
3100
0010
0100
1000
,  // measure 28
0001
0000
0001
0000
0010
0100
0010
0001
,  // measure 29
1000
0000
1000
0000
0100
0010
0100
1000
,  // measure 30
0001
0010
0100
1000
0001
0010
0100
1000
,  // measure 31
0002
0000
0000
0000
0103
0001
0010
0100
,  // measure 32
1000
0000
1001
0000
0010
1000
0100
0010
,  // measure 33
0001
0000
1001
0000
0100
0001
0010
0100
,  // measure 34
1000
0001
0010
0100
1000
0001
0100
1000
,  // measure 35
0100
0001
1000
0010
0001
0010
1000
0001
,  // measure 36
0100
0100
0010
0010
1000
0000
0002
0000
,  // measure 37
1003
0100
0000
0100
0010
0000
0010
0000
0001
0010
0000
0010
0200
0000
0000
0000
,  // measure 38
1300
0010
0000
0010
0100
0000
0100
0000
0001
1000
0000
1000
0200
0000
0000
0000
,  // measure 39
1300
0100
0010
0000
0001
0000
0001
0000
0010
0100
1000
0000
0010
0100
0010
0000
,  // measure 40
1000
0100
0010
0000
0001
0000
0001
0000
0010
0100
1000
0000
0002
0000
1000
0000
,  // measure 41
1003
0001
0100
1000
0100
0000
0001
0010
,  // measure 42
0100
1000
0100
0001
0100
0000
1000
0010
,  // measure 43
0100
0000
0101
0000
0100
1000
0001
0010
,  // measure 44
0100
0000
1100
0000
1001
0000
0001
0010
,  // measure 45
0100
1000
0010
0001
0010
0000
1000
0100
,  // measure 46
0010
0001
0010
1000
0010
0000
0001
0010
,  // measure 47
0100
0000
1100
0000
0100
0001
0010
0100
,  // measure 48
1000
0000
1100
0000
1001
0000
1000
0010
,  // measure 49
0100
0001
0000
0001
1000
0000
1000
0000
,  // measure 50
0010
0100
0000
0100
0002
0000
1000
0000
,  // measure 51
1003
0010
0000
0010
0100
0000
0100
0000
,  // measure 52
0001
1000
0000
1000
0020
0000
0100
0000
,  // measure 53
0130
0001
1000
0000
1000
0100
0010
0000
,  // measure 54
0100
0010
0001
0000
0001
1000
0100
0010
,  // measure 55
0100
0000
0110
0000
1000
0100
0010
0001
,  // measure 56
1000
1001
0110
0000
,  // measure 57
0100
0001
0010
0001
1000
0100
0010
0000
,  // measure 58
0100
1000
0001
0100
0010
0100
0001
0000
,  // measure 59
0100
0001
0010
0001
1000
0100
0010
0000
,  // measure 60
0100
1000
0010
0100
0010
1000
0100
0000
,  // measure 61
1000
0100
0010
0001
0010
0100
1000
0001
,  // measure 62
0100
1000
0100
0001
1000
0000
0010
1000
,  // measure 63
0001
0010
0100
1000
0100
0010
0001
0100
,  // measure 64
0010
0000
0110
0000
1001
0000
0000
1000
,  // measure 65
0002
0000
0000
0000
0203
0000
0000
0301
,  // measure 66
2000
0000
3200
0000
,  // measure 67
0301
0100
1000
0100
0010
0000
0001
0000
,  // measure 68
0200
0000
0000
0000
,  // measure 69
0301
0010
0100
1000
0001
0000
0001
0000
,  // measure 70
2000
0000
3200
0000
,  // measure 71
0301
0000
0100
0000
1000
0000
0000
0010
,  // measure 72
0200
0000
0000
0300
,  // measure 73
0001
1000
0100
1000
0001
1000
0100
1000
,  // measure 74
0000
1000
0001
0100
0010
0100
0001
1000
,  // measure 75
0001
0100
1000
0100
0001
1000
0010
0100
,  // measure 76
0010
1000
0100
0001
0100
1000
0001
0000
,  // measure 77
1000
0001
0100
0001
1000
0001
0100
0001
,  // measure 78
0000
0001
1000
0010
0100
0010
1000
0001
,  // measure 79
1000
0100
0001
0100
1000
0010
0100
0010
,  // measure 80
1000
0100
0001
0100
1000
0010
0100
0010
,  // measure 81
1000
0001
0010
0100
1000
0001
0100
0001
,  // measure 82
1000
0010
0100
1000
0100
0001
1000
1000
,  // measure 83
0001
0001
0100
0100
0020
0000
0000
0000
,  // measure 84
0000
0000
0000
0000
,  // measure 85
0030
0000
0000
0000
;

//---------------dance-single - ----------------
#NOTES:
     dance-single:
     :
     Easy:
     4:
     0.297,0.376,0.122,0.163,0.000:
0001
1000
0001
0000
,
0010
0001
0010
0000
,
0100
0000
1000
0000
,
0100
0000
1001
0000
,
1000
0100
1000
0000
,
0010
0100
0010
0000
,
1000
0000
0001
0000
,
0100
0000
0001
0000
,
1001
0000
0000
0000
,
1001
0000
0000
0000
,
0010
0100
0010
0000
,
1000
0001
1000
0000
,
0110
0000
0000
0000
,
1001
0000
0000
0000
,
0010
0100
0010
0000
,
1000
0001
1000
0000
,
2002
0000
0000
3003
,
0220
0000
0000
0330
,
2000
0000
3001
1000
,
0001
0001
1000
0001
,
1000
1000
0010
0100
,
0020
0000
0000
0000
,
0130
0000
0001
1000
,
0001
0001
1000
0001
,
1000
1000
0010
0100
,
0020
0000
0000
0000
,
1030
0000
0100
0010
,
0001
0001
0010
0100
,
1000
1000
0100
0010
,
0001
1000
0001
1000
,
0010
0000
0100
0010
,
0100
0100
0010
0100
,
0010
0010
1000
0100
,
0010
0001
1000
0100
,
0010
0001
1000
0001
,
1000
1000
1000
0000
,
1001
0000
0000
0000
,
0002
0000
0000
0003
,
2000
3100
0010
0001
,
2000
3100
0010
0001
,
1000
0100
1000
0000
,
0001
0100
0001
0000
,
0100
0100
0010
0000
,
0100
0100
0010
0000
,
1000
0100
1000
0000
,
0001
0100
0001
0000
,
0100
0010
0100
0010
,
0100
0001
1000
0000
,
0100
0000
1000
0000
,
0100
0010
0001
0000
,
0010
0000
0001
0000
,
0010
0100
1000
0000
,
0002
0000
2003
0000
,
3002
0000
1003
0000
,
0100
0000
0010
0000
,
0001
0000
1000
0000
,
1001
0000
0010
0000
,
0100
0010
0100
0000
,
1001
0000
0100
0000
,
0010
0100
0010
0000
,
1000
0100
1000
0100
,
1000
0001
1000
0000
,
0001
0100
0001
1000
,
0100
0010
0001
0000
,
2000
0000
0000
0000
,
0000
0000
0000
0000
,
3200
0000
0000
0000
,
0000
0000
0000
0000
,
0320
0000
0000
0000
,
0032
0000
0000
0000
,
2003
0000
0000
0000
,
3002
0000
0000
0000
,
1003
0100
1000
0100
,
0010
0001
0010
0001
,
0100
0010
0100
0010
,
1000
0010
1000
0010
,
0100
0001
1000
0100
,
0010
0001
1000
0001
,
0100
0001
1001
0000
,
0110
0000
1001
0000
,
0110
0000
1001
0000
,
0001
1000
0100
0010
,
0001
1000
0020
0000
,
0000
0000
0000
0000
,
0030
0000
0000
0000
;

//---------------dance-single - ----------------
#NOTES:
     dance-single:
     :
     Medium:
     6:
     0.456,0.582,0.171,0.252,0.000:
1000
0000
1000
0001
1000
0000
0001
0000
,
0100
1000
0100
0000
,
0002
0103
0200
0301
,
2000
0000
3010
0000
1000
0010
1000
0000
,
0001
0000
0001
1000
0001
0000
1000
0000
,
0100
0001
0100
0000
,
1000
0010
1000
0000
1000
0001
1000
0000
,
0010
0000
0010
0100
0010
0000
0000
0000
,
1010
1000
1000
0000
,
0101
0001
0001
0000
,
0100
0000
0100
0010
0100
0000
1100
0000
,
0010
0000
0010
0100
0010
0000
0011
0000
,
1001
0001
0001
0000
,
1001
1000
1000
0000
,
0100
1000
0100
0000
0010
0001
0010
0000
,
0001
1000
0001
1000
0001
0000
0000
0000
,
1001
0100
0010
0001
,
0100
0010
0100
0010
0100
0000
0000
0000
,
1002
0000
0000
0000
0103
0010
0100
0000
,
0001
0000
0001
0000
0100
0010
0100
0000
,
0001
0000
0001
0000
0100
0010
0100
0000
,
0001
1000
0100
0001
,
0100
0000
0000
0000
1000
0100
1000
0000
,
1000
0000
1000
0000
0001
0100
0001
0000
,
0001
0000
0001
0000
0100
0010
0100
0010
,
0100
0001
1000
0001
,
1001
0000
0000
0000
0010
0100
0010
0000
,
1000
0000
1000
0000
0010
0100
0010
0000
,
1000
0000
1000
0000
0010
0100
0010
0000
,
1000
0001
0100
1000
,
0101
0000
0000
0000
0001
1000
0001
0000
,
0001
0000
0001
0000
1000
0001
1000
0000
,
1000
0000
1000
0000
0010
0100
0010
0100
,
0010
1000
0001
0010
,
0100
1000
0100
0001
,
0100
1000
0100
1000
0100
0000
0000
0000
,
1000
1000
0001
0001
,
1000
1000
0001
0001
,
0100
0001
0100
0001
1000
0100
1000
0001
,
0010
0100
1000
0001
0100
0010
2000
0000
,
3001
0100
0101
0000
,
1000
0100
1100
0001
,
0100
0000
0100
0000
0100
0010
0100
0000
,
0010
0010
0110
0000
,
1000
0100
1100
0000
,
0001
0100
0101
1000
,
0010
0000
0010
0000
0100
0010
0100
0010
,
0100
0001
2000
0000
,
3001
0000
0000
0100
0001
0000
1000
0000
,
0001
0000
0000
0100
0002
0000
0000
0000
,
1003
0000
0000
0100
1000
0000
0001
0000
,
1000
0000
0000
0100
2000
0000
0000
0000
,
3002
0000
0203
0000
,
0320
0000
2030
0001
,
3001
0010
0100
1000
,
0010
0100
0010
0000
,
2000
0000
0000
3010
0100
0000
0001
0000
,
2000
0000
0000
3010
0100
0000
0001
0000
,
1000
0001
0000
0010
0100
0000
1000
0000
,
1000
0001
0000
0010
0100
0000
0000
0000
,
1001
0100
0010
0001
,
1000
0001
1000
0001
1000
0000
0000
0000
,
0010
0000
0100
0000
0001
1000
0001
0000
,
0010
0100
1000
0000
,
0002
0000
0203
0000
,
0302
0000
0203
0000
,
0320
0000
2030
0000
,
3020
0000
0000
0000
,
2030
0000
3200
0000
,
2300
0000
3200
0000
,
2300
0000
3002
0000
,
2003
0000
0000
0000
,
3001
0100
0001
1000
0100
1000
0000
0010
,
0000
0100
0000
0001
0010
0001
1000
0001
,
0010
0100
1000
0001
0100
0000
0001
0000
,
1000
0100
1000
0001
,
1000
0001
0010
0100
1000
0000
0001
0000
,
0000
0102
0000
0000
2003
0000
0000
0000
,
3001
0100
0010
0000
,
1010
0010
0110
0000
,
0101
0100
0110
0001
,
1000
0010
0100
0000
0001
0100
0010
0000
,
1000
0010
0100
0001
2000
0000
0000
0000
,
0000
0000
0000
0000
,
3000
0000
0000
0000
;

//---------------dance-single - ----------------
#NOTES:
     dance-single:
     :
     Beginner:
     2:
     0.124,0.202,0.073,0.000,0.000:
1000
0000
0000
0000
,
0001
0000
1000
0000
,
0001
0000
0000
0000
,
0100
0000
0000
0000
,
0001
0000
0000
0000
,
1000
0000
0001
0000
,
1000
0000
0000
0000
,
0010
0000
0000
0000
,
0110
0000
0000
0000
,
1001
0000
0000
0000
,
0100
0000
0000
0000
,
0001
0000
0000
0000
,
0110
0000
0000
0000
,
0010
0000
0000
0000
,
0010
0000
0000
0000
,
1000
0000
0000
0000
,
0001
0000
0000
0000
,
1000
0000
0000
0000
,
1001
0000
0000
0000
,
0001
0000
0000
0000
,
0001
0000
0000
0000
,
0001
0000
0000
0000
,
1000
0000
0000
0000
,
1000
0000
0000
0000
,
1000
0000
0000
0000
,
1000
0000
0000
0000
,
1001
0000
0000
0000
,
0001
0000
0000
0000
,
0001
0000
0000
0000
,
0001
0000
0000
0000
,
1000
0000
0000
0000
,
1000
0000
0000
0000
,
1000
0000
0000
0000
,
1000
0000
0000
0000
,
0001
0000
0000
0000
,
1000
0000
0000
0000
,
1001
0000
0000
0000
,
0000
0000
0000
0000
,
1000
0000
0000
0000
,
0001
0000
0000
0000
,
1000
0000
0001
0000
,
1000
0000
0001
0000
,
0100
0000
0010
0000
,
0100
0000
0010
0000
,
1000
0000
1000
0000
,
1000
0000
1000
0000
,
0001
0000
0001
0000
,
0001
0000
0001
0000
,
0100
0000
0000
0000
,
0010
0000
0000
0000
,
0100
0000
0000
0000
,
0010
0000
0000
0000
,
1000
0000
0000
0000
,
0000
0000
0000
0000
,
0001
0000
0000
0000
,
0000
0000
0000
0000
,
1000
0000
0001
0000
,
1000
0000
0001
0000
,
0100
0000
0010
0000
,
0100
0000
0010
0000
,
1000
0000
0100
0000
,
0010
0000
0001
0000
,
1000
0000
0001
0000
,
1000
0000
1001
0000
,
0001
0000
0000
0000
,
0000
0000
0000
0000
,
0000
0000
0000
0000
,
0000
0000
0000
0000
,
0001
0000
0000
0000
,
0000
0000
0000
0000
,
0001
0000
0000
0000
,
0000
0000
0000
0000
,
1001
0000
0000
0000
,
1000
0000
0000
0000
,
0001
0000
0000
0000
,
1000
0000
0000
0000
,
0100
0000
0000
0000
,
0010
0000
0000
0000
,
0001
0000
1000
0000
,
0001
0000
0001
0000
,
1000
0000
1000
0000
,
0010
0000
0100
0000
,
0010
0000
0110
0000
;
