#TITLE:怒れる大きな白い馬;
#SUBTITLE:~S.S.D.の役~;
#ARTIST:M.B.D Rmx by S.S.D.;
#TITLETRANSLIT:IKARERU OOKINA SHIROI UMA;
#SUBTITLETRANSLIT:~S.S.D. NO YAKU~;
#ARTISTTRANSLIT:;
#CREDIT:DigiMindAxel;
#BANNER:IKARERU OOKINA SHIROI UMA ~S.S.D. NO YAKU~.png;
#BACKGROUND:IKARERU OOKINA SHIROI UMA ~S.S.D. NO YAKU~-bg.png;
#LYRICSPATH:;
#CDTITLE:pop'n music.png;
#MUSIC:IKARERU OOKINA SHIROI UMA ~S.S.D. NO YAKU~.mp3;
#OFFSET:-7.119;
#SAMPLESTART:23.314;
#SAMPLELENGTH:12.000;
#SELECTABLE:YES;
#BPMS:0.000=148.003,112.000=110.000,120.000=116.000,128.000=118.000,130.000=119.000,134.000=120.000,136.000=123.000,137.000=126.000,138.000=129.000,139.000=132.000,140.000=140.000,141.979=141.000,143.979=142.000,145.979=143.000,147.979=144.000,148.979=145.000,149.979=146.000,150.979=149.000,152.979=152.000,156.000=148.000,156.250=132.000,157.000=148.000;
#STOPS:;
#BGCHANGES:;

//---------------dance-single - ----------------
#NOTES:
     dance-single:
     :
     Easy:
     3:
     0.187,0.230,0.037,0.137,0.000:
2000
0000
0000
3001
,
0002
0000
0000
1003
,
2000
0000
0000
3001
,
0100
0010
0100
0010
,
0200
0000
0000
0000
,
0000
0000
0000
0000
,
0320
0000
0000
0000
,
0000
0000
0000
0000
,
0230
0000
0000
0000
,
0300
0000
0000
0000
,
1001
0000
1000
0000
,
0001
0000
1000
0000
,
0010
0000
0100
0000
,
0001
0000
1000
0000
,
0001
0000
0100
0000
,
0010
0000
1000
0000
,
0001
0000
1000
0000
,
0010
0000
0100
0000
,
0020
0000
0000
0000
,
0000
0000
0000
0000
,
0130
0100
0100
0000
,
0010
0010
0010
0000
,
1000
1000
1000
0000
,
0001
0001
0001
0000
,
1000
0001
1000
0000
,
0001
1000
0001
0000
,
0100
0010
0100
0000
,
0010
0100
0010
0100
,
0020
0000
0000
0000
,
0000
0030
0000
0000
,
0100
0000
0000
0000
,
0010
0000
0000
0000
,
0100
0000
0001
0000
,
2000
0000
0000
0000
,
3001
0010
0100
1000
,
0002
0000
0000
0000
,
2003
0000
0000
0000
,
3001
0000
1000
0000
,
0001
0001
0001
0000
,
1001
0000
1000
0100
,
0010
0000
0001
0010
,
0100
1000
0100
1000
,
0001
0010
0001
1000
,
0010
0000
0110
0000
,
1000
0100
0010
0001
,
1000
0100
1000
0100
,
0010
0001
0100
0010
,
0200
0010
0000
0010
,
0000
0001
0000
0301
,
2000
0001
0000
0001
,
0000
0100
0000
3100
,
0020
0001
0000
0001
,
0000
0100
0000
0130
,
2000
0001
0000
0001
,
0000
0100
0000
3100
,
0010
0001
0100
0000
,
1001
0000
0000
0000
;

//---------------dance-single - ----------------
#NOTES:
     dance-single:
     :
     Challenge:
     9:
     0.616,0.599,0.110,0.192,0.539: // measure 1
1001
0000
0000
0100
0000
0000
0010
0000
0000
0001
0000
0000
1000
0000
0001
0000
,  // measure 2
1001
0000
0000
0010
0000
0000
0100
0000
0000
1000
0000
0000
0001
0000
1000
0000
,  // measure 3
1001
0000
0000
0100
0000
0000
0010
0000
0000
0001
0000
0000
1000
0000
0001
0000
,  // measure 4
1000
0100
0010
0001
1000
0010
0100
0001
,  // measure 5
2000
0000
0001
0000
3002
0000
0000
1003
,  // measure 6
0100
0010
0002
0000
0000
0000
0000
0000
,  // measure 7
2003
0000
0000
3001
0100
0000
0010
0000
,  // measure 8
0200
0000
0000
0000
,  // measure 9
0020
0000
0000
0330
,  // measure 10
0000
0000
0000
0000
0000
0000
0000
0000
0100
0000
0000
0100
0000
0000
0100
0000
,  // measure 11
0001
0000
1000
0100
1000
0000
0100
0000
0010
0001
0010
0001
0010
0000
0001
0000
,  // measure 12
1000
0000
0001
0010
0001
0000
0010
0000
0100
1000
0100
1000
0100
0000
0000
0000
,  // measure 13
1000
0000
0001
0100
0001
0000
0100
0000
0010
1000
0010
1000
0010
0000
0100
0000
,  // measure 14
0001
0000
1000
0010
1000
0000
0001
0000
0100
0001
0100
0001
0100
0000
0001
0000
,  // measure 15
1000
0000
0100
1000
0100
0000
1000
0000
0010
0100
0010
0100
0010
0000
1000
0000
,  // measure 16
0001
0000
0010
0001
0010
0000
0001
0000
0100
0010
0100
0010
0100
0000
0001
0000
,  // measure 17
1000
0000
0010
1000
0010
0000
1000
0000
0001
1000
0001
1000
0001
0000
0100
0000
,  // measure 18
0001
0000
0100
0001
0100
0000
0001
0000
1000
0001
1000
0001
1000
0000
0010
0000
,  // measure 19
0100
0102
0000
1000
,  // measure 20
0000
0000
0000
0000
1003
0000
0000
0000
0000
1000
0001
0000
1000
0000
1000
0000
,  // measure 21
0001
0010
0001
0000
0010
0100
0010
0000
0100
1000
0100
0000
0010
0000
0000
0000
,  // measure 22
0001
0100
0001
0000
0100
0010
0100
0000
0010
1000
0010
0000
1000
0000
0001
0000
,  // measure 23
1000
0100
1000
0000
0100
0010
0100
0000
0010
0001
0010
0000
0100
0000
0000
0000
,  // measure 24
1000
0010
1000
0000
0010
0100
0010
0000
0100
0001
0100
0000
0001
0000
1000
0000
,  // measure 25
0010
0100
0010
0000
1000
0010
1000
0000
0010
0100
0010
0000
1000
0000
0001
0000
,  // measure 26
0100
0010
0100
0000
0001
0100
0001
0000
0100
0010
0100
0000
0001
0000
1000
0000
,  // measure 27
0010
0100
0010
0000
1000
0100
1000
0000
0010
0100
0010
0000
1000
0000
0010
0000
,  // measure 28
0100
0001
0000
0010
0000
0100
0000
1000
0000
0001
0000
0001
0000
1000
0010
0000
,  // measure 29
0220
0000
0000
0000
,  // measure 30
0000
0000
0000
0330
,  // measure 31
0101
0000
0100
0010
0200
0000
0000
1300
,  // measure 32
0001
0010
0200
0000
0000
0000
0000
1300
,  // measure 33
0002
0000
0000
1000
2003
0000
3020
0000
,  // measure 34
0230
0000
0000
0000
,  // measure 35
0301
0000
0010
0000
0100
0000
1000
0000
0001
0000
0010
0000
0100
0000
1000
0001
,  // measure 36
1000
0000
0100
0000
1000
0000
0020
0000
0100
0000
0000
0000
0130
0000
0001
1000
,  // measure 37
0001
0010
0001
0200
0010
0000
0310
1000
,  // measure 38
0200
0000
0000
0000
0310
0000
0001
1000
0002
0000
0000
0000
1003
0000
0010
0100
,  // measure 39
0010
0000
1000
0000
0100
0000
1000
0000
0010
0100
0000
0010
0100
0000
0001
0000
,  // measure 40
1001
0000
0000
0000
0000
0000
0010
0100
0010
0000
0000
0000
0100
0001
0100
0001
,  // measure 41
0100
0000
0000
0000
0000
0000
0001
1000
0001
0000
0010
0000
0100
0000
1000
0000
,  // measure 42
0001
0000
0100
0001
0010
0000
0001
0010
0001
0000
0010
0001
1000
0000
0010
0000
,  // measure 43
0100
0000
0001
1000
0100
0000
1000
0100
1000
0000
0100
1000
0001
0000
1000
0000
,  // measure 44
1001
0000
0000
0000
0000
0000
0100
0010
0100
0000
0000
0000
0001
1000
0001
1000
,  // measure 45
0001
0000
0010
0000
0100
0000
1000
0010
1000
0000
0001
0000
0010
0000
0100
0000
,  // measure 46
0010
0000
0001
0100
0010
0000
0100
0010
0100
0000
0010
0100
0001
0000
0100
0000
,  // measure 47
0001
0000
1000
0010
0100
0000
0010
0100
0010
0000
0100
0010
1000
0000
0100
0000
,  // measure 48
0010
0001
0000
0010
0001
0000
0100
0010
0000
0100
0010
0000
1000
0000
0001
0000
,  // measure 49
1000
0100
0000
1000
0100
0000
1000
0001
0000
1000
0001
0000
0100
0000
0010
0000
,  // measure 50
1000
0010
0000
1000
0010
0000
0100
0001
0000
0100
0001
0000
0010
0000
0100
0000
,  // measure 51
1000
0100
0000
1000
0100
0000
0010
0001
0000
0010
0001
0000
0100
0000
0010
0000
,  // measure 52
1000
0001
0000
1000
0001
0000
0100
0010
0000
0100
0010
0000
1000
0000
0001
0000
,  // measure 53
0100
0010
0000
0100
0010
0000
1000
0001
0000
1000
0001
0000
0010
0000
0100
0000
,  // measure 54
1000
0010
0000
0100
0010
0000
1000
0010
0000
0100
0010
0000
1000
0000
0001
0000
,  // measure 55
0100
0001
0000
0100
0010
0000
0100
0001
0000
0100
0010
0000
1000
0000
0001
0000
,  // measure 56
0101
0000
1100
0000
0101
0010
0100
0000
,  // measure 57
2002
0000
0000
0000
,  // measure 58
3003
0000
0000
0000
;

//---------------dance-single - ----------------
#NOTES:
     dance-single:
     :
     Medium:
     5:
     0.343,0.409,0.064,0.210,0.000:
0001
0001
0001
0001
,
1000
1000
1000
1000
,
0001
0001
0001
0001
,
0010
0100
1000
0001
,
0200
0000
0000
0000
,
0320
0000
0000
0000
,
0230
0000
0301
0010
,
0100
0000
0000
0000
,
2002
0000
0000
0000
,
3003
0000
0000
0000
,
1001
0100
0010
0001
,
1000
1000
0001
0001
,
0010
0100
1000
0010
,
0100
0100
0001
0001
,
0010
0100
1000
0010
,
0100
0100
0001
0001
,
1000
0100
0010
0001
,
1000
1000
0001
0001
,
0200
0020
0000
0000
,
0000
0000
0330
0000
,
0100
1000
0100
1000
0100
1000
0100
0000
,
0010
0001
0010
0001
0010
0001
0010
0000
,
0001
1000
0001
1000
0001
1000
0001
0000
,
1000
0001
1000
0001
1000
0001
1000
0000
,
0010
1000
0010
1000
0010
1000
0010
0000
,
0100
0001
0100
0001
0100
0001
0100
0000
,
0010
0100
0010
0100
0010
0100
0010
0000
,
1000
0100
0010
0001
1000
0100
0010
0001
,
2000
0000
0000
0000
,
0000
0000
3000
0000
,
1001
2000
3002
0000
,
1000
2003
0000
0000
,
3002
0000
1003
0000
,
0002
0000
0000
0000
,
1003
0100
1000
0000
0001
0010
0001
0000
,
1000
0010
1000
0002
0000
0000
0000
0103
,
0010
0100
0001
2000
0000
0000
3001
0010
,
0200
0000
0320
0000
,
0031
1000
0001
1000
0001
0000
0000
0000
,
1001
0000
0000
0001
1000
0000
0100
1000
,
0001
0000
0000
1000
0001
0100
0100
0000
,
0001
0010
0100
0000
1000
0001
1000
0000
,
1000
0100
0010
0000
0001
1000
0001
1000
,
0001
0000
0000
1000
0001
0000
0010
0100
,
1000
0000
0010
0100
0010
1000
0100
0000
,
1000
0100
0010
0000
0001
1000
0001
0000
,
1000
0001
1000
0001
1000
0100
0010
0001
,
2000
0100
0001
0100
,
3002
0100
1000
0103
,
2000
0010
0001
0010
,
3002
0010
1000
0013
,
0200
1000
0010
1000
,
0010
1000
0010
1300
,
0020
0001
0100
0001
,
0100
0001
0100
0031
,
1001
0000
1001
0000
0010
0100
0010
0000
,
1001
0000
0000
0000
;

//---------------dance-single - ----------------
#NOTES:
     dance-single:
     :
     Hard:
     8:
     0.473,0.461,0.101,0.164,0.265:
2000
0000
0000
0001
0000
0000
0001
0000
0000
0001
0000
0000
3001
0000
0000
0000
,
0002
0000
0000
1000
0000
0000
1000
0000
0000
1000
0000
0000
1003
0000
0000
0000
,
2000
0000
0000
0001
0000
0000
0001
0000
0000
0001
0000
0000
3001
0000
0000
0000
,
0101
0110
0101
1100
,
1001
0000
1000
0001
0100
0000
0000
0001
,
0010
0100
2000
0000
0000
0000
3000
0010
,
0100
0000
0000
0001
1000
0000
0020
0000
,
0200
0000
0000
0330
,
2002
0000
0000
0000
,
3003
0000
2000
0000
,
3001
0000
0000
0001
0100
0000
0000
0000
0010
0000
1000
0000
0100
0000
0010
0000
,
0100
0000
0000
1000
0010
0000
0000
0000
0100
0000
0001
0000
0010
0000
0100
0000
,
0010
0000
0000
0001
1000
0000
0000
0000
0100
0000
0010
0000
0001
0000
1000
0000
,
0010
0000
0000
1000
0001
0000
0000
0000
0010
0000
0100
0000
1000
0000
0001
0000
,
0100
0000
0000
0001
1000
0000
0000
1000
0100
0000
0000
0100
0001
0000
0010
0000
,
0100
0000
0000
1000
0001
0000
0000
0001
0100
0000
0000
0100
1000
0000
0100
0000
,
0010
0000
0000
0001
1000
0000
0000
1000
0100
0000
0000
0100
0001
0000
0010
0000
,
0100
0000
0000
1000
0001
0000
0000
0001
0100
0000
0000
0100
1000
0000
0100
0000
,
0010
1002
0000
1000
,
0000
0000
1000
0000
0000
1000
1003
0000
,
1000
0010
0000
0000
1000
0001
0000
0000
0010
0000
0100
0000
1000
0000
0000
0000
,
0001
0100
0000
0000
0001
1000
0000
0000
0100
0000
0010
0000
0001
0000
0000
0000
,
1000
0100
0000
0000
1000
0001
0000
0000
0010
0000
0100
0000
1000
0000
0000
0000
,
0001
0010
0000
0000
0001
1000
0000
0000
0100
0000
0010
0000
0001
0000
0000
0000
,
0100
0010
0000
0000
1000
0001
0000
0000
0010
0000
0100
0000
1000
0000
0000
0000
,
0010
0100
0000
0000
0001
1000
0000
0000
0100
0000
0010
0000
0001
0000
0000
0000
,
1000
0100
0000
0000
0100
0001
0000
0000
0001
0100
0000
0000
0100
1000
0000
0000
,
0001
0100
0000
0010
0000
0100
0000
0001
0000
1000
0000
0100
0000
1000
0001
0000
,
0200
0000
0000
0000
,
0000
0000
0000
0300
,
1001
0000
0001
1000
0010
0000
0000
1000
,
0100
0010
0002
0000
0000
0000
0000
0103
,
0020
0000
0000
1030
0001
0000
0100
0001
,
2000
0000
0000
0000
,
3001
0100
1000
0100
0001
0010
0100
1000
,
0001
0100
0001
1000
0100
0000
1000
0100
,
1000
0001
0100
0001
1000
0000
0100
0010
,
0002
0000
0000
0103
0020
0000
0000
1030
,
0001
0000
0010
0000
0100
0000
1000
0000
0001
0000
0000
0001
0000
0000
0001
0000
,
1000
0000
0000
0000
0000
0000
0010
0100
0020
0000
0000
0000
1030
0000
0100
0000
,
0010
0000
0000
0001
0100
0000
0000
0000
0010
0000
1000
0000
1000
0000
0001
0000
,
0001
0000
0100
0001
0100
0000
0001
0000
0010
0000
0100
0000
1000
0000
0000
0000
,
0001
0000
0000
0001
0100
0000
0000
0100
1000
0000
0000
1000
0001
0000
0010
0000
,
0100
0000
0000
0000
0000
0000
1000
0001
2000
0000
0000
0000
3001
0000
0010
0000
,
0100
0000
0000
1000
0010
0000
0000
0000
0100
0000
0001
0000
0001
0000
1000
0000
,
1000
0000
0010
1000
0010
0000
1000
0000
0100
0000
0010
0000
0001
0000
0000
0000
,
1000
0000
0000
1000
0100
0000
0000
0100
0001
0000
0000
0001
1000
0000
0100
0000
,
0010
0001
0010
1000
0010
0001
1000
0100
,
0001
0100
1000
0001
0100
0010
0100
0000
,
0001
0010
1000
0010
0001
1000
0100
0001
,
0100
1000
0001
1000
0010
0100
0010
0000
,
1000
0010
0001
0010
1000
0001
0100
1000
,
0100
0001
1000
0001
0100
0010
0100
0000
,
0001
0100
1000
0100
0001
0010
1000
0010
,
0001
1000
0010
0100
0010
1000
0001
0000
,
0011
0000
1010
0000
0100
0100
0100
0000
,
1001
0000
0000
0000
;

//---------------dance-single - ----------------
#NOTES:
     dance-single:
     :
     Beginner:
     1:
     0.074,0.102,0.082,0.000,0.000:
1000
0000
0000
0000
,
0000
0000
0000
0000
,
0001
0000
0000
0000
,
0000
0000
0000
0000
,
1001
0000
0000
0000
,
0000
0000
0000
0000
,
0001
0000
0000
0000
,
0000
0000
0000
0000
,
0001
0000
0000
0000
,
0000
0000
0000
0000
,
1001
0000
0000
0000
,
0010
0000
0000
0000
,
0001
0000
0000
0000
,
0010
0000
0000
0000
,
0100
0000
0000
0000
,
1000
0000
0000
0000
,
0100
0000
0000
0000
,
1000
0000
0000
0000
,
0001
0000
0000
0000
,
0000
0000
0000
0000
,
1001
0000
0000
0000
,
1000
0000
0000
0000
,
0001
0000
0000
0000
,
1000
0000
0000
0000
,
0001
0000
0000
0000
,
1000
0000
0000
0000
,
1000
0000
0000
0000
,
1000
0000
0000
0000
,
0000
0000
0000
0000
,
0000
0000
0000
0000
,
1001
0000
0000
0000
,
0000
0000
0000
0000
,
0100
0000
0000
0000
,
0000
0000
0000
0000
,
0100
0000
0000
0000
,
1001
0000
0000
0000
,
0001
0000
0000
0000
,
0001
0000
0000
0000
,
0001
0000
0000
0000
,
1001
0000
0000
0000
,
0000
0000
0000
0000
,
0001
0000
0001
0000
,
0001
0000
0000
0000
,
1001
0000
0000
0000
,
1000
0000
0000
0000
,
0001
0000
0001
0000
,
0001
0000
0000
0000
,
1001
0000
0000
0000
,
0001
0000
0000
0000
,
1000
0000
0000
0000
,
0100
0000
0000
0000
,
0010
0000
0000
0000
,
0001
0000
0000
0000
,
1000
0000
0000
0000
,
0001
0000
0000
0000
,
0001
0000
0000
0000
,
1001
0000
0000
0000
;
