#TITLE:いいひと;
#SUBTITLE:;
#ARTIST:岡めぐみ;
#TITLETRANSLIT:IIHITO;
#SUBTITLETRANSLIT:;
#ARTISTTRANSLIT:MEGUMI OKA;
#CREDIT:DigiMindAxel;
#BANNER:IIHITO.png;
#BACKGROUND:IIHITO-bg.png;
#LYRICSPATH:IIHITO.lrc;
#CDTITLE:pop'n music.png;
#MUSIC:IIHITO.mp3;
#OFFSET:-8.600;
#SAMPLESTART:81.930;
#SAMPLELENGTH:12.000;
#SELECTABLE:YES;
#BPMS:0.000=130.010;
#STOPS:;
#BGCHANGES:;

//---------------dance-single - ----------------
#NOTES:
     dance-single:
     :
     Easy:
     2:
     0.184,0.232,0.064,0.177,0.000: // measure 1
1000
0000
1000
0000
,  // measure 2
0001
0000
0001
0000
,  // measure 3
0200
0000
0000
0000
,  // measure 4
0320
0000
0000
0000
,  // measure 5
1030
0000
0001
0000
,  // measure 6
1000
0000
0001
0000
,  // measure 7
2000
0000
0000
0000
,  // measure 8
3002
0000
1000
0000
,  // measure 9
1003
0100
1000
0000
,  // measure 10
0001
0100
0001
0000
,  // measure 11
1000
0100
1000
0000
,  // measure 12
0001
0100
0001
0000
,  // measure 13
0100
0001
0100
0000
,  // measure 14
0010
1000
0100
0000
,  // measure 15
0010
0001
0100
0000
,  // measure 16
0010
1000
0010
0000
,  // measure 17
2000
0000
0000
0000
,  // measure 18
3002
0000
0000
0000
,  // measure 19
0203
0000
0000
0000
,  // measure 20
0302
0000
0000
0000
,  // measure 21
2003
0000
0000
0000
,  // measure 22
3200
0000
0000
0000
,  // measure 23
2300
0000
0000
0000
,  // measure 24
3001
0001
0002
0000
,  // measure 25
1003
0001
1000
0000
,  // measure 26
0010
1000
0001
0000
,  // measure 27
0001
1000
0001
0000
,  // measure 28
0100
0001
1000
0000
,  // measure 29
1000
0001
1000
0000
,  // measure 30
0010
0100
0010
0000
,  // measure 31
1000
0010
1000
0000
,  // measure 32
0001
0010
0100
1000
,  // measure 33
0002
0000
0000
0000
,  // measure 34
1000
0000
0000
0000
,  // measure 35
2003
0000
0000
0000
,  // measure 36
0001
0000
0000
0000
,  // measure 37
3001
0000
0100
0000
,  // measure 38
0010
0000
1000
0000
,  // measure 39
0100
0000
0010
0000
,  // measure 40
1001
0000
1001
0000
,  // measure 41
2002
0000
0000
3003
,  // measure 42
0100
0001
1000
0000
,  // measure 43
0010
0100
0110
0000
,  // measure 44
0010
1000
0001
0000
,  // measure 45
1000
0001
1000
0000
,  // measure 46
0010
0100
0010
1000
,  // measure 47
0002
0000
2003
0000
,  // measure 48
3001
0010
0100
1000
,  // measure 49
2002
0000
0000
3003
,  // measure 50
0010
1000
0001
0000
,  // measure 51
0100
0010
0110
0000
,  // measure 52
0100
0001
1000
0000
,  // measure 53
1001
1001
0000
1000
,  // measure 54
0001
1000
0100
0000
,  // measure 55
1000
0100
0010
0001
,  // measure 56
1000
0000
0000
0000
0020
0000
0000
0200
,  // measure 57
0000
0000
0000
0000
,  // measure 58
0000
0000
0330
0000
;

//---------------dance-single - ----------------
#NOTES:
     dance-single:
     :
     Medium:
     5:
     0.341,0.324,0.129,0.250,0.020: // measure 1
0002
0000
0203
0000
,  // measure 2
0302
0000
2003
0000
,  // measure 3
3020
0000
0000
0000
,  // measure 4
0130
0000
0000
0000
0100
0000
0000
0000
0100
0000
0000
0100
0000
0000
0000
0000
,  // measure 5
2001
0000
3020
0000
,  // measure 6
2030
0000
3002
0000
,  // measure 7
0103
0100
0100
0100
,  // measure 8
0010
0010
0010
1000
,  // measure 9
0001
0100
0001
0000
1000
0100
1000
0000
,  // measure 10
0001
0100
0001
0000
1000
0100
1000
0000
,  // measure 11
0002
1000
1000
1003
,  // measure 12
0020
0000
0100
0000
0100
0000
0130
0001
,  // measure 13
1000
0010
1000
0000
0001
0010
0001
0000
,  // measure 14
1000
0010
1000
0000
0001
0010
0001
0000
,  // measure 15
2000
0001
0001
3001
,  // measure 16
0200
0000
0000
0000
0010
0000
0000
0000
0310
0000
0000
0100
0000
0000
0000
0000
,  // measure 17
0001
0100
1000
0100
,  // measure 18
0020
0100
0100
0130
,  // measure 19
1000
0010
0001
0010
,  // measure 20
0200
0010
0010
0310
,  // measure 21
1000
0100
0001
0100
,  // measure 22
0010
1000
0001
0000
0100
0010
0100
0000
,  // measure 23
0001
0010
1000
0010
,  // measure 24
0100
1000
0001
0000
0100
0010
0100
0000
,  // measure 25
1001
1000
0200
1300
,  // measure 26
0001
0010
0100
0000
0010
0100
0010
0000
,  // measure 27
0002
1000
1003
0001
,  // measure 28
0100
0000
0010
0000
1000
0100
1000
0100
,  // measure 29
0010
1001
0200
0301
,  // measure 30
1000
0100
0010
0000
0100
0010
0100
0000
,  // measure 31
2000
0001
3001
1000
,  // measure 32
0010
0000
0100
0000
0001
0010
0100
1000
,  // measure 33
0020
0000
0000
0000
1000
0000
0000
0000
0000
0000
1030
0000
0000
0001
0000
0000
,  // measure 34
0002
0000
0000
0000
1003
0000
0000
0001
,  // measure 35
0200
0000
0000
0000
0000
0000
0000
0000
0000
0000
0301
0000
0000
1000
0000
0000
,  // measure 36
2000
0000
3001
0000
,  // measure 37
1010
0000
0100
0000
0100
0000
0001
1000
,  // measure 38
0100
0000
1000
0100
1000
0100
0010
0000
,  // measure 39
0101
0000
0010
0000
0010
1000
0001
0000
,  // measure 40
1000
0001
0000
0000
0001
1000
0000
0000
,  // measure 41
1001
0100
0001
1100
,  // measure 42
0010
0001
0010
0000
0001
0010
0100
0000
,  // measure 43
2000
0100
3001
0011
,  // measure 44
0100
1000
0100
0000
1000
0100
0010
0000
,  // measure 45
1001
0002
0100
1003
,  // measure 46
0001
0010
0100
0000
0010
0100
0010
0100
,  // measure 47
1000
1001
0100
1001
,  // measure 48
1000
0100
0010
0001
0200
0000
0000
0300
,  // measure 49
1001
0010
1000
0011
,  // measure 50
0100
1000
0100
0000
1000
0100
0010
0000
,  // measure 51
0002
0010
1003
1100
,  // measure 52
0010
0001
0100
0010
0200
0000
0000
0300
,  // measure 53
1001
2000
0100
3001
,  // measure 54
1000
0100
0010
0000
0100
0010
0100
0010
,  // measure 55
0001
0010
1000
0010
,  // measure 56
0001
0000
0000
0000
0000
0000
0100
0000
0010
0000
0000
0010
0000
0000
0220
0000
,  // measure 57
0000
0000
0000
0000
,  // measure 58
0000
0000
0330
0000
;

//---------------dance-single - ----------------
#NOTES:
     dance-single:
     :
     Hard:
     6:
     0.410,0.394,0.169,0.217,0.137: // measure 1
1000
0001
0100
1000
,  // measure 2
0100
0000
0001
0000
0100
0000
0010
1000
,  // measure 3
0002
1000
1000
1003
,  // measure 4
1000
0000
0001
0000
0000
0000
0001
0000
0100
0000
0000
0100
0000
0000
0100
0000
,  // measure 5
0001
0000
0000
0001
0100
0000
0000
0000
0100
0000
0000
0100
1000
0000
0000
0000
,  // measure 6
1000
0000
0000
1000
0010
0000
0000
0000
0010
0000
0000
0010
0001
0000
0000
0000
,  // measure 7
2000
0001
0001
3001
,  // measure 8
1000
0001
0100
0000
0200
0000
0000
0000
,  // measure 9
0301
1000
0100
0010
0000
0010
0100
1000
,  // measure 10
0000
0000
0100
0000
0010
0000
0001
0000
0000
0000
0001
0000
0100
0000
0010
0200
,  // measure 11
0000
0001
0000
0001
0000
0001
0000
0301
,  // measure 12
2000
0010
0000
0010
0000
3010
1000
0100
,  // measure 13
0010
0001
0100
0010
0000
0010
0100
0001
,  // measure 14
0000
0000
0010
0000
0100
0000
1000
0000
0000
0000
1000
0000
0010
0000
0100
0020
,  // measure 15
0000
1000
0000
1000
0000
1030
0002
0100
,  // measure 16
0000
0000
0100
0000
0000
0000
0103
0000
0001
0000
0000
1001
0000
0000
0001
0000
,  // measure 17
2000
0100
0000
0100
,  // measure 18
0000
0000
3001
0000
0000
0100
0000
0000
0010
0000
0000
1000
0000
0000
1000
0000
,  // measure 19
0002
0100
0000
0100
,  // measure 20
0000
0000
1003
0000
0000
0100
0000
0000
0010
0000
0000
0001
0000
0000
0001
0000
,  // measure 21
2000
0100
0000
0100
,  // measure 22
0000
0000
3001
0000
0000
0010
0000
0000
0100
0000
0000
1000
0000
0000
1000
0000
,  // measure 23
0002
0000
0100
0000
0000
1003
0100
0001
,  // measure 24
0000
0000
0100
0000
1000
0000
0001
0000
1000
0010
0000
0100
0001
0000
1000
0001
,  // measure 25
1000
0100
0001
0100
2000
0000
3001
0000
,  // measure 26
0000
0000
0100
0000
0000
0110
0000
0000
0010
0000
1000
0000
0100
0000
0001
0000
,  // measure 27
0200
0000
1300
0000
0001
0100
0001
1000
,  // measure 28
0000
0000
0010
0000
0000
0110
0000
0000
0010
0000
0100
0000
0010
1000
0000
0001
,  // measure 29
0000
1000
1001
0000
0002
0000
1003
0000
,  // measure 30
1000
0000
0001
0000
0100
0001
0000
0000
0100
0000
0001
0000
0010
0000
1000
0000
,  // measure 31
0020
0000
1030
0000
1000
0001
0100
0001
,  // measure 32
0100
1000
0100
0000
1000
0100
0010
0001
,  // measure 33
0100
0000
0000
0000
1100
0000
0000
0000
0000
0000
1000
0000
0000
0100
0000
0000
,  // measure 34
0010
0000
0000
0001
0000
0000
0100
0000
0010
0000
0000
1000
0010
0000
0000
0000
,  // measure 35
1001
0000
0000
0000
0000
0000
0000
0000
0000
0000
0001
0000
0000
0100
0000
0000
,  // measure 36
0010
0000
0000
1000
0000
0000
0010
0000
0100
0000
0000
0001
0100
0000
0000
0000
,  // measure 37
1001
0000
0020
0000
1030
0000
0010
1000
,  // measure 38
0001
0000
0000
0001
0000
0000
0001
0000
1000
0000
0100
0000
0010
0000
0001
0000
,  // measure 39
0200
0000
0301
1000
0100
0000
1000
0100
,  // measure 40
0010
0110
0000
0000
0001
1001
0000
0000
,  // measure 41
1200
0000
0301
0000
0100
1000
0001
0100
,  // measure 42
0001
0100
1000
0000
0100
0010
0100
0000
,  // measure 43
1001
0000
1200
0000
0301
0000
0100
1000
,  // measure 44
0100
0001
0100
0000
0010
1000
0001
0000
,  // measure 45
1001
0000
0201
0000
1300
0000
0100
0001
,  // measure 46
1000
0000
0000
0100
0000
0000
0001
0000
0000
0000
0100
0000
1000
0000
0100
0000
,  // measure 47
0010
0000
0001
0100
0000
1000
0000
0100
,  // measure 48
0001
0000
0010
0000
0100
0000
1000
0000
0010
0000
0000
1010
0000
0000
1000
0000
,  // measure 49
0200
0000
0301
0000
0100
1000
0001
0100
,  // measure 50
0001
0100
1000
0000
0100
0010
0100
0000
,  // measure 51
1001
0201
1300
1100
,  // measure 52
0010
0000
0001
0000
0100
0000
1000
0000
0100
0000
0000
0101
0000
0000
0001
0000
,  // measure 53
0200
0000
1300
0000
0100
0001
1000
0100
,  // measure 54
1000
0000
0000
0100
0000
0000
0001
0000
0000
0000
0100
0000
1000
0000
0001
0000
,  // measure 55
0200
0000
0310
0000
2000
0000
3001
1000
,  // measure 56
0100
0000
0000
0000
0001
0000
0010
0000
0100
0000
0000
1100
0000
0000
0202
0000
,  // measure 57
0000
0000
0000
0000
,  // measure 58
0000
0000
0303
0000
;

//---------------dance-single - ----------------
#NOTES:
     dance-single:
     :
     Beginner:
     1:
     0.064,0.113,0.048,0.000,0.000: // measure 1
1000
0000
0000
0000
,  // measure 2
0001
0000
0000
0000
,  // measure 3
1000
0000
0000
0000
,  // measure 4
1000
0000
0000
0000
,  // measure 5
0001
0000
0000
0000
,  // measure 6
1000
0000
0000
0000
,  // measure 7
0001
0000
0000
0000
,  // measure 8
0001
0000
0000
0000
,  // measure 9
1001
0000
0000
0000
,  // measure 10
1000
0000
0000
0000
,  // measure 11
0001
0000
0000
0000
,  // measure 12
1000
0000
0000
0000
,  // measure 13
0010
0000
0000
0000
,  // measure 14
0100
0000
0000
0000
,  // measure 15
0010
0000
0000
0000
,  // measure 16
0010
0000
0000
0000
,  // measure 17
1000
0000
0000
0000
,  // measure 18
0000
0000
0000
0000
,  // measure 19
0001
0000
0000
0000
,  // measure 20
0000
0000
0000
0000
,  // measure 21
1000
0000
0000
0000
,  // measure 22
0000
0000
0000
0000
,  // measure 23
0001
0000
0000
0000
,  // measure 24
1000
0000
0000
0000
,  // measure 25
1001
0000
0000
0000
,  // measure 26
1000
0000
0000
0000
,  // measure 27
0001
0000
0000
0000
,  // measure 28
1000
0000
0000
0000
,  // measure 29
1000
0000
0000
0000
,  // measure 30
0001
0000
0000
0000
,  // measure 31
0001
0000
0000
0000
,  // measure 32
1000
0000
0000
0000
,  // measure 33
1001
0000
0000
0000
,  // measure 34
0000
0000
0000
0000
,  // measure 35
0001
0000
0000
0000
,  // measure 36
0000
0000
0000
0000
,  // measure 37
1000
0000
0000
0000
,  // measure 38
0000
0000
0000
0000
,  // measure 39
0001
0000
0000
0000
,  // measure 40
1001
0000
0000
0000
,  // measure 41
1001
0000
0000
0000
,  // measure 42
0100
0000
0000
0000
,  // measure 43
0010
0000
0000
0000
,  // measure 44
0100
0000
0000
0000
,  // measure 45
0100
0000
0000
0000
,  // measure 46
0010
0000
0000
0000
,  // measure 47
0010
0000
0000
0000
,  // measure 48
0000
0000
0000
0000
,  // measure 49
1000
0000
0000
0000
,  // measure 50
0001
0000
0000
0000
,  // measure 51
1000
0000
0000
0000
,  // measure 52
1000
0000
0000
0000
,  // measure 53
1001
0000
0000
0000
,  // measure 54
0001
0000
0000
0000
,  // measure 55
1000
0000
0000
0000
,  // measure 56
0001
0000
0000
0000
0000
0000
0000
0001
;

//---------------dance-single - ----------------
#NOTES:
     dance-single:
     :
     Challenge:
     7:
     0.514,0.493,0.362,0.226,0.213: // measure 1
0102
1003
2100
3001
,  // measure 2
0120
0000
1030
0000
0210
0000
0301
1000
,  // measure 3
0200
0010
1000
0010
,  // measure 4
1300
0000
0001
0000
0000
0000
0001
0000
0100
0000
0000
0110
0000
0000
0110
0000
,  // measure 5
1000
0000
0000
1000
0001
0000
0010
0000
0001
0000
0000
0010
0100
0000
1000
0000
,  // measure 6
0001
0000
0000
1000
0001
0000
0100
0000
0001
1000
0000
1000
0100
0000
1000
0000
,  // measure 7
0020
0100
1000
0100
,  // measure 8
1030
0000
0001
0000
0010
0000
0000
0000
0100
0000
0000
0010
0000
0000
0001
0000
,  // measure 9
1000
0100
0001
0100
0000
1000
0010
0001
,  // measure 10
0000
0000
0001
0000
0010
0000
1000
0000
0000
0000
0010
0000
1000
0000
0001
0010
,  // measure 11
0001
0010
1000
0010
0000
0001
0100
1000
,  // measure 12
0000
0000
1000
0000
0100
0000
0001
0000
0000
0000
0100
0000
0001
1000
0001
1000
,  // measure 13
0001
0100
1000
0100
0000
0001
0010
1000
,  // measure 14
0000
0000
1000
0000
0010
0000
0001
0000
0000
0000
0010
0000
0001
0000
1000
0010
,  // measure 15
1000
0010
0001
0010
0000
1000
0100
0001
,  // measure 16
0000
0000
0001
0000
0100
0000
1000
0000
0001
0000
0000
1001
0000
0000
1000
0000
,  // measure 17
1000
0100
0010
0000
0001
0010
0100
0000
,  // measure 18
0010
0000
0002
0000
0000
0100
0000
0000
0010
0000
0000
0103
0000
0000
0001
0000
,  // measure 19
0001
0010
0100
0000
1000
0100
0010
0000
,  // measure 20
0001
0000
2000
0000
0000
0010
0000
0000
0100
0000
0000
3010
0000
0000
1000
0000
,  // measure 21
1000
0001
0010
0000
0100
0010
0001
0000
,  // measure 22
1000
0000
0020
0000
0000
0100
0000
0000
1000
0000
0000
0130
0000
0000
0001
0000
,  // measure 23
0001
1000
0100
0000
0010
0100
1000
0001
,  // measure 24
0100
0010
0000
0010
0100
0000
0001
0000
1000
0010
0000
0010
0100
0000
0001
1000
,  // measure 25
0001
1000
0100
0001
0200
0000
1300
0000
,  // measure 26
0000
0000
0110
0000
0000
0110
0000
0000
0100
0001
0000
0001
0010
0000
0100
0000
,  // measure 27
1000
0010
0100
0000
0001
0010
0100
2000
,  // measure 28
0000
0000
3200
0000
0000
0000
0310
0000
0100
0000
0100
0000
1000
0010
0000
0200
,  // measure 29
0000
0301
0101
0000
1000
0100
0001
0100
,  // measure 30
0000
0000
1001
0000
0000
1001
0000
0000
0001
1000
0000
1000
0100
0000
0010
0000
,  // measure 31
0001
0000
1000
0001
0010
1000
0010
0002
,  // measure 32
0000
0103
0010
0010
1000
0100
0001
0010
,  // measure 33
1000
0000
0000
0000
2002
0000
3003
0000
0000
0000
0100
0000
0000
0101
0000
0000
,  // measure 34
0100
0000
0000
1100
0000
0000
0100
0000
1000
0001
0000
0001
0100
0000
0000
0000
,  // measure 35
2002
0000
3003
0000
0001
0000
0001
0000
1000
0000
0100
0000
0000
1100
0000
0000
,  // measure 36
0100
0000
0000
0101
0000
0000
0100
0000
0001
1000
0000
1000
0100
0000
0000
0000
,  // measure 37
1001
0000
1000
0100
0001
0100
1000
0001
,  // measure 38
0100
0000
0000
0110
0000
0000
0100
0000
0001
1000
0000
1000
0010
0000
0100
0000
,  // measure 39
0001
0010
1000
0010
0001
0100
0010
0100
,  // measure 40
0101
0000
0101
0000
0000
0000
0000
0000
1100
0000
1100
0000
0001
1000
0001
1000
,  // measure 41
0001
0010
0011
0000
0010
0001
0101
0000
,  // measure 42
0001
0000
1000
0000
0100
0000
0001
0000
0100
0000
0010
0000
0001
0000
1000
0010
,  // measure 43
1000
0010
1010
0000
0010
1000
1100
0000
,  // measure 44
0010
0000
0100
0000
1000
0000
0100
0000
0010
0001
0000
0001
0100
0000
0001
1000
,  // measure 45
0001
0010
0110
0000
0100
0001
0011
0000
,  // measure 46
0001
1000
0010
0001
0010
1000
0001
0000
,  // measure 47
2000
0000
3001
0200
0000
2300
0000
3200
,  // measure 48
0000
0000
0301
0000
0010
0000
0100
0000
1100
0000
0000
0110
0000
0000
0011
0000
,  // measure 49
0010
0100
0110
0000
0010
1000
1100
0000
,  // measure 50
1000
0000
0001
0000
0001
0000
0100
0000
1000
0000
0100
0000
0010
0000
1000
0001
,  // measure 51
1000
0100
0110
0000
0100
0001
0011
0000
,  // measure 52
0001
0000
1000
0000
0010
0000
0100
0000
0101
0000
0000
0110
0000
0000
1010
0000
,  // measure 53
0010
0100
0110
0000
0100
0001
0101
0000
,  // measure 54
0010
0000
1000
0000
0100
0000
0001
0000
0100
0000
1000
0000
0001
0000
0010
0100
,  // measure 55
0020
0000
0031
0200
0000
2300
0000
3200
,  // measure 56
0000
0000
0301
0000
1000
0000
0010
0000
0110
0000
0000
0110
0000
0000
2002
0000
,  // measure 57
0000
0000
0000
0000
,  // measure 58
0000
0000
0000
0000
,  // measure 59
0000
3003
0000
0000
;
