#TITLE:I'm Screaming LOVE;
#SUBTITLE:;
#ARTIST:Creative Life;
#TITLETRANSLIT:;
#SUBTITLETRANSLIT:;
#ARTISTTRANSLIT:;
#CREDIT:DigiMindAxel;
#BANNER:I'm Screaming LOVE.png;
#BACKGROUND:I'm Screaming LOVE-bg.png;
#LYRICSPATH:I'm Screaming LOVE.lrc;
#CDTITLE:beatmaniaIIDX.png;
#MUSIC:I'm Screaming LOVE.mp3;
#OFFSET:-6.940;
#SAMPLESTART:65.080;
#SAMPLELENGTH:12.000;
#SELECTABLE:YES;
#BPMS:0.000=147.000;
#STOPS:;
#BGCHANGES:-20.000=I'm Screaming LOVE.avi=1.000=1=1=0,
99999=-nosongbg-=1.000=0=0=0 // don't automatically add -songbackground-
;

//---------------dance-single - ----------------
#NOTES:
     dance-single:
     :
     Hard:
     7:
     0.500,0.477,0.264,0.379,0.022: // measure 1
2010
0000
3002
0000
0203
0000
0301
1000
,  // measure 2
0001
0000
0100
0010
0100
0000
0001
0000
,  // measure 3
1002
0000
0100
0000
0203
0000
0300
0002
,  // measure 4
2000
0000
3003
0010
,  // measure 5
0012
0000
2003
0000
3020
0000
1030
0001
,  // measure 6
1000
0000
0010
0100
0010
0000
1000
0000
,  // measure 7
2001
0000
0010
0000
3020
0000
0030
2000
,  // measure 8
0002
3000
1003
1001
,  // measure 9
0001
0100
0001
0100
0001
0010
0100
2000
,  // measure 10
0000
0010
3010
0000
0000
0100
0001
2000
,  // measure 11
0000
3010
0100
0010
1000
0100
0010
0002
,  // measure 12
0000
0000
0003
0000
1001
0000
0100
0010
,  // measure 13
1000
0100
0010
0001
0100
0001
1000
0200
,  // measure 14
0000
1000
1300
0000
0000
0000
1001
0000
,  // measure 15
0000
1000
0001
0100
0001
0010
0100
2000
,  // measure 16
0000
0001
3001
0000
1000
0000
1001
0000
,  // measure 17
0012
0000
1000
1003
0000
0020
0200
0000
,  // measure 18
0000
0000
0330
0000
0000
0000
1000
0000
0001
0000
0000
0001
0000
0000
0100
0000
,  // measure 19
0020
1000
0000
1000
,  // measure 20
0000
1030
0001
1000
,  // measure 21
0100
0010
0001
0010
0100
0000
0000
0000
,  // measure 22
1100
0000
0000
0000
1000
1000
0001
0001
,  // measure 23
0010
0100
1000
0100
0010
0000
0000
0000
,  // measure 24
0011
0000
0000
0000
0001
0001
1000
1000
,  // measure 25
0100
0010
0001
0010
0100
0000
0000
0000
,  // measure 26
1010
0000
0000
0000
1000
1000
0001
0001
,  // measure 27
0100
0000
0010
0100
0000
0001
0000
2002
,  // measure 28
0000
0000
3003
1100
,  // measure 29
0001
0100
0001
0100
0001
1000
0100
0000
,  // measure 30
1000
0100
1000
0100
1000
0001
0100
0000
,  // measure 31
0001
0010
0100
0010
0001
1000
0100
0010
,  // measure 32
0000
0100
1000
0100
0001
0000
0100
0000
,  // measure 33
1000
0010
0100
0010
1000
0100
0010
0000
,  // measure 34
0001
0100
0010
0100
0001
0010
0100
0000
,  // measure 35
2000
0000
0010
3010
0000
1000
0000
1001
,  // measure 36
0000
0100
0100
0100
0100
0000
0000
0000
,  // measure 37
2010
0000
3002
0000
2003
0000
3001
0010
,  // measure 38
0000
0100
0010
0100
0010
0001
1000
0000
,  // measure 39
0102
0000
2003
0000
3002
0000
1003
0100
,  // measure 40
0000
0010
0100
0010
0100
1000
0001
0000
,  // measure 41
0010
0100
1000
0001
0010
0000
0000
0001
,  // measure 42
1000
0100
0010
0001
1000
0000
0000
0020
,  // measure 43
0000
0000
0130
0000
0001
0100
1000
0100
,  // measure 44
0001
1001
1100
0011
,  // measure 45
0110
0000
1001
0000
0110
0000
1000
0100
,  // measure 46
0000
0010
0100
1000
0010
0100
0010
0000
,  // measure 47
0110
0000
1001
0000
0110
0000
0001
0010
,  // measure 48
0000
0100
0010
0001
0100
0010
0100
0001
,  // measure 49
0010
0000
0001
1000
0100
0010
0001
2000
,  // measure 50
0000
0001
3001
0000
0100
0010
0100
0001
,  // measure 51
0000
1000
0001
0010
0100
1000
0001
0200
,  // measure 52
0000
0010
0310
0000
0110
0000
1001
0000
,  // measure 53
1000
0001
1000
0001
1000
0100
0010
0002
,  // measure 54
0000
0100
0103
0000
0000
0000
0001
0010
,  // measure 55
0100
0000
1001
0000
1000
0100
0010
0002
,  // measure 56
0000
1000
1003
0000
0000
0000
1001
0000
,  // measure 57
0001
0000
0000
0001
0000
0000
0001
0000
0010
0000
0100
0000
1000
0000
0010
0000
,  // measure 58
0100
0000
0010
0000
0000
1000
0000
0000
0100
0000
0000
0010
0000
0000
0001
0000
,  // measure 59
0000
0100
0010
0100
0001
0010
0100
2000
,  // measure 60
0000
0001
3001
0000
0000
0000
0010
0100
,  // measure 61
2000
0000
0001
3001
0000
0200
0020
0000
,  // measure 62
0000
0000
0330
0000
0000
0000
1000
0000
0001
0000
0000
0001
0000
0000
0200
0000
,  // measure 63
0020
0000
0000
0000
,  // measure 64
0000
0000
0000
0000
0000
0330
0000
0000
;

//---------------dance-single - ----------------
#NOTES:
     dance-single:
     :
     Medium:
     4:
     0.295,0.364,0.088,0.115,0.000: // measure 1
1000
0100
0001
0000
,  // measure 2
0100
0000
1000
0000
,  // measure 3
0020
0000
0100
0000
,  // measure 4
0130
0000
0000
0000
,  // measure 5
0001
0100
1000
0000
,  // measure 6
0100
0000
0001
0000
,  // measure 7
0200
0000
0010
0000
,  // measure 8
0310
0000
0000
0000
,  // measure 9
1000
0100
1000
0100
,  // measure 10
0010
0001
0100
0010
,  // measure 11
0100
0001
0100
1000
,  // measure 12
0100
0001
1001
0000
,  // measure 13
0100
0010
0100
0001
,  // measure 14
0010
0100
1000
0010
,  // measure 15
0200
0000
0000
0000
0320
0000
0000
0230
,  // measure 16
0000
0000
0000
0000
0000
0000
0301
0010
,  // measure 17
0100
0000
1000
0100
0000
1000
0100
0000
,  // measure 18
0000
0000
0000
1000
0001
0000
0100
0000
,  // measure 19
1000
0010
0000
0010
,  // measure 20
0000
0010
0100
0010
,  // measure 21
0200
0000
0000
0000
,  // measure 22
0301
0000
1000
0001
,  // measure 23
0200
0000
0000
0000
,  // measure 24
0301
0000
0001
1000
,  // measure 25
0020
0000
1000
0000
,  // measure 26
1030
0000
0001
1000
,  // measure 27
0020
0000
0000
0000
,  // measure 28
1030
0000
0000
0000
,  // measure 29
0001
0010
0100
1000
,  // measure 30
0010
0100
0010
1000
,  // measure 31
0100
0010
0001
0100
,  // measure 32
0020
0000
1030
0000
,  // measure 33
1000
0100
0010
0001
,  // measure 34
0100
0000
0010
0000
0100
0000
0000
0001
,  // measure 35
1000
0000
0010
0100
0000
0001
0000
0001
,  // measure 36
0000
0000
0000
0000
,  // measure 37
1001
0100
1001
0010
,  // measure 38
0100
1000
0001
1000
,  // measure 39
1001
0010
1001
0100
,  // measure 40
0010
0001
1000
0010
,  // measure 41
0100
0001
0100
0001
0100
0000
0000
0000
,  // measure 42
0010
1000
0010
1000
0010
0000
0000
0000
,  // measure 43
1000
0000
0001
0000
0100
0010
1000
0100
,  // measure 44
0000
1000
0100
0000
1000
0000
0000
0000
,  // measure 45
1001
0010
1001
0010
,  // measure 46
0100
0000
1000
0000
0010
0100
0010
0000
,  // measure 47
1001
0100
1001
0100
,  // measure 48
0010
0000
0001
0000
0100
0010
0100
0010
,  // measure 49
0100
0000
0000
0000
0001
1000
0001
1000
,  // measure 50
0001
0000
0000
0000
0100
0010
0100
0010
,  // measure 51
0100
0000
0001
0000
0001
0000
1000
0100
,  // measure 52
0000
1000
0001
0000
0000
0000
0000
0000
,  // measure 53
1000
0100
0010
0001
,  // measure 54
1000
0001
1000
0100
,  // measure 55
0010
0000
0001
0000
0100
0010
0100
0010
,  // measure 56
0000
0100
0100
0000
0000
0000
0000
0000
,  // measure 57
0001
0010
0100
1000
,  // measure 58
0001
1000
0001
0000
1000
0001
1000
0000
,  // measure 59
0000
0010
0100
0000
0001
0000
0010
0000
,  // measure 60
0100
1000
0000
0000
,  // measure 61
0001
0000
1000
0100
0000
1000
0001
0000
,  // measure 62
0000
0000
0000
2000
0000
0000
3001
0000
,  // measure 63
0220
0000
0000
0000
,  // measure 64
0000
0000
0000
0000
0000
0330
0000
0000
;

//---------------dance-single - ----------------
#NOTES:
     dance-single:
     :
     Challenge:
     8:
     0.568,0.533,0.273,0.220,0.145: // measure 1
2100
0000
0001
0000
3001
0000
0100
0001
,  // measure 2
0001
0000
1000
0000
0100
0000
0010
0100
,  // measure 3
0020
0000
0031
0000
0200
0000
1300
0001
,  // measure 4
0002
0000
1000
0000
1003
0100
0010
0001
,  // measure 5
0102
0000
1000
0000
1003
0000
0010
1000
,  // measure 6
1000
0000
0001
0000
0010
0000
0100
0010
,  // measure 7
0200
0000
1300
0000
0020
0000
0031
1000
,  // measure 8
2000
0000
3001
1001
,  // measure 9
1000
0000
0010
1000
0000
0000
0001
0000
0001
0000
0100
0000
0001
0000
0010
0000
,  // measure 10
0100
1000
0010
0000
0100
0001
0010
0001
,  // measure 11
0000
0000
0010
0000
0100
0000
1000
0000
0001
0000
0100
0010
0100
0000
0002
0000
,  // measure 12
0000
0000
1000
0000
1003
0100
0010
0001
,  // measure 13
1000
0000
0010
0100
0010
0000
1000
0000
0001
0000
0010
0000
0100
0000
0001
0000
,  // measure 14
0100
1000
0002
0000
1000
0000
1003
0001
,  // measure 15
0010
0100
1000
0100
0001
0100
1000
0002
,  // measure 16
0000
1000
1003
0000
1000
0000
1100
0000
,  // measure 17
1001
0000
0001
0010
0000
0100
0020
0000
,  // measure 18
0001
0000
0000
0000
0031
0000
1000
0001
1000
0000
0000
0010
0000
0000
0100
0000
,  // measure 19
0002
1000
1000
1003
,  // measure 20
0010
0100
0010
1001
,  // measure 21
0001
0100
1000
0100
0002
0000
0100
0000
,  // measure 22
1003
0000
0001
0000
0100
0100
0010
0010
,  // measure 23
1000
0100
0001
0100
2000
0000
0100
0000
,  // measure 24
3001
0000
1000
0000
0100
0100
0010
0010
,  // measure 25
0001
0100
1000
0100
0002
0000
0100
0000
,  // measure 26
1003
0000
0001
0000
0100
0100
0010
0010
,  // measure 27
1000
0000
0001
0100
0000
1100
0000
1001
,  // measure 28
0000
0010
0100
1000
0001
0000
1001
0000
,  // measure 29
1000
0000
0010
0000
0100
0000
0010
0000
1000
0000
0100
0010
0000
0000
0000
0000
,  // measure 30
0001
0000
0100
0000
0010
0000
0100
0000
0001
0000
0010
0100
0000
0000
0000
0000
,  // measure 31
1000
0100
0001
0100
1000
0001
0100
0020
,  // measure 32
0000
1030
0100
0010
0001
1000
0001
0000
,  // measure 33
1000
0000
0100
0000
0010
0000
0100
0000
1000
0000
0001
0100
0000
0000
0000
0000
,  // measure 34
0001
0000
0010
0000
0100
0000
0010
0000
0001
0000
1000
0100
0000
0000
1000
0000
,  // measure 35
0002
0000
0100
0103
0000
1100
0000
1001
,  // measure 36
0000
1000
1000
0001
0001
1000
0100
0010
,  // measure 37
1010
0000
0110
0000
1001
0000
0001
0100
,  // measure 38
0001
0000
1000
0000
0100
0000
0010
0000
0100
1000
0000
0010
0100
0000
0000
0000
,  // measure 39
0101
0000
0110
0000
1001
0000
1000
0010
,  // measure 40
1000
0000
0001
0000
0010
0000
0100
0000
0010
0001
0000
0100
0010
0000
0000
0000
,  // measure 41
1000
0000
0100
0000
0010
0000
0001
0000
1000
0000
0010
0000
1000
0010
0000
0100
,  // measure 42
0001
0000
0010
0000
0100
0000
1000
0000
0001
0000
0100
0000
0001
0100
0000
0010
,  // measure 43
1000
0100
0001
0000
0100
1000
0001
0010
,  // measure 44
0100
1000
0001
0000
1001
0000
0110
0000
,  // measure 45
0101
0000
0110
0000
1001
0000
0001
0010
,  // measure 46
0100
0000
0001
0000
0100
0000
1000
0000
0010
0100
0000
0010
0100
0000
0000
0000
,  // measure 47
1010
0000
0110
0000
1001
0000
1000
0010
,  // measure 48
0100
0000
1000
0000
0100
0000
0001
0000
0100
0010
0000
0100
0010
0000
1000
0000
,  // measure 49
0100
0000
0000
0000
1000
0000
0100
0000
0001
0000
0100
0000
1000
0010
0000
0100
,  // measure 50
0001
0000
0010
0000
0100
0000
0000
0000
1000
0000
0001
0000
0100
0001
0000
1000
,  // measure 51
0010
1000
0001
0100
1000
0100
0001
0010
,  // measure 52
0100
1000
0010
0000
0110
0000
1001
0000
,  // measure 53
0001
0100
0001
0100
1000
0100
0001
0010
,  // measure 54
0100
1000
0002
0000
1000
0000
1003
0100
,  // measure 55
0001
0000
1100
0000
0001
0010
0100
2000
,  // measure 56
0000
0001
3001
0000
0110
0000
1001
0000
,  // measure 57
1000
0000
0001
0100
0000
0001
0100
0000
1000
0000
0100
0000
0001
0000
0010
0000
,  // measure 58
0100
0000
1000
0000
0001
0010
0000
0001
0010
0000
0100
1000
0000
0100
1000
0000
,  // measure 59
0000
0100
0010
0001
0010
0100
1000
0002
,  // measure 60
0000
0100
0103
0000
1001
0000
0010
0100
,  // measure 61
0002
0000
1003
0100
0000
0010
0200
0000
,  // measure 62
1000
0000
0000
0000
1300
0000
0001
1000
0001
0000
0000
0100
0000
0000
0020
0000
,  // measure 63
0200
0000
0000
0000
,  // measure 64
0000
0000
0000
0000
0000
0330
0000
0000
;

//---------------dance-single - ----------------
#NOTES:
     dance-single:
     :
     Easy:
     2:
     0.167,0.246,0.053,0.123,0.000: // measure 1
1001
0000
0000
0000
,  // measure 2
1000
0000
0000
0000
,  // measure 3
0001
0000
1000
0000
,  // measure 4
0100
0000
0000
0000
,  // measure 5
1001
0000
0000
0000
,  // measure 6
0001
0000
0000
0000
,  // measure 7
1000
0000
0001
0000
,  // measure 8
0100
0000
0000
0000
,  // measure 9
0001
1000
0001
0000
,  // measure 10
1000
0001
1000
0000
,  // measure 11
0010
0100
0010
0000
,  // measure 12
0100
0010
0100
0000
,  // measure 13
1001
0000
0010
0100
,  // measure 14
1000
0000
0100
0010
,  // measure 15
0001
0000
1000
0000
,  // measure 16
0001
0000
0000
0100
,  // measure 17
0020
0000
0000
0130
,  // measure 18
0000
0000
0000
0000
,  // measure 19
1001
0000
0000
0000
,  // measure 20
0000
0000
0000
0000
,  // measure 21
2000
0000
0000
0000
,  // measure 22
3100
0000
0000
0000
,  // measure 23
0020
0000
0000
0000
,  // measure 24
0031
0000
0000
0000
,  // measure 25
0200
0000
0000
0000
,  // measure 26
1300
0000
0000
0000
,  // measure 27
0020
0000
0000
0000
,  // measure 28
0031
0000
0000
0001
,  // measure 29
1000
0000
0000
0000
,  // measure 30
0100
0000
0000
0000
,  // measure 31
1000
0000
0000
0000
,  // measure 32
0001
0000
0000
0000
,  // measure 33
0010
0000
0000
0000
,  // measure 34
0001
0000
0000
0000
,  // measure 35
0100
0000
0000
0000
,  // measure 36
0000
0000
0000
0000
,  // measure 37
0001
1000
0001
0000
,  // measure 38
1000
0000
0001
0000
,  // measure 39
0100
0010
0100
0000
,  // measure 40
0010
0000
0100
0000
,  // measure 41
0001
0010
0100
0000
,  // measure 42
1000
0100
0010
0000
,  // measure 43
0001
0000
1000
0000
,  // measure 44
0001
1000
0001
0000
,  // measure 45
0100
0010
0100
0000
,  // measure 46
0001
0000
1000
0000
,  // measure 47
0001
1000
0001
0000
,  // measure 48
0100
0000
0010
0000
,  // measure 49
2000
0000
3001
0010
,  // measure 50
0001
0000
1000
0100
,  // measure 51
1000
0000
0001
0000
,  // measure 52
1000
0010
0100
0010
,  // measure 53
2000
0000
3002
0000
,  // measure 54
1003
0000
0000
0000
,  // measure 55
0020
0000
0230
0000
,  // measure 56
0310
0000
0000
0000
,  // measure 57
2000
0000
3002
0000
,  // measure 58
1003
0100
0010
0001
,  // measure 59
2000
0000
3002
0000
,  // measure 60
1003
0000
0000
0000
,  // measure 61
1001
0000
0000
0010
,  // measure 62
0000
0000
0010
0000
,  // measure 63
0110
0000
0000
0000
;

//---------------dance-single - ----------------
#NOTES:
     dance-single:
     :
     Beginner:
     1:
     0.064,0.109,0.079,0.000,0.000: // measure 1
1000
0000
0000
0000
,  // measure 2
0000
0000
0000
0000
,  // measure 3
1000
0000
0000
0000
,  // measure 4
0000
0000
0000
0000
,  // measure 5
0001
0000
0000
0000
,  // measure 6
0000
0000
0000
0000
,  // measure 7
0001
0000
0000
0000
,  // measure 8
0000
0000
0000
0000
,  // measure 9
1001
0000
0000
0000
,  // measure 10
0000
0000
0000
0000
,  // measure 11
0100
0000
0000
0000
,  // measure 12
0000
0000
0000
0000
,  // measure 13
0010
0000
0000
0000
,  // measure 14
0000
0000
0000
0000
,  // measure 15
0001
0000
0000
0000
,  // measure 16
0000
0000
0000
0000
,  // measure 17
1001
0000
0000
0000
,  // measure 18
0000
0000
0000
0000
,  // measure 19
1000
0000
0000
0000
,  // measure 20
0000
0000
0000
0000
,  // measure 21
1001
0000
0000
0000
,  // measure 22
0000
0000
0000
0000
,  // measure 23
0010
0000
0000
0000
,  // measure 24
0010
0000
0000
0000
,  // measure 25
0010
0000
0000
0000
,  // measure 26
0010
0000
0000
0000
,  // measure 27
0100
0000
0000
0000
,  // measure 28
0000
0000
0000
0000
,  // measure 29
1001
0000
0000
0000
,  // measure 30
1000
0000
0000
0000
,  // measure 31
0001
0000
0000
0000
,  // measure 32
0000
0000
0000
0000
,  // measure 33
1001
0000
0000
0000
,  // measure 34
0001
0000
0000
0000
,  // measure 35
1000
0000
0000
0000
,  // measure 36
0000
0000
0000
0000
,  // measure 37
0010
0000
0000
0000
,  // measure 38
0000
0000
0000
0000
,  // measure 39
0010
0000
0000
0000
,  // measure 40
0000
0000
0000
0000
,  // measure 41
0100
0000
0000
0000
,  // measure 42
0100
0000
0000
0000
,  // measure 43
0000
0000
0000
0000
,  // measure 44
0000
0000
0000
0000
,  // measure 45
1001
0000
0000
0000
,  // measure 46
1000
0000
0000
0000
,  // measure 47
0001
0000
0000
0000
,  // measure 48
0001
0000
0000
0000
,  // measure 49
1000
0000
0000
0000
,  // measure 50
1000
0000
0000
0000
,  // measure 51
0001
0000
0000
0000
,  // measure 52
0001
0000
0000
0000
,  // measure 53
1001
0000
0000
0000
,  // measure 54
0000
0000
0000
0000
,  // measure 55
0100
0000
0000
0000
,  // measure 56
0000
0000
0000
0000
,  // measure 57
0010
0000
0000
0000
,  // measure 58
1000
0000
0000
0000
,  // measure 59
0001
0000
0000
0000
,  // measure 60
1000
0000
0000
0000
,  // measure 61
1001
0000
0000
0000
,  // measure 62
0000
0000
0000
0000
,  // measure 63
1001
0000
0000
0000
;
